#TITLE:Unreal;
#SUBTITLE:(DDR EDIT);
#ARTIST:Black Rose Garden;
#TITLETRANSLIT:;
#SUBTITLETRANSLIT:;
#ARTISTTRANSLIT:;
#GENRE:;
#CREDIT:Telperion;
#BANNER:Unreal.png;
#BACKGROUND:bg.png;
#LYRICSPATH:;
#CDTITLE:ziv2010cd.png;
#MUSIC:Unreal.mp3;
#OFFSET:-0.237;
#SAMPLESTART:26.520;
#SAMPLELENGTH:15.000;
#SELECTABLE:YES;
#BPMS:0.000=180.000,179.000=90.000,195.000=180.000;
#STOPS:;
#BGCHANGES:0.000=Unreal.avi=1.000=1=0=0=StretchNoLoop==CrossFade==,
99999=-nosongbg-=1.000=0=0=0 // don't automatically add -songbackground-
;
#KEYSOUNDS:;

//---------------dance-double - Telperion----------------
#NOTES:
     dance-double:
     Telperion:
     Hard:
     9:
     0.685,0.736,0.108,0.174,0.043:
00000000
00000000
00000000
00000000
,
00000000
00000000
00000000
00000000
,
00000000
00000000
00000000
00000000
,
00000000
00000000
00000000
00000000
,
00000000
00000000
00000000
00000000
00000000
01000000
10000000
01000000
,
00100000
00001000
00010000
00100000
00010000
00001000
10000000
01000000
,
00010000
00001000
00000100
00001000
00010000
01000000
00010000
00001000
,
00001000
00010000
00010000
00000010
00000100
00000001
00001000
00000100
,
00010000
00001000
00100000
00010000
10000000
01000000
00100000
00000000
,
00000000
00010000
00000000
10000000
,
00000000
01000000
00000000
10100000
00000000
01000000
00010000
00000000
,
00000000
00000000
10000000
00000000
00000000
00000000
01000000
00100000
,
00000000
00010000
10000000
01000000
00100000
00002000
00010000
00000000
,
00000000
01003000
01100000
00010000
,
00001000
00000100
00000010
00001000
00000100
00000010
00000001
00001000
,
00000001
00001000
00000100
00000000
00000010
00000001
00000100
00001000
,
00000000
00010000
01000000
10000000
00100000
01000000
10000000
00000000
,
02000000
00002000
00000000
00000000
00000000
03000000
00003000
00010000
,
00001000
00000000
00000000
00000000
00000000
00000000
00010000
00001000
,
00000000
00010000
00001000
00100000
00001000
10000000
01000000
00100000
,
00010000
01000000
00100000
00010000
00001000
00000100
00000010
00001000
,
00000100
00000010
00000001
00000010
00000001
00000000
00000010
00000100
,
00001000
00000010
00000100
00001000
00000100
00000000
00000001
00000010
,
00001000
00000010
00000001
00000100
00001000
00000100
00000001
00000010
,
00000100
00001000
00000100
00010000
00001000
00100000
00010000
01000000
,
00100000
10000000
01000000
00010000
01000000
00000000
00100000
00010000
,
01000000
10000000
01000000
00100000
10000000
00000000
01000000
00010000
,
01000000
00100000
00010000
10000000
01000000
00100000
00001000
00010000
,
00100000
00010000
00001000
00000010
00001000
00010000
00001000
00010000
,
00011000
00000000
00010000
00100000
00010000
00100000
10000000
01000000
,
00110000
00000000
00010000
01000000
00010000
01000000
00100000
01000000
,
00110000
00000000
10000000
01000000
00010000
00000000
00001000
00000100
,
00000010
00010000
00001000
00000100
00000010
00001000
00000100
00000010
,
00000001
00000010
00000100
00000010
00000101
00000000
00010000
00000100
,
00001000
00000100
00010000
00000100
01001000
00000000
00100000
10000000
,
01000000
00000000
00100000
00000000
00001000
00000000
00010000
00000000
00000010
00000000
00000100
00000000
00000001
00000100
00000001
00000000
,
00000200
00000002
00000000
00000000
00000000
00000303
00001000
00000100
,
00000010
00000001
00000100
00001000
00010000
00000100
00000010
00000001
,
00000100
00001000
00010000
00000100
00000010
00000001
00000010
00000100
,
00001000
00000001
00001000
00000001
00010000
00000100
00000010
00000100
,
00010000
00001000
01000000
00100000
00000000
00100000
10000000
01000000
,
00010000
00001000
01000000
10000000
01000000
00010000
00100000
01000000
,
00010000
00001000
00000100
00001000
01000000
00001000
00000100
00000010
,
00010000
00001000
00100000
01000000
00010000
01000000
10000000
01000000
,
00100000
00001000
00010000
00000010
00000100
00000001
00000020
00000000
,
00000032
00002003
00000000
00003200
,
00020300
00000000
00030001
00000100
00001000
00010000
02000000
00000000
,
03200000
00000000
00000000
00000000
02300000
00000000
00000000
00000000
23000000
00000000
30000000
00010000
10000000
00000000
00010000
00000000
,
10010000
00000000
00010000
01000000
00100000
01000000
00100000
01000000
00100000
01000000
00100000
01000000
00100000
00000000
01000000
00000000
,
00100000
10000000
01000000
00010000
00001000
00000000
01000000
00100000
,
01000000
00100000
00010000
00001000
00000010
00000000
00000100
00000010
,
00000001
00001000
00000100
00000010
00000001
00001000
00000010
00000100
,
00001000
00000100
00000010
00001000
00000100
00000000
00000001
00000100
,
00000001
00000100
00010000
00000010
00001100
00000000
00001000
00000010
,
00100000
00001000
00010000
00000010
00001100
00000000
00000010
00000100
,
00010000
00000000
00001000
00000000
01000000
00000000
00100000
00000000
10000000
00000000
00010000
00000000
00100000
00010000
00100000
00000000
,
00020000
00200000
00000000
00000000
00000000
00330000
00010000
01000000
,
00100000
10000000
01000000
00010000
00001000
01000000
00100000
10000000
,
01000000
00010000
00001000
01000000
00100000
10000000
00010000
01000000
,
10000000
01000000
10000000
01000000
00010000
00100000
01000000
00010000
,
00001000
00000100
00001000
00010000
00000000
00010000
00000001
00001000
,
00000010
00001000
00000001
00000100
00001000
00010000
00001000
00100000
,
00001000
01000000
10000000
01000000
00010000
00100000
01000000
00100000
,
00010000
10000000
00100000
01000000
00001000
00010000
00000100
00000010
,
00000001
00000100
00000010
00001000
00100000
00010000
00000000
00000000
;

//---------------dance-double - Telperion----------------
#NOTES:
     dance-double:
     Telperion:
     Medium:
     8:
     0.582,0.561,0.325,0.098,0.005:
00000000
00000000
00000000
00000000
,
00000000
00000000
00000000
00000000
,
00000000
00000000
00000000
00000000
,
00000000
00000000
00000000
00000000
,
00000000
00000000
00000000
10000000
,
00000000
00110000
00000000
00000000
01000000
00000000
00000000
10100000
,
00000000
00010000
00000000
00001000
00000000
00010010
00000000
00000000
,
00101000
00000000
00000000
00011000
00000000
00000000
00001000
10000000
,
01000000
10000000
00010000
00100000
00001000
00010000
00011000
00000000
,
00000000
00001000
00000000
00010000
,
01000000
00100000
00000000
00001000
00000000
00010000
00100000
00000000
,
10000000
00000000
11000000
00000000
00000000
00000000
00100000
00010000
,
00000000
00100000
00001000
00010000
00000010
00010000
00000100
00000000
,
00000100
00001000
00000001
00000100
,
00000010
00001000
00000000
00000100
00000000
00000010
00000001
00000000
,
00000100
00000000
00001000
00000000
00000100
00000000
00000001
00001000
,
00000000
00001000
00000100
00000010
00000100
00001000
00000001
00000000
,
00002000
00000002
00000000
00000000
00000000
00000000
00003003
00001000
,
00000001
00000000
00000000
00000000
00000000
00000000
00000100
00000010
,
00000000
00000100
00000010
00000100
00000100
00000010
00001000
00000001
,
00001000
00000100
00010000
00000100
00000010
00000001
00000100
00000010
,
00001000
00000100
00010000
00001000
01000000
00000000
00010000
10000000
,
01000000
00100000
00010000
10000000
01000000
00000000
00100000
00001000
,
00010000
00000100
00001000
00000001
00000100
00000000
00000010
00001000
,
00000001
00000100
00000010
00001000
00000001
00000000
00010000
00001000
,
00001000
00010000
00000100
00000010
00000001
00000000
00000100
00000010
,
00001000
00000100
00010000
00001000
01000000
00000000
00001000
00010000
,
00010000
00001000
01000000
00100000
10000000
00000000
01000000
00100000
,
00001000
00010000
00000100
00010000
00001000
01000000
00100000
00000000
,
01100000
00000000
10000000
01000000
00010000
00000000
01000000
00000000
,
01100000
00000000
10000000
01000000
00010000
00000000
00001000
00000000
,
01001000
00000000
00010000
00000000
00010100
00000000
00001000
00010000
,
00000100
00000010
00000001
00000100
00000010
00000100
00000001
00001000
,
00000001
00001000
00000100
00010000
00000100
00000000
00010000
00000100
,
00010000
00000100
00100000
00001000
00100000
00000000
00010000
01000000
,
00010000
00010000
10000000
01000000
00010000
00001000
00020000
00000000
,
00000000
00030000
00000000
00011000
,
00000000
00101000
00000000
00000000
01100000
00000000
00000000
01010000
,
00000000
00011000
00000000
00001100
00000000
00000110
00000000
00000000
,
00001001
00000000
00000000
00000110
00000000
00000000
00000001
00001000
,
00000100
00000010
00000001
00010000
00001000
00000000
00010000
00000100
,
00001000
00000010
00000100
00000001
00001000
00000100
00010000
00001000
,
01000000
00010000
10000000
01000000
00100000
00010000
10000000
01000000
,
00100000
00001000
00010000
00000010
00001000
00000100
00000010
00000001
,
00000100
00001000
00000100
00000001
00000100
00001000
00020000
00000000
,
00030000
00002000
00003000
20000000
,
30000000
01000000
00010000
00002000
,
00003000
00020000
00030000
00000100
,
00000001
00000000
00000010
00000000
00001000
00000000
00000100
00001000
,
00000100
00000010
00000001
00001000
00000100
00000000
00001000
00000010
,
00001000
00000001
00000100
00000010
00001000
00000000
00000100
00010000
,
00001000
00100000
00010000
10000000
01000000
00000000
00100000
01000000
,
10000000
00010000
01000000
00100000
10000000
00000000
00010000
01000000
,
00100000
01000000
00010000
00100000
00001000
00010000
00000100
00001000
,
00000001
00001000
00000100
00010000
00001000
00100000
01000000
10000000
,
00100000
00010000
00100000
10000000
01000000
00010000
00002000
00000000
,
00000000
00003000
00000000
00011000
,
00000000
00010010
00000000
00000000
00000110
00000000
00000000
00001100
,
00000000
00011000
00000000
01010000
00000000
01100000
00000000
00000000
,
10010000
00000000
00000000
00000000
00000000
00000000
01100000
00000000
00000000
00000000
00000000
00010000
10000000
00000000
01000000
00000000
,
00100000
00010000
10000000
01000000
00010000
00000000
00001000
00010000
,
00000100
00001000
00000010
00000100
00000001
00001000
00000100
00000010
,
00000001
00001000
00000100
00010000
00001000
00100000
00010000
01000000
,
00100000
10000000
00100000
01000000
00100000
10000000
01000000
00010000
,
01000000
10000000
00100000
00010000
00001000
00011000
00000000
00000000
;

//---------------dance-double - Telperion----------------
#NOTES:
     dance-double:
     Telperion:
     Easy:
     6:
     0.403,0.350,0.271,0.152,0.000:
00000000
00000000
00000000
00000000
,
00000000
00000000
00000000
00000000
,
00000000
00000000
00000000
00000000
,
00000000
00000000
00000000
00000000
,
00000000
00000000
00000000
00000000
00000000
10000000
01000000
00000000
,
01000000
00000000
10000000
00000000
00010000
01000000
00000000
00100000
,
10000000
01000000
00010000
00001000
,
00010000
01000000
00000000
00100000
00010000
00000000
10000000
00000000
,
00010000
01000000
00000100
00002000
,
00000000
00003002
00000000
00001003
,
00000001
00000100
00000000
00000010
00000000
00000100
00000001
00000000
,
00000000
00000000
00001000
00000000
00000000
00000000
00000100
00000010
,
00000000
00000100
00000010
00000000
00000001
00000000
00000100
00000000
,
00000000
00001000
00000000
00010000
,
00001000
00010000
00000000
00011000
00000000
00000000
00001000
00000000
,
00000000
00000000
00010000
00000000
00000000
00000000
00100000
10000000
,
00000000
00100000
01000000
00000000
00010000
00000000
00100000
00000000
,
00000000
20020000
00000000
00000000
00000000
00000000
30030000
00000000
,
00000000
00000000
00000000
00000000
00000000
00000000
01000000
00100000
,
00000000
01000000
00010000
00000000
00100000
00000000
01000000
10000000
,
00000000
01000000
00100000
00000000
00010000
00000000
10000000
01000000
,
10000000
00000000
00000000
00000000
11000000
00000000
00100000
00010000
,
00100000
00000000
00000000
00000000
00101000
00000000
01000000
00100000
,
01000000
00000000
00000000
00000000
01010000
00000000
00100000
01000000
,
00010000
00000000
10000000
00000000
01000000
00000000
00100000
00001000
,
00100000
00000000
00000000
00000000
00101000
00000000
00010000
00001000
,
00010000
00000000
00000000
00000000
00010010
00000000
00001000
00000100
,
00001000
00000000
00000000
00000000
00001001
00000000
00000010
00000001
,
00000010
00000000
00000001
00000100
00000001
00000000
00001000
00000000
,
00001100
00000000
00000010
00000001
,
00000101
00000000
00000010
00010000
,
00011000
00000000
00000000
00000000
00001000
00010000
00001000
00000000
,
00011000
00000000
00011000
00001000
,
00100000
00010000
10000000
01000000
,
00100000
00010000
10000000
00001000
,
01000000
00000100
00001000
00000002
,
00000000
00000000
00001003
00000000
00000000
00001000
00000100
00000000
,
00000100
00001001
00000000
00000001
,
00000001
00000100
00000000
00000010
00000000
00000100
00000001
00000000
,
00000001
00000000
00001010
00000000
00000000
00000000
00000100
00001000
,
00000000
00000001
00000100
00000000
00000000
00000001
00001000
00000000
,
00000100
00000000
00010000
00000000
00001000
00010000
00000000
00001000
,
00010000
00000000
00001000
00000000
01000000
00100000
00000000
00000000
,
10000000
00000000
00000000
11000000
00000000
00000000
00110000
00000000
,
00010000
10000000
01000000
00020000
,
00030000
00002000
00003000
00200000
,
00300000
00020000
00030000
02000000
,
03000000
00200000
00300000
00020000
,
00030000
00000200
00000300
00000010
,
00000011
00000000
00000001
00001000
,
00001010
00000000
00000100
00010000
,
00011000
00000000
00001000
00100000
,
00000000
00010000
00000000
00000000
01000000
00000000
00100000
00000000
,
10000000
01000000
00010000
00001000
,
00000100
00000001
00000010
00000001
,
00010000
00000100
01000000
00002000
,
00000000
00000000
00003000
00000000
00000000
00100000
00001000
00000000
,
01000000
01100000
00000000
00010000
,
00010000
10000000
00000000
01000000
00000000
10000000
00100000
00000000
,
01000000
00110000
01000000
10000000
,
00100000
00000000
00010000
00000000
00000000
00001000
00010000
00000000
,
00001000
00011000
00000000
00000100
,
00000010
00000101
00000000
00000010
,
00001000
00000000
00010000
00001000
00000000
00010000
00001000
00100000
,
00001000
00010000
00000010
00010000
00000000
00011000
00000000
00000000
;

//---------------dance-single - Telperion----------------
#NOTES:
     dance-single:
     Telperion:
     Hard:
     9:
     0.686,0.771,0.282,0.098,0.049:
0000
0000
0000
0000
,
0000
0000
0000
0000
,
0000
0000
0000
0000
,
0000
0000
0000
0000
,
0000
0000
0000
0000
0000
0001
1000
0100
,
0010
0001
0100
1000
0100
0010
1000
0100
,
0001
0100
0010
0001
0100
0001
0010
0100
,
1000
0010
1000
0100
0010
0001
1000
0010
,
0100
0001
1000
0001
1000
0001
1001
0000
,
0000
0000
0000
0000
,
0000
1001
0000
1100
0000
0001
0101
0000
,
0000
0000
0001
0000
0000
0000
0100
0010
,
0000
0100
0010
1000
0100
0110
0000
0000
,
0001
0000
0001
0000
1000
0000
1000
0001
,
0010
0100
0000
0100
0010
0001
0100
0010
,
1000
0000
0100
0000
1000
0000
0001
1000
,
0000
0100
0010
0000
0001
0100
1000
0000
,
0100
0002
0000
0000
0000
0000
0000
1003
,
0001
0000
0000
0000
0000
0000
1000
0001
,
0000
1000
0001
1000
1000
0100
0010
0001
,
0001
0100
1000
0001
0010
1000
0100
0010
,
0001
0100
0010
0100
0110
0000
0010
1000
,
0100
0010
0001
0100
0101
0000
0010
1000
,
0100
0000
0010
0001
0100
0000
1000
0100
,
0001
0010
1000
0010
0001
0100
0010
1000
,
1000
0100
0010
0001
0101
0000
1000
0100
,
0010
0100
1000
0001
0011
0000
0100
0010
,
1000
0010
0100
1000
0100
1000
0100
0001
,
0010
0001
0010
0100
1000
0010
0100
0000
,
1010
0000
0100
1000
0010
0000
0100
0000
,
0011
0000
0100
1000
0001
0000
0100
0000
,
1010
0000
0100
0010
0001
0010
0100
0000
,
1001
0000
0010
0100
1001
0000
1000
0100
,
0010
0100
1000
0100
0010
0100
1000
0001
,
0100
0001
1000
0100
1000
0001
0100
1000
,
0100
0000
0001
0000
0010
0000
1000
0000
0010
0000
0001
0000
1000
0001
1000
0000
,
0001
1000
0000
0110
0000
0110
0001
1000
,
0100
1000
0010
0100
0000
0100
0001
0010
,
1000
0010
0000
0001
0000
1000
0001
1000
,
0010
0001
0010
1000
0100
0010
0001
0100
,
1000
0100
0001
0010
0000
0100
0010
0100
,
0010
0001
1000
0100
1000
0001
0100
1000
,
0100
0010
1000
0100
0001
0100
1000
0000
,
1000
0010
0000
0010
0001
1000
0001
1000
,
0100
0001
1000
0001
1000
0001
2002
0000
,
0003
3200
0001
2000
,
0300
0000
3020
0000
0001
0000
0230
0310
,
0110
0000
0100
0010
2000
0000
3100
0000
1100
0000
1000
0001
0200
0000
0310
0000
,
0110
0000
0100
0001
1000
0001
1000
0001
1000
0001
1000
0001
1000
0000
0001
0000
,
1000
0100
0010
0001
0110
0000
0001
1000
,
0001
0100
0010
1000
0110
0000
1000
0010
,
0100
1000
0100
0010
1100
0000
0001
0010
,
0100
0010
0001
0010
1000
0010
0001
0100
,
0010
0100
0001
1000
0100
1000
0010
0100
,
1000
0100
0001
0010
1000
0010
0001
0100
,
1000
0000
0001
0000
0010
0000
1000
0000
0001
0000
0100
0000
0010
0100
0010
0000
,
1000
0001
0000
0110
0000
1001
0100
1000
,
0100
0010
0001
1000
1000
0100
0010
0100
,
0100
1000
0001
0010
0010
0001
0100
0010
,
0001
0010
1000
0100
0001
0100
0010
0001
,
1000
0100
0001
1000
0010
0100
1000
0001
,
0010
1000
0001
1000
0010
0001
0100
0010
,
0010
0001
1000
0001
0010
1000
0100
0001
,
1000
0010
0100
1000
0001
1000
0001
0100
,
1000
0010
0001
0100
1000
1001
0000
0000
;

//---------------dance-single - Telperion----------------
#NOTES:
     dance-single:
     Telperion:
     Medium:
     7:
     0.553,0.561,0.217,0.152,0.000:
0000
0000
0000
0000
,
0000
0000
0000
0000
,
0000
0000
0000
0000
,
0000
0000
0000
0000
,
0000
0000
0000
0000
0000
0001
1000
0100
,
0010
0000
0001
0100
0010
1000
0000
0100
,
0010
0001
0100
0010
0100
0001
0010
0000
,
0100
1000
0000
0001
0100
0000
0100
0001
,
1000
0100
1000
0001
0100
1000
0000
0000
,
0000
0000
0000
0000
,
0000
1001
0000
0011
0000
1000
0001
0000
,
0000
0000
0011
0000
0000
0000
0000
1100
,
0000
0010
0001
0101
0000
0020
0000
0000
,
1030
1000
0001
1000
,
0001
1000
0000
1001
0000
0110
0000
0000
,
0001
0001
1000
0001
,
1000
0100
0000
0010
0001
1000
0001
0000
,
0000
2002
0000
0000
0000
3003
0000
1000
,
0001
0000
0000
0000
0000
0000
1000
0001
,
0000
1000
0001
0100
0010
0000
0100
0010
,
1000
0100
0010
0001
1000
0000
0001
0010
,
0001
0010
0100
1000
0100
0000
1000
0010
,
1000
0010
0100
0001
0010
0000
0001
1000
,
0001
1000
0100
0010
0001
0000
0100
0010
,
1000
0010
0100
0001
0010
0000
0100
1000
,
0100
1000
0001
0100
0001
0000
0010
0001
,
0010
0100
1000
0010
1000
0000
0001
0100
,
0001
1000
0100
1000
0010
0100
0001
0000
,
1000
0100
0010
0110
,
0001
0000
1000
0100
0010
0000
1100
0000
,
0010
0000
0001
0100
0010
0000
0101
0000
,
1000
0000
0001
1000
0100
0000
0010
0001
,
1000
0000
0010
1000
0001
0000
0100
0000
,
0110
0000
0000
0100
0001
0000
1000
0000
,
0110
0000
0000
0100
1000
0000
0001
0000
,
0100
0010
1000
0100
1000
0010
0100
0000
,
0000
0220
0000
0000
0300
0000
1030
0000
,
0100
0010
0001
0000
0100
0010
0000
0100
,
0001
1000
0100
0000
1000
0001
0100
0000
,
0100
0001
0000
0001
0010
0000
0010
0100
,
1000
0001
1000
0000
0000
0110
0000
0010
,
1000
0100
0010
0000
0010
0100
0000
0100
,
0010
0001
1000
0001
0100
0010
0000
0000
,
1100
0000
0000
0010
0000
0000
0100
0001
,
0010
0001
1000
0010
1000
0001
2000
0000
,
0000
0002
3000
0200
,
0003
2300
3200
0302
,
0000
2003
0000
3100
,
0001
0100
1000
1001
,
0010
0000
1000
0100
1000
0000
1001
0000
,
0010
0000
0001
0100
0001
0000
1000
0010
,
1000
0010
0100
0001
0010
0000
0001
0010
,
0100
1000
0010
0100
0001
0000
1000
0100
,
1000
0000
0001
0100
0001
0000
1000
0010
,
1000
0100
0010
0001
0010
0000
0001
1000
,
0100
1000
0001
0010
1000
0010
0001
0000
,
0000
2002
0000
3000
0000
1003
0010
0100
,
0000
0010
1000
0000
0100
0010
0000
0001
,
1000
0100
0010
0000
0001
1000
0010
0000
,
0010
0100
0000
0100
1000
0000
1000
0100
,
0010
0100
0010
1000
0000
0100
0010
0100
,
0010
0001
1000
0000
0001
0100
0000
0100
,
0010
1000
0100
0010
0001
0100
0010
0100
,
0001
0010
0001
1000
0010
1000
0100
0010
,
0100
1000
0001
0100
0010
0110
0000
0000
;

//---------------dance-single - Telperion----------------
#NOTES:
     dance-single:
     Telperion:
     Easy:
     5:
     0.400,0.420,0.531,0.163,0.000:
0000
0000
0000
0000
,
0000
0000
0000
0000
,
0000
0000
0000
0000
,
0000
0000
0000
0000
,
0000
0000
0000
1000
,
0000
1001
0101
0000
,
0000
1001
0000
1100
0000
1010
0000
0000
,
0100
0000
0000
0011
0000
0000
0001
0000
,
1000
0100
0010
0110
,
0000
0000
0000
1001
,
0000
0000
0000
1100
0000
0011
0000
0000
,
0000
0000
1001
0000
0000
0000
1000
0001
,
0000
0010
0001
0000
1000
0000
1010
0000
,
1000
0100
0010
0011
,
0100
0010
1000
1010
,
0100
0010
0100
0011
,
1000
1001
0010
0110
,
0000
0220
0000
0000
0000
0000
0000
0000
,
0000
0330
0000
1001
,
0000
0100
1000
0000
0001
0000
0100
0000
,
0010
0100
0001
1001
,
0000
1000
1010
0100
,
0000
1000
0011
0100
,
0000
0001
1010
0100
,
0010
0001
0100
0010
,
0000
1000
0101
0100
,
0000
0010
1100
0100
,
0000
0001
0101
1000
,
1100
0001
0011
1000
,
0100
1000
0001
0100
,
0001
0010
0000
0001
,
1000
0010
0000
1000
,
0100
0001
0100
1000
,
0100
1000
0000
0001
,
0100
0001
0000
1000
,
0001
1000
0001
0000
1000
0001
1000
0000
,
0000
0000
0011
0000
0000
1010
1001
0000
,
0001
0100
0010
1000
,
0100
0001
0000
0100
0000
0000
1000
0000
,
0001
0000
0100
0000
0001
0000
0100
1000
,
0000
0100
0001
0010
,
0001
1000
1010
0001
,
1000
0000
0001
0000
0000
0011
0000
0000
,
1100
0000
0000
0101
0000
0000
1010
0000
,
0001
1000
0100
2001
,
0000
3200
0320
0032
,
0000
0203
0320
2030
,
0000
3200
0320
0032
,
2003
0000
3001
0000
1000
0001
1001
0000
,
0000
0000
0000
0110
,
0000
0000
0000
1001
,
0000
0000
0000
0000
0000
0000
0001
0010
,
0001
0000
1000
0010
1000
0000
0100
0000
,
0000
1000
0000
0100
,
0000
0010
0000
0001
,
1000
0001
1000
0000
0001
2000
0002
0000
,
0000
3003
0000
0001
,
0000
1000
1100
0010
,
0000
0001
0101
0010
,
0000
1100
0000
0000
0001
0000
1000
0000
,
0100
0000
1000
0000
0000
0101
0000
0000
,
0001
0000
1000
0000
0000
1100
0000
0000
,
0001
0000
0010
0000
0000
1010
0000
0000
,
0101
0000
0000
1100
0000
0000
0001
0010
,
0001
0000
1000
0000
0010
1001
0000
0000
;

//---------------dance-single - Telperion----------------
#NOTES:
     dance-single:
     Telperion:
     Beginner:
     2:
     0.163,0.176,0.195,0.000,0.000:
0000
0000
0000
0000
,
0000
0000
0000
0000
,
0000
0000
0000
0000
,
0000
0000
0000
0000
,
0000
0000
0000
1000
,
0000
0000
0000
0001
,
0000
0000
0000
0100
,
0000
0010
0000
1000
,
0000
0001
0000
1001
,
0000
0000
0000
0000
,
0000
0000
0000
1001
,
0000
0000
0000
0000
,
0000
0000
0000
0110
,
0000
0000
0000
0000
,
0000
0000
0000
0110
,
0000
0000
0000
1001
,
0000
0000
0000
1001
,
0000
0000
0000
1000
,
0000
0001
0000
0100
,
0000
0000
0000
0100
,
0000
0001
0000
1000
,
0000
0001
0000
1000
,
0000
0001
0000
0100
,
0000
0010
0000
0110
,
0000
0000
0000
0001
,
0000
1000
0000
0001
,
0000
1000
0000
0100
,
0000
0010
0000
0110
,
0000
0000
0000
1000
,
0000
0001
0000
0001
,
0000
1000
0000
1000
,
0000
0001
0000
1001
,
0000
0000
0000
0010
,
0000
0100
0000
0100
,
0000
0010
0000
0010
,
0000
0100
0000
0110
,
0000
0000
0000
1000
,
0000
0000
0000
0001
,
0000
1000
0000
0001
,
0000
0000
0000
1000
,
0000
0001
0000
0100
,
0000
0000
0000
0010
,
0000
0100
0000
0010
,
0000
0000
0000
1000
,
0000
0001
0000
1001
,
0000
0000
0000
0110
,
0000
0000
0000
1001
,
0000
0000
0000
0110
,
0000
0000
0000
1001
,
0000
0000
0000
0000
,
0000
0000
0000
0110
,
0000
0000
0000
0000
,
0000
0000
0000
1000
,
0000
0001
0000
1000
,
0000
0001
0000
0100
,
0000
0010
0000
0110
,
0000
0000
0000
1000
,
0000
0100
0000
1000
,
0000
0100
0000
1000
,
0000
0001
0000
1000
,
0000
0001
0000
0100
,
0000
0001
0000
0100
,
0000
0001
0000
0010
,
0000
0100
0000
1000
,
0000
0001
0000
1001
;
