#TITLE:MENDES;
#SUBTITLE:;
#ARTIST:Humanoid;
#TITLETRANSLIT:;
#SUBTITLETRANSLIT:;
#ARTISTTRANSLIT:;
#CREDIT:;
#BANNER:MENDES-bn.png;
#BACKGROUND:MENDES-bg.png;
#LYRICSPATH:;
#CDTITLE:;
#MUSIC:MENDES.mp3;
#OFFSET:-0.360;
#SAMPLESTART:12.460;
#SAMPLELENGTH:12.000;
#SELECTABLE:YES;
#DISPLAYBPM:*;
#BPMS:0.000=168.000,32.000=336.001,226.000=21.000,227.000=42.000,228.000=84.000,252.000=168.000,300.000=336.000,413.500=84.001;
#STOPS:299.500=1.430
,413.500=1.071
;
#BGCHANGES:;

//---------------dance-single - ----------------
#NOTES:
     dance-single:
     :
     Hard:
     10:
     0.791,1.000,0.761,0.034,0.158: // measure 1
0000
0000
0000
0000
,  // measure 2
0000
0000
0000
0000
,  // measure 3
0000
0000
0000
0000
,  // measure 4
0000
0000
0000
0000
,  // measure 5
1010
0001
0100
0010
1000
0100
0010
0001
,  // measure 6
0100
1000
0100
0010
1000
0001
1010
0100
,  // measure 7
1100
0001
0100
0001
1001
0100
0010
0001
,  // measure 8
0110
0100
0101
0001
1001
1000
1100
0100
,  // measure 9
1000
0001
0100
0010
1000
0100
0010
0001
,  // measure 10
1000
0001
0100
0010
,  // measure 11
1000
0100
0010
0001
,  // measure 12
0100
1000
0100
0010
,  // measure 13
1000
0100
0010
0001
,  // measure 14
0100
0010
0001
0010
,  // measure 15
1000
0100
0010
0001
,  // measure 16
1000
0100
1000
0000
0010
0100
0010
0000
,  // measure 17
0100
1000
0100
0000
0001
0100
0001
0000
,  // measure 18
0100
0001
1000
0100
,  // measure 19
0010
0001
0100
1000
,  // measure 20
0100
0010
1000
0100
,  // measure 21
0010
0001
0100
0010
,  // measure 22
0001
0010
0100
0001
,  // measure 23
0010
0100
0001
0100
,  // measure 24
0010
0100
0010
0000
1000
0100
1000
0000
,  // measure 25
0010
1000
0010
0000
0100
0010
0100
0000
,  // measure 26
1000
0100
1000
0000
0001
0010
0001
0000
,  // measure 27
0100
0010
0100
0000
0010
0001
0010
0000
,  // measure 28
1000
0010
1000
0000
0001
1000
0001
0000
,  // measure 29
0010
0001
0010
0000
0100
0010
0100
0000
,  // measure 30
1000
0010
1000
0000
0001
1000
0001
0000
,  // measure 31
0100
0001
0100
0000
0010
0100
0010
0000
,  // measure 32
1000
0100
0010
0000
0001
0010
0100
0000
,  // measure 33
1000
0100
0010
0000
0001
0010
0100
0000
,  // measure 34
0010
0100
0010
0000
0100
1000
0100
0000
,  // measure 35
0001
0100
0001
0000
1000
0001
1000
0000
,  // measure 36
0100
0001
0100
0000
1000
0100
1000
0000
,  // measure 37
0010
1000
0010
0000
0100
1000
0100
0000
,  // measure 38
0001
0010
0001
0000
0010
1000
0010
0000
,  // measure 39
0100
0001
0100
0000
1000
0010
1000
0000
,  // measure 40
0001
0100
0010
0000
1000
0010
0100
0000
,  // measure 41
0001
0100
0010
0000
1000
0010
0100
0000
,  // measure 42
1010
0110
1100
0000
,  // measure 43
0011
0000
1100
0101
,  // measure 44
0000
0110
0000
1100
,  // measure 45
0011
0110
0000
1100
,  // measure 46
0011
0000
0110
0000
0001
1000
0010
0100
,  // measure 47
0001
1000
0010
0000
0011
0000
1100
0000
,  // measure 48
0101
0000
0110
0000
,  // measure 49
1100
0011
0000
1001
,  // measure 50
0000
0110
1100
0011
,  // measure 51
0000
0101
1100
0110
,  // measure 52
0001
0100
0010
1000
0100
0010
0001
0000
,  // measure 53
1000
0100
1000
0100
0010
0100
0010
0100
,  // measure 54
0010
0001
0010
0001
0100
0001
0100
0001
,  // measure 55
0100
0010
0100
0010
1000
0100
1000
0100
,  // measure 56
0010
0100
0001
1000
0100
0010
0001
0100
,  // measure 57
0010
1000
0100
0010
0002
0000
2003
3020
,  // measure 58
0130
0001
1000
0010
0100
0001
1000
0100
0010
0001
0010
0100
1000
0000
0000
0000
0000
0000
0101
0000
0000
0000
0000
0000
,  // measure 59
0010
1000
0001
1000
0010
0100
0001
0010
0100
0010
0001
1000
0010
0000
0000
0000
0000
0000
0011
0000
0000
0000
0000
0000
,  // measure 60
0100
0010
1000
0001
0010
0100
0010
0001
1000
0010
0100
0001
1000
0000
0000
0000
0000
0000
1100
0000
0000
0000
0000
0000
,  // measure 61
0010
1000
0100
0010
0001
1000
0010
0100
0001
0010
0100
0010
0001
0000
0000
0000
0000
0000
1001
0000
0000
0000
0000
0000
,  // measure 62
0001
0000
0000
1000
0000
0000
0010
0000
0100
0000
0000
0000
0001
0000
0000
0000
,  // measure 63
1000
0000
0000
0000
0000
0000
0000
0000
0000
0000
0000
0000
0010
0000
0000
0000
0100
0000
0000
0000
0000
0000
0000
0000
1001
0000
0000
1100
0000
0000
0000
0000
0000
0000
0000
0000
0110
0000
0000
0000
0000
0000
0000
0000
0000
0000
0000
0000
,  // measure 64
0101
0010
0100
0001
0000
0000
0000
0000
,  // measure 65
0000
0001
0100
0010
1000
0100
0010
0001
,  // measure 66
1010
0100
0010
1000
0000
0000
0000
0000
,  // measure 67
1001
0101
0110
1100
,  // measure 68
0110
0100
0001
1000
0000
0000
0000
0000
,  // measure 69
0001
0100
0010
1000
0100
0010
0001
0100
,  // measure 70
1010
1000
0001
0100
0000
0000
0000
0000
,  // measure 71
1100
1000
0000
0000
1001
0000
0010
0000
,  // measure 72
0101
0000
0000
0000
0000
0000
0000
0000
1010
0000
0000
0110
0000
0000
1100
0000
,  // measure 73
0101
0000
1010
0100
,  // measure 74
1001
0000
0000
0000
0000
0000
0000
0000
0101
0000
0000
1100
0000
0000
1010
0000
,  // measure 75
0110
0000
0001
0000
1010
0000
0101
0110
,  // measure 76
1100
1100
1100
0010
,  // measure 77
1000
0001
0100
0010
,  // measure 78
1000
0100
0010
0001
,  // measure 79
1001
1001
1001
0100
,  // measure 80
0010
1000
0100
0010
,  // measure 81
0001
0100
0010
0100
,  // measure 82
0101
0101
0101
1000
,  // measure 83
0100
0010
0001
0100
,  // measure 84
0010
1000
0001
1000
,  // measure 85
0011
0011
0011
0100
,  // measure 86
0010
1000
0100
0010
,  // measure 87
0001
0100
0010
0100
,  // measure 88
0110
0000
0110
0000
0110
0000
1000
0001
,  // measure 89
0100
0000
0010
0000
1000
0000
0100
0010
,  // measure 90
1000
0000
0010
0100
0001
0000
1000
0000
,  // measure 91
0101
0000
0101
0000
0101
0000
0010
1000
,  // measure 92
0100
0000
0001
0000
0100
0000
0001
0010
,  // measure 93
0100
0000
1000
0010
0100
0000
0001
0000
,  // measure 94
1100
0000
1100
0000
1100
0000
0010
0100
,  // measure 95
0001
0000
0010
0000
1000
0000
0100
0010
,  // measure 96
1000
0000
0010
1000
0001
0000
0100
0000
,  // measure 97
0011
0000
0011
0000
0011
0000
1000
0010
,  // measure 98
0100
0000
0001
0000
1000
0000
0010
0100
,  // measure 99
0001
0000
0010
0100
1000
0000
0010
0000
,  // measure 100
0001
0100
0010
1000
0100
0010
0001
0100
,  // measure 101
0010
1000
0100
0010
0001
0100
0010
0001
,  // measure 102
0010
0100
0001
1000
0100
0010
0001
0100
,  // measure 103
0010
1000
0100
0010
0001
0100
0001
1000
,  // measure 104
0001
0100
0010
1000
0002
0000
1003
0000
;

//---------------dance-single - ----------------
#NOTES:
     dance-single:
     :
     Medium:
     8:
     0.538,0.842,0.350,0.034,0.081: // measure 1
0000
0000
0000
0000
,  // measure 2
0000
0000
0000
0000
,  // measure 3
0000
0000
0000
0000
,  // measure 4
0000
0000
0000
0000
,  // measure 5
1000
0001
1000
0001
1000
0001
1000
0001
,  // measure 6
1000
0010
1000
0010
1000
0010
0100
0001
,  // measure 7
0010
0100
0010
0100
0010
0100
0010
0100
,  // measure 8
1000
0100
1000
0100
0010
0001
0100
0010
,  // measure 9
1000
0001
0100
0010
,  // measure 10
1000
0000
0001
0000
,  // measure 11
0100
0000
0010
0000
,  // measure 12
0010
0000
0001
0000
,  // measure 13
1000
0000
0010
0000
,  // measure 14
0100
0000
0001
0000
,  // measure 15
1000
0000
0100
0000
,  // measure 16
1000
0001
0100
0010
,  // measure 17
1000
0100
0010
0001
,  // measure 18
0100
0000
0001
0000
,  // measure 19
1000
0000
0010
0000
,  // measure 20
0100
0000
0001
0000
,  // measure 21
0010
0000
0100
0000
,  // measure 22
1000
0000
0001
0000
,  // measure 23
0100
0000
0010
0000
,  // measure 24
1000
0001
0010
0100
,  // measure 25
1000
0001
0100
0010
,  // measure 26
1000
0001
0100
1000
,  // measure 27
0100
0010
1000
0100
,  // measure 28
0001
0100
0010
0001
,  // measure 29
0100
0010
0001
0010
,  // measure 30
1000
0100
0010
0001
,  // measure 31
0010
0100
1000
0001
,  // measure 32
0100
0010
0001
0010
,  // measure 33
1000
0100
0010
0001
,  // measure 34
0100
1000
0100
0010
,  // measure 35
1000
0100
0001
0100
,  // measure 36
0010
0001
0100
0010
,  // measure 37
0001
0010
1000
0100
,  // measure 38
0010
0001
0100
0001
,  // measure 39
1000
0100
0010
0100
,  // measure 40
0001
0100
0010
0001
,  // measure 41
0100
0010
1000
0100
,  // measure 42
0110
1001
0110
0000
,  // measure 43
1100
0000
0011
1100
,  // measure 44
0000
0101
0000
0110
,  // measure 45
1001
0110
0000
1010
,  // measure 46
1100
1010
0001
0100
,  // measure 47
0010
1000
0110
1100
,  // measure 48
0110
0000
0101
0000
,  // measure 49
0110
1001
0000
0110
,  // measure 50
0000
1100
0011
1100
,  // measure 51
0000
1001
0110
1001
,  // measure 52
0010
0001
0100
0000
,  // measure 53
0001
0100
0010
1000
,  // measure 54
0100
0010
0001
0100
,  // measure 55
1000
0100
0010
1000
,  // measure 56
0100
0010
0001
0100
,  // measure 57
0010
0000
1000
0000
0002
0000
2003
3020
,  // measure 58
0130
0001
1000
0010
0100
0001
0010
0000
0000
1100
0000
0000
,  // measure 59
0001
0010
0100
0010
0001
0100
0010
0000
0000
1100
0000
0000
,  // measure 60
1000
0100
0010
0001
0010
0100
1000
0000
0000
0110
0000
0000
,  // measure 61
0001
1000
0001
0010
0100
0010
0001
0000
0000
1100
0000
0000
,  // measure 62
0010
0000
0000
1000
0000
0000
0001
0000
1000
0000
0000
0000
0010
0000
0000
0000
,  // measure 63
0100
0001
1010
0100
,  // measure 64
0001
0100
0010
1000
0000
0000
0000
0000
,  // measure 65
0000
0001
0010
0100
1000
0001
0100
0010
,  // measure 66
1000
0001
0100
0010
0000
0000
0000
0000
,  // measure 67
1100
0101
0110
1010
,  // measure 68
0010
0100
0001
1000
0000
0000
0000
0000
,  // measure 69
0100
0001
0010
0100
1000
0010
0100
0001
,  // measure 70
1000
0010
0100
0010
0000
0000
0000
0000
,  // measure 71
1100
0000
0101
0000
,  // measure 72
0110
0000
0000
0000
0000
0000
0000
0000
0001
0000
0000
1000
0000
0000
0010
0000
,  // measure 73
0100
0000
1100
0000
,  // measure 74
1010
0000
0000
0000
0000
0000
0000
0000
0001
0000
0000
0100
0000
0000
0010
0000
,  // measure 75
1000
0000
0110
0000
,  // measure 76
1000
1000
1000
0001
,  // measure 77
0100
0010
1000
0100
,  // measure 78
0010
0001
0100
0000
,  // measure 79
0001
0001
0001
1000
,  // measure 80
0100
0010
0001
0100
,  // measure 81
0010
1000
0100
0000
,  // measure 82
1000
1000
1000
0001
,  // measure 83
0010
0100
0010
0001
,  // measure 84
0100
0010
1000
0000
,  // measure 85
0010
0010
0010
0100
,  // measure 86
0001
1000
0100
0010
,  // measure 87
0001
0100
0010
0000
,  // measure 88
1000
1000
1000
0001
,  // measure 89
0100
0010
1000
0100
,  // measure 90
0010
0001
0100
0010
,  // measure 91
1000
1000
1000
0001
,  // measure 92
0010
0100
1000
0001
,  // measure 93
0100
1000
0100
0010
,  // measure 94
1000
1000
1000
0100
,  // measure 95
0010
0001
0100
0010
,  // measure 96
0001
0010
0100
0001
,  // measure 97
0010
0010
0010
0001
,  // measure 98
0100
0010
1000
0001
,  // measure 99
0010
0001
0100
0001
,  // measure 100
1000
0001
0100
0010
,  // measure 101
1000
0100
0010
0001
,  // measure 102
0100
0010
0001
0010
,  // measure 103
0100
0001
1000
0100
,  // measure 104
0010
0100
0002
1003
;

//---------------dance-single - ----------------
#NOTES:
     dance-single:
     :
     Easy:
     6:
     0.418,0.709,0.145,0.103,0.000: // measure 1
0000
0000
0000
0000
,  // measure 2
0000
0000
0000
0000
,  // measure 3
0000
0000
0000
0000
,  // measure 4
0000
0000
0000
0000
,  // measure 5
1000
0100
1000
0100
,  // measure 6
0010
0001
0010
0001
,  // measure 7
1000
0001
1000
0001
,  // measure 8
0100
0010
0100
0010
,  // measure 9
1000
0100
0010
0001
,  // measure 10
1000
0000
0001
0000
,  // measure 11
1000
0000
0010
0000
,  // measure 12
0100
0000
0001
0000
,  // measure 13
1000
0000
0001
0000
,  // measure 14
0010
0000
0100
0000
,  // measure 15
1000
0000
0001
0000
,  // measure 16
0100
0001
0100
0000
,  // measure 17
0010
0100
0010
0000
,  // measure 18
1000
0000
0001
0000
,  // measure 19
0100
0000
0010
0000
,  // measure 20
1000
0000
0100
0000
,  // measure 21
0010
0000
0001
0000
,  // measure 22
0100
0000
0010
0000
,  // measure 23
1000
0000
0001
0000
,  // measure 24
1000
0010
1000
0000
,  // measure 25
0001
1000
0001
0000
,  // measure 26
1000
0010
1000
0000
,  // measure 27
0100
0010
0100
0000
,  // measure 28
0010
0001
0010
0000
,  // measure 29
0100
0010
0100
0000
,  // measure 30
0001
1000
0001
0000
,  // measure 31
0010
0001
0010
0000
,  // measure 32
1000
0001
0100
0000
,  // measure 33
0001
0010
0100
0000
,  // measure 34
0010
0100
0010
0000
,  // measure 35
1000
0100
1000
0000
,  // measure 36
0001
0010
0001
0000
,  // measure 37
0010
0100
0010
0000
,  // measure 38
1000
0001
1000
0000
,  // measure 39
0100
0001
0100
0000
,  // measure 40
1000
0001
0100
0000
,  // measure 41
0010
0001
0100
0000
,  // measure 42
0010
1000
0001
0000
,  // measure 43
0100
0000
0001
1000
,  // measure 44
0000
0100
0000
0010
,  // measure 45
0001
0100
0000
0001
,  // measure 46
1000
0010
0100
0000
,  // measure 47
0001
0000
0001
1000
,  // measure 48
0010
0000
0100
0000
,  // measure 49
0001
1000
0000
0001
,  // measure 50
0000
0010
0100
1000
,  // measure 51
0000
0001
0100
0010
,  // measure 52
1000
0000
0001
0000
,  // measure 53
0100
0010
0100
0010
,  // measure 54
0100
0010
0100
0010
,  // measure 55
0100
0010
0100
0010
,  // measure 56
0100
0010
0100
0010
,  // measure 57
0100
0000
0010
0000
0200
0000
0302
0203
,  // measure 58
0320
2030
3001
0101
,  // measure 59
0020
2030
3100
0110
,  // measure 60
0200
0320
1030
0011
,  // measure 61
2000
3200
0310
1001
,  // measure 62
0010
0000
0000
0100
0001
0000
1000
0000
,  // measure 63
0010
0100
0011
1000
,  // measure 64
0010
0100
0000
0000
,  // measure 65
0001
1000
0010
0100
,  // measure 66
0001
0000
1000
0000
,  // measure 67
0011
1100
0011
1010
,  // measure 68
0100
0001
0000
0000
,  // measure 69
0100
1000
0010
0100
,  // measure 70
0001
1000
0000
0000
,  // measure 71
0101
0000
0110
0000
,  // measure 72
1100
0000
0010
0000
,  // measure 73
1100
0000
1001
0000
,  // measure 74
0110
0000
1000
0000
,  // measure 75
0101
0000
1010
0000
,  // measure 76
1000
0100
1000
0010
,  // measure 77
0100
0001
0000
1000
,  // measure 78
0010
0100
0010
0000
,  // measure 79
1000
0100
1000
0100
,  // measure 80
0010
0001
0000
1000
,  // measure 81
0001
0100
0001
0000
,  // measure 82
0010
0100
0010
0100
,  // measure 83
1000
0010
0000
0100
,  // measure 84
0010
1000
0100
0000
,  // measure 85
1000
0001
1000
0001
,  // measure 86
0100
0010
0000
1000
,  // measure 87
0100
0010
0001
0000
,  // measure 88
1000
0100
1000
0001
,  // measure 89
0100
0010
1000
0001
,  // measure 90
1000
0001
0100
0000
,  // measure 91
0001
0100
0001
0010
,  // measure 92
0100
1000
0010
0100
,  // measure 93
0001
1000
0010
0000
,  // measure 94
1000
0100
1000
0001
,  // measure 95
0010
0001
0100
0001
,  // measure 96
1000
0010
0100
0000
,  // measure 97
1000
0001
1000
0001
,  // measure 98
0010
0001
1000
0010
,  // measure 99
0100
0001
1000
0000
,  // measure 100
0010
0100
0010
0100
,  // measure 101
0010
0100
0010
0100
,  // measure 102
0010
0100
0010
0100
,  // measure 103
0010
0100
0010
0100
,  // measure 104
0010
0100
0002
1003
;
