#TITLE:Right Through Me;
#SUBTITLE:;
#ARTIST:Maruja Retana;
#TITLETRANSLIT:;
#SUBTITLETRANSLIT:;
#ARTISTTRANSLIT:;
#CREDIT:hooky;
#BANNER:Right Through Me.png;
#BACKGROUND:Right Through Me-bg.png;
#LYRICSPATH:;
#CDTITLE:;
#MUSIC:Right Through Me.ogg;
#OFFSET:0.151;
#SAMPLESTART:52.820;
#SAMPLELENGTH:15.000;
#SELECTABLE:YES;
#DISPLAYBPM:128.000;
#BPMS:0.000=127.970;
#STOPS:;
#BGCHANGES:0.500=Right Through Me.avi=1.000=0=0=0,
245.000=Right Through Me-bg.png=1.000=0=0=1,
99999=-nosongbg-=1.000=0=0=0 // don't automatically add -songbackground-
;

//---------------dance-single - hooky----------------
#NOTES:
     dance-single:
     hooky:
     Hard:
     7:
     0.339,0.369,0.053,0.255,0.202:
0000
0000
0000
0000
,
0000
0000
0000
0000
,
0000
0000
0000
0000
,
0000
0000
0000
0000
,
0000
0000
0000
0000
1000
0000
0000
0100
0000
0000
0010
0000
0000
0001
0000
0000
,
0100
0000
0000
0010
0000
0000
1000
0000
0000
0001
0000
0000
0100
0000
0000
0001
,
0000
0000
0010
0000
0100
0000
0000
1000
0000
0000
0010
0000
0000
0010
0000
0000
,
0100
0000
0000
0001
0000
0000
0010
0000
0000
0100
0000
0000
0010
0000
0000
0001
,
0000
0000
1000
0000
0001
0000
0000
0010
0000
0000
0100
0000
0000
1000
0000
0000
,
0010
0000
0000
0100
0000
0000
0001
0000
0000
1000
0000
0000
0010
0000
0000
1000
,
0000
0000
0100
0000
0010
0000
0000
0001
0000
0000
0100
0000
0000
0100
0000
0000
,
0010
0000
0000
1000
0000
0000
0100
0000
0000
0010
0000
0000
0100
0000
0000
1000
,
0000
0001
1001
0000
0110
0000
1000
0100
,
1000
0000
0010
0001
0010
0000
0100
0010
,
0100
2000
0100
0010
,
3001
0002
0010
0100
,
1003
0000
0100
0010
0100
0000
0001
0010
,
0001
0000
1000
0000
0100
0000
0100
1000
,
0100
0020
0130
0200
,
0310
0000
0001
0100
0001
0000
1000
0010
,
1000
0002
0010
0020
,
0033
0200
1000
2000
,
3300
0020
0100
0200
,
0330
2000
0000
0002
,
3003
2000
0100
0200
,
3300
0020
0001
0002
,
0033
0200
0010
0020
,
0000
0000
0000
0330
,
1001
0000
0000
0000
1100
0000
0000
0001
0000
0000
0100
0000
0000
0010
0000
0000
,
0100
0000
0000
0010
1000
0000
0100
0000
1000
0000
0000
0000
0010
0000
0001
0000
,
0010
0000
0000
0000
0100
0000
0000
0010
0000
0000
1000
0000
0000
0100
0000
0000
,
0010
0000
0000
1000
0001
0000
0100
0000
0001
0000
0000
0000
0010
0000
1000
0000
,
0010
0000
0000
0000
0100
0000
0000
0010
0000
0000
1000
0000
0000
0001
0000
0000
,
0010
0000
0000
0100
0010
0000
0100
0000
0010
0000
0000
0000
1000
0000
0100
0000
,
1000
2000
0001
0100
,
3010
0002
1000
0010
,
0103
0000
0000
0000
0001
0000
0000
1000
0000
0000
0010
0000
0000
0100
0000
0000
,
0010
0000
0000
0100
0001
0000
0010
0000
0001
0000
0000
0000
0100
0000
1000
0000
,
0100
0000
0000
0000
0010
0000
0000
0100
0000
0000
0001
0000
0000
0010
0000
0000
,
0100
0000
0000
0001
1000
0000
0010
0000
1000
0000
0000
0000
0100
0000
0001
0000
,
0100
0000
0000
0000
0010
0000
0000
0100
0000
0000
0001
0000
0000
1000
0000
0000
,
0100
0000
0000
0010
0100
0000
0010
0000
0100
0000
0000
0000
0001
0000
0010
0000
,
0001
0002
1000
0010
,
0103
2000
0001
0100
,
3010
2002
0000
0000
,
0000
0000
0000
0000
,
0000
3003
0000
0000
;

//---------------dance-single - hooky----------------
#NOTES:
     dance-single:
     hooky:
     Medium:
     6:
     0.267,0.325,0.223,0.138,0.000:
0000
0000
0000
0000
,
0000
0000
0000
0000
,
0000
0000
0000
0000
,
0000
0000
0000
0000
,
0000
1000
0100
1000
,
0100
0010
0001
0010
,
0001
0100
0001
0100
,
0001
0000
1000
0000
0010
0000
1000
0010
,
1000
0100
0010
0100
,
0010
1000
0100
1000
,
0100
0010
0001
0010
,
0001
0000
0100
0000
0010
0000
1000
0010
,
1000
0010
0110
0001
,
0101
1000
1100
0010
,
0010
0200
0002
0303
,
0101
0020
2000
3030
,
1010
1000
0100
1000
,
0010
0100
0001
0010
,
0001
0002
0000
2000
,
3003
1000
0000
0010
,
0100
0110
0000
0110
,
0000
1001
0000
1001
,
0000
0110
0000
0220
,
0000
0000
0000
0000
,
0330
1100
0000
0011
,
0000
0101
0000
0110
,
0000
1010
0000
2002
,
0000
0000
0000
3003
,
0110
0000
1001
0000
1000
0000
0100
1000
,
0100
0000
0010
0000
0100
0000
0001
0100
,
0001
0010
0001
0001
,
1000
0000
0010
1000
0010
0000
0100
0001
,
0100
0001
0001
1000
,
0010
0000
0100
0010
0100
0000
0001
0100
,
0001
1000
1000
0200
,
0000
1000
0000
1300
,
0000
0000
0010
0000
0100
0000
0001
0100
,
0001
0000
1000
0000
0100
0000
1000
0100
,
1000
0000
0010
0000
0010
0000
1000
0010
,
1000
0000
0001
0100
0001
0000
1000
0100
,
1000
0010
0000
0010
,
0000
0100
0000
0100
,
0000
0001
0001
1000
,
1000
0110
0000
0100
,
0010
0220
0000
0000
,
0000
0000
0000
0000
,
0000
0000
0000
0000
0000
0000
0000
0000
0000
0000
0000
0000
0000
0000
0000
0000
0000
0000
0000
0000
0000
0000
0000
0000
0000
0000
0000
0000
0000
0000
0000
0000
0000
0000
0000
0000
0000
0000
0000
0000
0000
0000
0000
0000
0000
0000
0000
0000
0000
0330
;

//---------------dance-single - hooky----------------
#NOTES:
     dance-single:
     hooky:
     Easy:
     3:
     0.179,0.246,0.085,0.074,0.000:
0000
0000
0000
0000
,
0000
0000
0000
0000
,
0000
0000
0000
0000
,
0000
0000
0000
0000
,
0000
1000
0000
1000
,
0000
0001
0000
0001
,
0000
0100
0000
0100
,
0000
0010
0000
0010
,
0000
1000
0010
1000
,
0000
0001
0100
0001
,
0000
0010
0010
0100
,
0100
0010
0010
0220
,
0330
1000
0000
1000
,
0000
0001
0100
0001
,
0000
0010
0000
0010
,
0000
0001
0010
0001
,
0000
1000
0000
1000
,
0000
1000
0100
1000
,
0000
0010
0010
0010
,
0000
0100
0000
0010
,
0000
0010
0000
0010
,
0000
0100
0000
0100
,
0000
0010
0000
0110
,
0000
0000
1000
0100
,
1000
0001
0000
0001
,
0000
1000
0000
1000
,
0000
0001
0000
2002
,
0000
0000
0000
3003
,
0110
1001
1000
0100
,
0000
0010
0010
0100
,
0000
0001
0100
0001
,
0010
0001
1000
0001
,
0100
0010
0010
0100
,
0000
1000
1000
0100
,
0000
0010
0000
0100
,
0000
0001
0000
1000
,
0000
0010
0100
0010
,
1000
0200
0000
1300
,
0000
0010
0100
0001
,
0000
0100
0010
1000
,
0100
1000
1000
0010
,
0000
0100
0000
0100
,
0010
1001
0000
0000
,
0000
0110
0000
0000
,
0000
2002
0000
0000
,
0000
0000
0000
0000
,
0000
3003
0000
0000
;

//---------------dance-single - hooky----------------
#NOTES:
     dance-single:
     hooky:
     Beginner:
     1:
     0.076,0.141,0.021,0.021,0.000: // measure 1
0000
0000
0000
0000
,  // measure 2
0000
0000
0000
0000
,  // measure 3
0000
0000
0000
0000
,  // measure 4
0000
0000
0000
0000
,  // measure 5
0000
0000
0000
0000
,  // measure 6
0000
0000
0000
0000
,  // measure 7
0000
0000
0000
0000
,  // measure 8
0000
0000
0000
0000
,  // measure 9
0000
1000
0000
0000
,  // measure 10
0000
0000
0000
0000
,  // measure 11
0000
1000
0000
0000
,  // measure 12
0000
0000
0000
0000
,  // measure 13
0000
0001
0000
0001
,  // measure 14
0000
1000
0000
0000
,  // measure 15
0000
0001
0000
0001
,  // measure 16
0000
1000
0000
0000
,  // measure 17
0000
0010
0000
0010
,  // measure 18
0000
0100
0000
0000
,  // measure 19
0000
0010
0000
0010
,  // measure 20
0000
0100
0000
0000
,  // measure 21
0000
0001
0000
0000
,  // measure 22
0000
1000
0000
0000
,  // measure 23
0000
0001
0000
0000
,  // measure 24
0000
0000
0000
0000
,  // measure 25
0000
1000
0000
0000
,  // measure 26
0000
0001
0000
0000
,  // measure 27
0000
1000
0000
0000
,  // measure 28
0000
0000
0000
0000
,  // measure 29
0000
0010
0000
0010
,  // measure 30
0000
0100
0000
0000
,  // measure 31
0000
0010
0000
0010
,  // measure 32
0000
0100
0000
0000
,  // measure 33
0000
0001
0000
0001
,  // measure 34
0000
1000
0000
0000
,  // measure 35
0000
0001
0000
0001
,  // measure 36
0000
1000
0000
0000
,  // measure 37
0000
1000
0000
1000
,  // measure 38
0000
0001
0000
0000
,  // measure 39
0000
1000
0000
1000
,  // measure 40
0000
0001
0000
0000
,  // measure 41
0000
0100
0000
0010
,  // measure 42
0000
0100
0000
0010
,  // measure 43
0000
2002
0000
0000
,  // measure 44
3003
0000
0000
1000
,  // measure 45
0100
0110
0000
0000
;
