#TITLE:Bounce Bounce Bounce;
#SUBTITLE:;
#ARTIST:kors k ft. Kanata Okajima & Rakutensai;
#TITLETRANSLIT:;
#SUBTITLETRANSLIT:;
#ARTISTTRANSLIT:;
#GENRE:Dancehall;
#CREDIT:Telperion;
#BANNER:Bounce Bounce Bounce-bn.png;
#BACKGROUND:Bounce Bounce Bounce-bg.png;
#LYRICSPATH:;
#CDTITLE:;
#MUSIC:Bounce Bounce Bounce.ogg;
#OFFSET:-0.386;
#SAMPLESTART:74.869;
#SAMPLELENGTH:16.551;
#SELECTABLE:YES;
#DISPLAYBPM:116.000;
#BPMS:0.000=116.000;
#STOPS:;
#BGCHANGES:;
#KEYSOUNDS:;

//---------------dance-double - Telperion----------------
#NOTES:
     dance-double:
     Telperion:
     Hard:
     9:
     0.515,0.626,0.117,0.391,0.403:
00000000
00000000
00000000
00000000
,
00000000
00000000
00000000
00000000
,
00000000
00000000
00000000
00000000
,
00010000
00000000
00000000
00110000
00000000
00000000
00000000
00000000
00001000
00000000
00000000
00001010
00000000
00000000
00000010
00000000
,
00002000
00000000
00000000
00000000
00000200
00000000
00000000
00000000
00000010
00000000
00000000
00000010
00003300
00000000
00001000
00000000
,
00000002
00000000
00000000
00000000
00000200
00000000
00000000
00000000
00000010
00000000
00000000
00000010
00000303
00000000
00000000
00000000
,
00000101
00000000
00000000
00000010
00000000
00000000
00001000
00000000
00000100
00010000
00001000
00010000
00000100
00000000
00000000
00000000
,
00011000
00000000
00000000
01000000
00000000
00000000
00100000
00000000
01010000
00000000
00000000
00100000
00000000
00000000
01000000
00000000
,
20000000
00000000
00000000
00000000
02000000
00000000
00000000
00000000
00100000
00000000
00000000
00100000
33000000
00000000
10000000
00000000
,
00020000
00000000
00000000
00000000
02000000
00000000
00000000
00000000
10000000
00000000
00000000
10000000
03030000
00000000
00000000
00000000
,
01010000
00000000
00000000
00010000
00000000
00000000
10000000
00000000
01000000
00100000
00010000
00100000
01000000
00000000
00000000
00000000
,
10000000
00000000
00000000
00100000
00000000
00000000
00010000
00000000
00001000
00000000
00000010
00000000
00000001
00000000
00000100
00000000
,
00000020
00000000
00000000
00000200
00000000
00000000
00000000
00000000
00001000
00000000
00000000
00001000
00000000
00000000
00000330
00000000
,
00000100
00000000
00000001
00000000
00000001
00000000
00000010
00000000
00000010
00000000
00000000
00001000
00000000
00000000
01000000
00000000
,
00100000
00000000
00000000
00100000
00000000
00000000
00000000
00000000
10000000
01000000
00100000
00010000
10000000
00000000
00000000
00000000
,
00010000
00000000
10000000
00010000
01000000
00001000
00010000
00000100
00001000
00000000
00000000
00000001
00000000
00000000
00000001
00000000
,
00002000
00000000
00000000
00000020
00000000
00000000
00000000
00000000
00100000
00000000
00000000
00200000
00000000
00000000
00003030
00000000
,
00000000
02000000
00000000
00000200
00300000
00000010
03100300
00000000
,
00010000
00000000
00001000
00000000
00010000
00000000
00001000
00000000
00000100
00000010
00001000
00000010
00000100
00000000
00000000
00000000
,
00000002
00000203
00020300
02030000
,
13000000
00000000
02000000
00000000
00020000
00000000
00000000
00000000
00100000
00000000
00000000
00100000
03030000
00000000
00000000
00000000
,
00010000
00000000
10000000
00000000
00100000
00000000
00010000
00000000
00000100
00000000
00000000
00000010
00000000
00000000
00000010
00000000
,
00000100
00000000
00000100
00000000
00001000
00000000
00001000
00000000
00000001
00000010
00000100
00000010
00000001
00000000
00000000
00000000
,
00001000
00000000
00000001
00000000
00000010
00000000
00000100
00000000
00010000
00000000
00000000
00100000
00000000
00000000
10000000
00000000
,
00010000
00000000
00020000
00000000
10000000
00000000
20000000
00000000
00100000
00000000
00000000
00100000
30030000
00000000
00000000
00000000
,
10000000
00000000
01000000
00000000
00010000
00000000
00000100
00000000
00000010
00000000
00000000
00000100
00000000
00000000
00010000
00000000
,
00001000
00000000
00000100
00000000
00000001
00000000
00000010
00000000
00000100
00001000
00000100
00000010
00000001
00000000
00000000
00000000
,
00000100
00000000
00000010
00000000
00000010
00000000
00000010
00000000
00001000
00000000
00000000
00000001
00000000
00000000
00001000
00000000
,
00000000
00001000
00000100
00000010
00000000
00001000
00010000
00100000
,
00000000
00001000
00000010
00000100
00010000
01000000
10000000
01000000
,
00000000
00010000
00100000
01000000
00000000
00010000
00001000
00000100
,
00000000
00000001
00000100
00001000
00010000
00010000
00001000
00001000
,
00000000
00000000
00100000
00020000
00200000
00000000
00000000
00000000
00000010
00000000
00000000
00000010
00330000
00000000
00000000
00000000
,
00000000
00100000
00001000
00000000
00002000
00000000
00000000
00000000
00010000
00000000
00000000
00000010
00000000
00000000
00013000
00000000
,
00000000
00000000
00100000
01000000
10000000
01000000
00100000
00000000
00000000
00000000
10000000
01000000
00100000
01000000
10000000
00000000
,
00000000
00000000
00100000
01000000
00001000
00000000
00100000
00000000
00000100
00000000
00010000
00000000
00000010
00000000
00000100
00000000
,
00000002
00000000
00000000
00000000
00000000
00000000
00000000
00000000
00000000
00000200
00000000
00000000
00000000
00000000
00000000
00000000
00000000
00000000
00002000
00000000
00000000
00000000
00000000
00000000
00000040
00000000
00040000
00000000
00000000
00000000
00000000
00000000
00000000
00000000
00000000
00000000
00000000
00000000
00000000
00000000
00000000
00000000
00000000
00000000
00000000
00000000
00000000
00000000
,
00000000
00000000
00033333
00000000
,
00001000
00000000
00000000
00000200
00000000
00000000
00010000
00000000
02000000
00000000
00000000
00000000
00000000
00000000
00000000
00000000
,
10100000
00000000
00000000
00000000
03100010
00000000
00000000
00000011
00001300
00000000
00000000
00000100
00000000
00000000
01000000
00000000
,
00020000
00000000
00000000
00000000
00000000
00000000
00000000
00000000
00000000
00000000
00000000
00000000
12130000
00000000
00000000
00000000
00000000
00000000
00000000
00000000
00000000
00000000
00000000
03000000
,
00010000
00000000
10000000
00000000
00010000
00000000
10000000
00000000
00010000
00000000
10000000
00000000
00020000
00000000
00000000
00000000
00000000
00000000
00000000
00000000
00000000
00000000
00000000
00000000
10000000
00000000
00000000
00000000
00000000
00000000
00000000
00000000
00000000
00100000
00000000
00000000
00030000
00000000
00000000
00000000
00000000
00000000
20000000
00000000
00000000
00000000
00000000
00000000
,
00100000
00000000
00000000
30000200
00000000
00000000
00000320
00000000
00000031
00000010
00000100
00010000
00002000
00000000
00100000
00000000
,
00023000
00000000
00000100
00000000
00032000
00000000
01000000
00000000
00013000
00000000
00001000
00010000
00000000
00001000
00100000
00000000
,
00101000
00000000
00000000
00000000
00000000
00000000
00000000
00000000
00000000
00000000
00000000
01000000
10000000
00000000
00100000
00000000
00010000
00000000
00001000
00000000
00000010
00000000
00000001
00000000
,
00000100
00000001
00000100
00000001
00000100
00000001
00000100
00000000
00000000
00000000
00000000
00000010
00001000
00000000
00000000
00000100
00000000
00000000
00000001
00000000
00000000
00000100
00000000
00000000
,
00001000
00000000
00001000
00000000
00000001
00000000
00000001
00000000
00000100
00000000
00000000
00001000
00000000
00000000
00100000
00000000
,
01000000
00000000
00000000
00000000
01000000
00000000
00100000
00000000
00001000
00000000
00000000
00000100
00000000
00000000
00000001
00000000
,
00000100
00000000
00001000
00000000
00000100
00000000
00000010
00000000
00010000
00000000
00000000
01000000
00000000
00000000
10000000
00000000
,
00010000
00000000
00010000
00000000
10000000
00000000
10000000
00000000
00010000
10000000
00010000
10000000
00010000
00000000
00010000
00000000
,
10000000
00000000
01000000
00000000
00100000
00000000
00001000
00000000
00010000
00000000
00100000
00000000
10000000
00000000
01000000
00100000
,
01000000
00000000
10000000
00000000
00100000
00000000
01000000
00000000
00001000
00000000
00010000
00000000
00000100
00010000
00000100
00000000
,
00000100
00000000
00001000
00000100
00001000
00000000
00000001
00000100
00000001
00000010
00000100
00000000
00001000
00000100
00000010
00000000
,
00000001
00000100
00000001
00000010
00000001
00000100
00000001
00000010
00000100
00001000
00000010
00001000
00000100
00000000
00000100
00000000
,
00020000
00000000
00000000
00000000
00000200
00000000
00000000
00000000
00000010
00000000
00000000
00000010
00030300
00000000
00010000
00000000
,
00002000
00000000
00000000
00000000
02000000
00000000
00000000
00000000
00100000
00000000
00000000
00100000
03003000
00000000
00000000
00000000
,
01001000
00000000
00000000
00100000
00000000
00000000
10000000
00000000
01000000
00100000
00010000
00100000
01000000
00000000
00000000
00000000
,
10000000
00000000
00000000
00100000
00000000
00000000
00010000
00000000
00000100
00000000
00000000
00000010
00000000
00000000
00000001
00000000
,
00000200
00000000
00000000
00000000
00000002
00000000
00000000
00000000
00000010
00000000
00000000
00001000
00000303
00000000
00000001
00000000
,
00002000
00000000
00000000
00000000
00000200
00000000
00000000
00000000
00000010
00000000
00000000
00000001
00003300
00000000
00000000
00000000
,
00001100
00000000
00000000
00011000
00000000
00000000
01000000
00000000
00100000
10000000
01000000
00100000
00010000
00000000
00000000
00000000
,
20000000
00000000
00000000
02000000
00000000
00000000
00010100
00000000
00000000
00000000
33000000
00000000
00000000
00000000
00000000
00000000
;

//---------------dance-single - Telperion----------------
#NOTES:
     dance-single:
     Telperion:
     Easy:
     4:
     0.214,0.241,0.016,0.141,0.074:
0000
0000
0000
0000
,
0000
0000
0000
0000
,
0000
0000
0000
0000
,
0000
0000
0000
0000
,
1001
0000
0000
0000
0000
0000
0000
0000
0001
0000
0000
0001
0000
0000
0000
0000
,
1000
1000
0100
0000
,
1000
0000
0000
1000
0000
0000
1000
0000
0000
0000
0000
0000
0000
0000
0000
0000
,
0001
0000
0000
0001
0000
0000
0001
0000
0000
0000
0000
0000
0000
0000
0000
0000
,
0010
0000
0000
0000
0000
0000
0000
0000
0100
0000
0000
0100
0000
0000
0000
0000
,
1000
0010
0100
0000
,
0001
0000
0000
0001
0000
0000
0001
0000
0000
0000
0000
0000
0000
0000
0000
0000
,
1000
0000
0000
1000
0000
0000
1000
0000
0000
0000
0000
0000
0000
0000
0000
0000
,
0100
0000
0000
0000
0000
0000
0000
0000
0010
0000
0000
0010
0000
0000
0000
0000
,
0100
0000
1000
0000
,
0001
0000
0200
0300
,
0001
0001
1000
0001
,
0010
0000
0000
0000
0000
0000
0000
0000
0100
0000
0000
0100
0000
0000
0000
0000
,
0000
1000
0000
1000
0000
0000
0001
0000
,
0100
0000
0020
0030
,
1000
1000
0010
1000
,
0100
0000
0000
0000
0100
0000
0000
0000
0010
0000
0000
0010
0000
0000
0000
0000
,
0100
0100
1000
0000
,
0010
0010
0100
0000
,
0001
0001
0100
0000
,
0010
0000
0000
0000
0010
0000
0000
0000
1000
0000
0000
1000
0000
0000
0000
0000
,
0100
0010
0001
0000
,
0100
0010
1000
0000
,
0001
1000
0001
0100
,
0002
0003
0020
0030
,
0200
0300
2000
3000
,
0002
0003
0200
0300
,
0020
0030
2000
3000
,
0001
0000
0000
0000
0000
0000
0000
0000
0100
0000
0000
0100
0000
0000
0000
0000
,
0001
1000
0100
0000
,
1000
1000
0010
0010
,
0100
0000
0001
0000
0010
0100
0010
0000
,
0001
0000
2000
0000
,
0000
0000
3000
0000
,
0101
0000
0020
0000
,
1030
0100
0001
0000
,
0200
0000
2300
0000
,
3002
0203
0320
0030
,
0100
0000
0000
0010
0000
0000
0100
0000
0010
0000
0000
0100
0000
0000
0010
0000
,
0100
0100
0100
0100
,
0100
0000
0000
0000
,
0000
0000
0000
0000
,
1000
0100
0010
0010
,
0001
0100
0010
0100
,
0001
0001
0010
0100
,
1000
1000
0010
0000
,
0100
0001
0010
1000
,
0010
0001
0100
0000
,
0010
1000
0100
0001
,
0100
1000
0010
0010
,
0100
0000
0000
0000
0000
0000
0000
0000
0010
0000
0000
0010
0000
0000
0000
0000
,
1000
1000
0001
0000
,
0010
0000
0000
0010
0000
0000
0010
0000
0000
0000
0000
0000
0000
0000
0000
0000
,
0100
0000
0000
0100
0000
0000
0100
0000
0000
0000
0000
0000
0000
0000
0000
0000
,
1000
0000
0000
0000
0000
0000
0000
0000
0001
0000
0000
1000
0000
0000
0000
0000
,
0010
0000
0000
0000
0000
0000
0000
0000
1000
0000
0000
0001
0000
0000
0000
0000
,
0010
0000
0000
0010
0000
0000
0010
0000
0000
0000
0000
0000
0000
0000
0000
0000
,
0200
0000
0000
0000
0000
0300
0000
0000
;

//---------------dance-single - Telperion----------------
#NOTES:
     dance-single:
     Telperion:
     Beginner:
     2:
     0.089,0.119,0.000,0.023,0.000:
0000
0000
0000
0000
,
0000
0000
0000
0000
,
0000
0000
0000
0000
,
0000
0000
0000
0000
,
1000
0000
0000
0000
,
0100
0000
0000
0000
,
1000
0000
0000
0000
,
0100
0000
0000
0000
,
0010
0000
0000
0000
,
0001
0000
0000
0000
,
0010
0000
0000
0000
,
0001
0000
0000
0000
,
0100
0000
0000
0000
,
0100
0000
0000
0000
,
0010
0000
0000
0000
,
0010
0000
0000
0000
,
1000
0000
0000
0000
,
1000
1000
1000
0000
,
0001
0000
0000
0000
,
0001
0001
0001
0000
,
0010
0000
0010
0000
,
0100
0000
0100
0000
,
0010
0000
0010
0000
,
0100
0000
0100
0000
,
1000
0000
1000
0000
,
0001
0000
0001
0000
,
1000
0000
1000
0000
,
0001
0000
0001
0000
,
0010
0000
0000
0000
,
0001
0000
0000
0000
,
0100
0000
0000
0000
,
0001
0000
0000
0000
,
1000
0000
0000
0000
,
0100
0000
0000
0000
,
1000
0000
0000
0000
,
0010
0000
0010
0000
,
0010
0000
0200
0000
,
0000
0000
0300
0000
,
0001
0000
0020
0000
,
0030
0000
0010
0000
,
0100
0000
0020
0000
,
0031
0000
0100
0000
,
0010
0000
0100
0000
,
0010
0010
0010
0000
,
1000
0000
0000
0000
,
0000
0000
0000
0000
,
0001
0000
0000
0000
,
0010
0000
0000
0000
,
0100
0000
0000
0000
,
0010
0000
0000
0000
,
1000
0000
0000
0000
,
0010
0000
0000
0000
,
0100
0000
0000
0000
,
0010
0000
0010
0000
,
0010
0000
0000
0000
,
0100
0000
0000
0000
,
0001
0000
0000
0000
,
0010
0000
0000
0000
,
1000
0000
0000
0000
,
0001
0000
0000
0000
,
0100
0000
0000
0000
,
0010
0000
0000
0000
;

//---------------dance-single - Telperion----------------
#NOTES:
     dance-single:
     Telperion:
     Medium:
     6:
     0.340,0.385,0.063,0.195,0.160:
0000
0000
0000
0000
,
0000
0000
0000
0000
,
0000
0000
0000
0000
,
1000
0000
0000
1000
0000
0000
0000
0000
0001
0000
0000
0001
0000
0000
0000
0000
,
0010
0000
0000
0000
0010
0000
0000
0000
0100
0000
0000
0100
0000
0000
0000
0000
,
0010
0000
0001
0000
0100
0000
0000
0000
0010
0000
0000
0010
0000
0000
0000
0000
,
1000
0000
0000
1000
0000
0000
1000
0000
0002
0000
0000
0000
0003
0000
0000
0000
,
0001
0000
0000
0001
0000
0000
0001
0000
2000
0000
0000
0000
3000
0000
0000
0000
,
0100
0000
0000
0000
0100
0000
0000
0000
0010
0000
0000
0010
0000
0000
0000
0000
,
0100
0000
1000
0000
0010
0000
0000
0000
0100
0000
0000
0100
0000
0000
0000
0000
,
0001
0000
0000
0001
0000
0000
0010
0000
0200
0000
0000
0000
0300
0000
0000
0000
,
1000
0000
0000
1000
0000
0000
0010
0000
0100
0000
0001
0000
0100
0000
0000
0000
,
0001
0000
0000
0001
0000
0000
0000
0000
1010
0000
0000
1000
0000
0000
0000
0000
,
0001
0000
0000
0001
0000
0000
0000
0000
0100
0000
0000
1000
0000
0000
0100
0000
,
0010
0000
0000
0010
0000
0000
0000
0000
1000
0000
0001
0000
1000
0000
0000
0000
,
0100
0000
0010
0000
0100
0000
0010
0000
0001
0000
0000
0001
0000
0000
0000
0000
,
1000
0000
0000
1000
0000
0000
0000
0000
0011
0000
0000
0001
0000
0000
0000
0000
,
0100
0010
0000
0010
0000
0010
0100
0000
,
0001
0000
0000
0001
0000
0000
0000
0000
0010
0000
0000
0010
0000
0000
0000
0000
,
0200
2300
3002
2003
,
3010
0100
0010
0100
0020
0000
0000
0030
,
1000
0001
1000
0001
0020
0000
0000
0030
,
0100
0010
0100
0010
0200
0000
0000
0300
,
1000
0010
0100
0001
0200
0000
0000
0300
,
0001
0001
1000
1000
0200
0000
0000
0300
,
1000
0010
0100
0010
2000
0000
0000
3000
,
0001
0000
0010
0000
0100
0000
0000
0000
0010
0000
0000
0010
0000
0000
0000
0000
,
0100
0000
1000
0000
0010
0000
0000
0000
0100
0000
0000
0100
0000
0000
0100
0000
,
0000
0001
0010
0000
0000
1000
0010
0000
,
0000
0001
0100
0000
0010
0100
0010
0000
,
0000
1000
0100
0000
0000
0001
0100
0000
,
0000
0001
0010
0100
1000
0100
1000
0100
,
0010
0000
0000
0000
0001
0000
0000
0000
0100
0000
0000
0100
0000
0000
0100
0000
,
0010
0000
0000
0000
1000
0000
0000
0000
0100
0000
0000
0100
0000
0000
0100
0000
,
0010
0001
0100
0000
0010
1000
0100
0000
,
0010
0000
0000
0100
0000
0000
0010
0000
0100
0000
0010
0000
0010
0000
0000
0000
,
0001
0000
0000
1000
0000
0000
0002
0000
2000
0000
0000
0000
0000
0000
0000
0000
,
0000
0000
3003
0000
,
0010
0000
0000
0100
0000
0000
0020
0000
0200
0000
0000
0000
0000
0000
0330
0000
,
0010
0000
0000
0000
0010
0000
0000
0000
0100
0000
0000
0100
0000
0000
0100
0000
,
0002
0000
0003
0010
0200
0000
0300
1000
,
0020
0000
0000
0000
0230
0000
0000
0000
0301
0000
0000
0001
0000
0000
0001
0000
,
0010
0000
0000
1100
0000
0000
0010
0000
0100
0000
0100
0000
0010
0000
0000
0000
,
1010
0011
1100
0102
,
1003
0000
0000
0000
,
0000
0000
0000
0000
,
0011
0000
0000
0000
0001
0000
0000
0000
0100
0000
0000
0100
0000
0000
0000
0000
,
0010
0000
0000
0000
1000
0000
0000
0000
0100
0000
0000
0100
0000
0000
0000
0000
,
1000
0000
1000
0000
0010
0000
0000
0000
0100
0000
0000
0100
0000
0000
0010
0000
,
1000
1000
0001
0001
,
0010
0000
0010
0000
0100
0010
0100
0000
,
0001
0000
0100
0000
1000
0100
1000
0100
,
1000
0000
0001
0100
0010
0100
0001
0100
,
0010
1000
0100
0010
0100
1000
0010
0010
,
0000
0000
0100
0000
0010
0000
0000
0000
0100
0000
0000
0100
0000
0000
0000
0000
,
0001
0000
1000
0000
0001
0000
0000
0000
0100
0000
0000
0100
0000
0000
0000
0000
,
0001
0000
0000
0001
0000
0000
0001
0000
2000
0000
0000
0000
0000
0000
3000
0000
,
1000
0000
0000
1000
0000
0000
1000
0000
0002
0000
0000
0000
0000
0000
0003
0000
,
0010
0000
0100
0000
0010
0000
0000
0000
0100
0000
0000
0100
0000
0000
0000
0000
,
1000
0000
0001
0000
0010
0000
0000
0000
0100
0000
0000
0100
0000
0000
0000
0000
,
0010
0000
0000
0001
0000
0000
0100
0000
0010
0000
0000
1000
0000
0000
0010
0000
,
0200
0000
0000
0000
0000
0300
0000
0000
;

//---------------dance-single - Telperion----------------
#NOTES:
     dance-single:
     Telperion:
     Hard:
     7:
     0.439,0.506,0.211,0.172,0.227:
0000
0000
0000
0000
,
0000
0000
0000
0000
,
0000
0000
0000
0000
,
1000
0000
0000
0000
1000
0000
0000
0000
0001
0000
0000
0001
0000
0000
1000
0000
,
0001
0000
0000
0000
0100
0000
0000
0000
2100
0000
0000
0001
0000
0000
3000
0000
,
0001
0000
1000
0000
1000
0000
0001
0000
0100
0000
0000
0010
0000
0000
0000
0000
,
1010
0000
0000
0011
0000
0000
1010
0000
0000
0000
0000
0001
0000
0000
0001
0000
,
0010
0000
0000
0100
0000
0000
0001
0000
0100
0000
0000
1000
0000
0000
0001
0000
,
1000
0000
0000
0000
0100
0000
0000
0000
0102
0000
0000
1000
0003
0000
0000
0000
,
0100
0000
0010
0000
0100
0000
0000
0000
1000
0000
0000
1000
0000
0000
0000
0000
,
0011
0000
0000
1010
0000
0000
0011
0000
0000
0000
0000
1000
0000
0000
0010
0000
,
0100
0000
0000
0100
0000
0000
0100
0000
0010
0000
0000
0000
0000
0000
0000
0000
,
1000
0000
0100
0000
0010
0000
0100
0000
2000
0000
0000
0010
0000
0000
3010
0000
,
1000
0000
0100
0000
0010
0000
0001
0000
0100
0000
0000
1000
0000
0000
0100
0000
,
0010
0000
0000
0010
0000
0000
0000
0000
0100
0000
0000
0100
0000
0000
0001
0000
,
0010
0000
0100
0000
0010
0000
0001
0000
0100
0000
0010
0100
0000
0000
0000
0000
,
0001
0000
0100
0000
0010
0000
0100
0000
0002
0000
0000
0010
0000
0000
1000
0000
,
0003
0001
0000
0001
0000
0001
1000
0000
,
0100
0000
0000
0100
0000
0000
0000
0000
0010
0000
0000
0010
0000
0000
0000
0000
,
0001
0010
0100
1000
0010
0100
1000
0100
,
0001
0000
0001
0000
0010
0000
0001
0000
2001
0000
0000
0010
3000
0000
0000
0000
,
1000
0000
0010
0000
1000
0000
0010
0000
0100
0000
0000
0100
0000
0000
0000
0000
,
0001
0000
0010
0000
1000
0000
0010
0000
0001
0000
0000
0001
0000
0000
1000
0000
,
0010
0000
0010
0000
0100
0000
0010
0000
1000
0000
0000
1000
0000
0000
0000
0000
,
0001
0000
0001
0000
1000
0000
1000
0000
0012
0000
0000
1000
0003
0000
0000
0000
,
0010
0000
1000
0000
0100
0000
0010
0000
0100
0000
0000
0100
0000
0000
0000
0000
,
1000
0000
0001
0000
1000
0000
0001
0000
0010
0000
0000
0010
0000
0000
0100
0000
,
0010
0000
0001
0000
0100
0000
0010
0000
0001
0000
0000
0010
0000
0000
1000
0000
,
0000
0100
0010
0001
0000
0001
0010
0100
,
0000
1000
0010
0100
0001
0100
0010
1000
,
0000
1000
0010
0100
0000
0010
1000
0100
,
0000
1000
0010
0100
0001
0001
0100
0100
,
0000
0000
0001
1000
0001
0000
0000
0000
0010
0000
0000
0010
0000
0000
0000
0000
,
0000
0001
1000
0000
1000
0000
0000
0000
0010
0000
0000
0010
0000
0000
0000
0000
,
0000
0100
0001
0011
0000
0001
1000
1010
,
0000
0000
0001
1000
0001
0000
1000
0001
2000
0000
0100
0000
3001
0000
0000
0000
,
0100
0000
0000
0010
0000
0000
1000
0000
0202
0000
0000
0000
0000
0000
0000
0000
,
0000
0000
0303
0000
,
0011
0000
0000
0010
0000
0000
0100
0000
2000
0000
0000
0000
0000
0000
3000
0000
,
0011
0000
0000
0000
1010
0000
0000
0001
0010
0000
0000
0001
0000
0000
0001
0000
,
0010
0000
0000
0100
2000
0000
0000
0000
,
3020
0000
0000
0000
0230
0000
0000
0000
1300
0000
0000
0100
0000
0000
0000
0000
,
0002
0000
0000
0010
0000
0000
2003
0000
0010
0000
0100
0000
3001
0000
0001
0000
,
0010
0000
0010
0000
0100
0000
0100
0000
1000
0000
0001
1000
0000
0000
1000
0000
,
0010
0000
0000
0000
0000
0000
0100
0001
0100
0001
0100
0001
,
0010
0000
0100
0000
1000
0100
0010
0000
,
0001
0100
0010
0100
1000
0100
0010
0100
,
0001
0010
0100
0010
1000
0010
0001
0000
,
1000
0010
0100
0010
0001
0010
0100
0010
,
1000
1000
0001
0001
0100
0100
0001
0010
,
0100
0000
0100
1000
0010
0100
0001
0000
,
0010
0001
1000
0100
1000
0010
0001
0010
,
1000
0000
0100
1000
0100
0000
1000
0000
0001
0000
0100
0001
0100
0000
0001
0000
,
2000
0100
3002
0100
1003
0100
0010
0110
,
0000
0000
0001
0000
0100
0000
0000
0000
2010
0000
0000
0001
3000
0000
0000
0000
,
1000
0000
0001
0000
0001
0000
1000
0000
0010
0000
0000
0010
0000
0000
0000
0000
,
0101
0000
0000
0011
0000
0000
1100
0000
0000
0000
0000
0001
0000
0000
0001
0000
,
1000
0000
0000
0100
0000
0000
0010
0000
1000
0000
0000
0010
0000
0000
0001
0000
,
1000
0000
0000
0000
0100
0000
0000
0000
0102
0000
0000
1000
0003
0000
0000
0000
,
0100
0000
0001
0000
0100
0000
0000
0000
2100
0000
0000
3001
0000
0000
0000
0000
,
1100
0000
0000
0011
0000
0000
0100
0000
1010
0000
0000
0101
0000
0000
0001
0000
,
0020
0000
0000
0100
0000
0000
0200
0000
0000
0000
0330
0000
0000
0000
0000
0000
;
