#TITLE:BLOCKS;
#SUBTITLE:;
#ARTIST:SPARKER;
#TITLETRANSLIT:;
#SUBTITLETRANSLIT:;
#ARTISTTRANSLIT:;
#GENRE:;
#CREDIT:TaroNuke;
#BANNER:[Round 4] - Blocks.png;
#BACKGROUND:[Round 4] - Blocks-bg.png;
#LYRICSPATH:;
#CDTITLE:TaroNuke_small.png;
#MUSIC:[Round 4] - Blocks.ogg;
#OFFSET:-0.370;
#SAMPLESTART:42.923;
#SAMPLELENGTH:12.000;
#SELECTABLE:YES;
#BPMS:0.000=141.000,96.000=70.500,114.000=141.000;
#STOPS:;
#BGCHANGES:;
#KEYSOUNDS:;

//---------------dance-single - Ama-tan----------------
#NOTES:
     dance-single:
     Ama-tan:
     Challenge:
     10:
     0.754,0.674,0.267,0.277,1.000:
0000
0000
0000
0000
,
0000
0000
0000
0000
,
0000
0000
0000
0000
,
0000
0000
0000
0000
0000
1001
1001
0000
,
1000
0010
0100
0001
0010
0100
0010
0001
,
0100
0010
1000
0010
0100
0001
0010
0100
,
2000
0000
3020
0000
,
0230
0302
2003
3200
,
1300
0000
0001
1000
0001
1000
0001
0010
0000
0100
0000
1000
0001
1000
0001
0000
,
1000
0000
0010
0100
0010
0100
0010
1000
0000
0001
0000
0010
0100
0010
0100
0000
,
1000
0000
0010
0100
0001
1000
0010
0100
0000
0010
0000
1000
0001
0010
0100
0000
,
1000
0000
0100
0010
0001
1000
0100
0010
0002
0000
0100
0000
0103
0000
0000
0000
,
0001
0000
1000
0001
1000
0001
1000
0100
0000
0010
0000
0001
1000
0001
1000
0000
,
0001
0000
0010
0100
0010
0100
0010
0001
0000
1000
0000
0010
0100
0010
0100
0000
,
0001
0000
0010
0100
1000
0001
0010
0100
0000
1000
0000
0001
0100
0001
0100
0010
,
2000
0001
3001
0000
0200
0000
0000
0000
,
0301
0000
1000
0001
0100
0001
1000
0100
0000
0010
0000
0001
1000
0100
1000
0000
,
0001
0000
0100
0010
1000
0010
0100
0001
0000
1000
0000
0100
0010
0001
0100
0000
,
0001
0000
0010
0100
1000
0001
0100
0010
0000
0100
0000
0001
1000
0100
0010
0000
,
0001
0000
0100
0010
1000
0001
0010
0100
2000
0000
0010
0000
3010
0000
0000
0000
,
1000
0000
0001
1000
0100
1000
0001
0010
0000
0100
0000
1000
0001
0100
0001
0000
,
1000
0000
0100
0010
0001
0010
0100
1000
0000
0001
0000
0100
0010
1000
0100
0000
,
1000
0000
0010
0100
0001
1000
0100
0010
0000
0100
0000
1000
0001
0100
0010
1000
,
0002
0100
0103
0000
0020
0000
0000
0000
,
103M
0100
0010
0001
0000
0100
0000
0010
1000
0010
0100
0001
0000
0010
0000
0100
,
1000
0001
0100
0010
0000
0100
0000
0001
1000
0100
0001
0100
0000
0010
0000
0001
,
1000
0010
0100
0001
0000
0100
0000
1000
0000
0100
0000
0010
0000
1000
0000
0100
,
0110
0000
0001
0000
1010
0000
0100
0000
0011
0000
1000
0100
0000
1000
0000
0001
,
0200
0000
0000
0000
0000
0000
0300
0000
00M1
0000
1000
0010
1000
0010
0100
0001
,
0000
0000
1000
0100
1000
0100
0010
0001
0000
0000
1000
0010
1000
0010
0100
0001
,
0000
0000
0011
0000
0110
0000
1100
0000
0000
0000
0001
0010
0001
0010
0100
1000
,
0000
0000
0001
0100
0001
0100
0010
1000
0000
0000
0001
0010
0001
0010
0100
1000
,
0000
0000
1010
0000
1001
0000
0101
0000
0001
0000
1000
0100
0010
0001
0010
0100
,
0000
0000
1000
0010
0100
0001
0100
0010
0000
0000
1000
0100
0010
0001
0010
0100
,
0000
0000
1100
0000
1001
0000
0101
0000
0000
0000
0001
1000
0001
0100
0001
1000
,
0000
0000
0001
1000
0100
1000
0001
1000
0000
0000
0001
0100
0001
1000
0001
0100
,
0000
0000
0011
0000
1001
0000
1010
0000
1000
0000
0001
0100
0010
1000
0100
0010
,
0000
0000
0001
0010
0100
1000
0010
0100
0000
0000
0001
0100
0010
1000
0100
0010
,
0000
0000
0110
0000
1100
0000
1001
0000
0001
0000
1000
0100
0010
0001
0100
0010
,
0000
0000
1000
0010
0100
0001
0010
0100
0000
0000
1000
0100
0010
0001
0100
0010
,
0000
0000
0110
0000
0101
0000
1001
0000
1000
0000
0001
0100
0010
0100
1000
0100
,
0000
0000
0001
0010
0100
0010
1000
0010
0000
0000
0001
0100
0010
0100
1000
0100
,
0000
0000
0110
0000
1010
0000
1001
0000
0001
0000
1000
0100
0010
0100
0001
0100
,
0000
0000
1000
0010
0100
0010
0001
0010
0000
0000
1000
0100
0010
0100
0001
0100
,
0010
0100
1000
0100
0010
0001
0100
0010
2000
0000
0000
0100
0000
0000
0100
0000
,
0000
0000
0000
0000
0000
0000
0000
0000
3MM2
0000
0000
0100
0000
0000
0103
0000
,
M2M0
0000
0000
0010
0000
0000
0010
0000
M32M
0000
0000
1000
0000
0000
1000
0000
,
2030
0000
0000
0001
0000
0000
0001
0000
3MM2
0000
0000
0010
0000
0000
0010
0000
,
MM23
0000
0000
0100
0000
0000
0100
0000
M23M
0000
0000
1000
0000
0000
1000
0000
,
2300
0000
0000
0010
0000
0000
0010
0000
3M2M
0000
0000
0100
0000
0000
0100
0000
,
0230
0000
0000
0001
0000
0000
0001
0000
M3M2
0000
0000
1000
0000
0000
1000
0000
,
2MM3
0000
0000
0100
0000
0000
0100
0000
00M2
0000
0000
0000
0000
0000
0000
0000
,
0000
0000
3003
0000
;

//---------------dance-single - TaroNuke----------------
#NOTES:
     dance-single:
     TaroNuke:
     Hard:
     9:
     0.594,0.539,0.000,0.236,0.729:
0000
0000
0000
0000
,
0000
0000
0000
0000
,
0000
0000
0000
0000
,
0000
0000
0000
0000
,
1000
0001
1000
0001
,
0100
0010
0100
0010
,
1000
0100
1000
0000
0001
0100
0001
0000
,
1000
0010
0100
0001
0010
0100
2000
0000
,
3001
0000
0100
0000
0001
0100
0000
0010
0000
1000
0000
0100
0000
0010
0001
0000
,
1000
0000
0010
0000
1000
0010
0000
0100
0000
0001
0000
0010
0000
0100
1000
0000
,
0001
0000
0010
0000
0001
0010
0000
0100
0000
1000
0000
0010
0000
0100
0001
0000
,
1000
0000
0100
0000
1000
0100
0000
0010
0000
0001
0000
0100
0000
0010
1000
0000
,
0001
0000
0100
0000
1000
0100
0000
0010
0000
1000
0000
0100
0000
0010
0001
0000
,
1000
0000
0010
0000
0001
0010
0000
0100
0000
0001
0000
0010
0000
0100
1000
0000
,
0001
0000
0010
0000
1000
0010
0000
0100
0000
1000
0000
0010
0000
0100
0001
0000
,
1000
0000
0100
0000
0001
0100
0000
0010
0000
0001
0000
0100
0000
0010
1000
0000
,
0001
0000
0100
0000
0010
0000
0000
1000
0000
0001
0000
1000
0100
0010
0001
0000
,
1000
0000
0010
0000
0100
0000
0000
0001
0000
1000
0000
0001
0010
0100
1000
0000
,
0001
0000
1000
0000
0100
0000
0000
0010
0000
0001
0000
1000
0010
0100
0001
0000
,
1000
0000
0001
0000
0010
0000
0000
0100
0000
1000
0000
0001
0100
0010
1000
0000
,
0001
0000
0100
0000
1000
0000
0000
0100
0000
0010
0000
1000
0100
0010
0001
0000
,
1000
0000
0100
0000
0001
0000
0000
0100
0000
0010
0000
0001
0100
0010
1000
0000
,
0001
0000
0010
0000
1000
0000
0000
0010
0000
0100
0000
1000
0010
0100
0001
0000
,
1000
0000
0010
0000
0001
0000
0000
0010
0000
0100
0000
0001
0010
0100
1000
0000
,
0001
0000
0010
0001
0000
0010
0000
0100
1000
0000
0010
1000
0000
0010
0000
0100
,
0001
0000
1000
0001
0000
0100
0000
0010
1000
0000
0001
0010
0000
0100
0000
1000
,
0010
0000
0100
0010
0000
1000
0000
0001
0000
0010
0000
0100
0000
1000
0000
0010
,
0100
0000
0001
0000
0100
0000
1000
0000
0100
0000
0010
1000
0000
0001
0000
0010
,
0000
0000
0000
0000
0000
0000
0000
0000
0001
0000
1000
0000
0001
0100
0000
0100
,
0010
0000
1000
0000
0001
0010
0000
0010
0100
0000
1000
0000
0001
0100
0000
0100
,
0020
0000
1000
0000
1000
0000
1030
0000
1000
0000
0001
0000
1000
0100
0000
0100
,
0010
0000
0001
0000
1000
0010
0000
0010
0100
0000
0001
0000
1000
0100
0000
0100
,
0020
0000
0001
0000
0001
0000
0031
0000
1000
0000
0100
0000
0010
0001
0000
0010
,
0001
0000
0100
0000
0010
1000
0000
0010
1000
0000
0100
0000
0010
0001
0000
1000
,
0200
0000
0010
0000
0010
0000
0310
0000
0001
0000
0100
0000
0010
1000
0000
0010
,
1000
0000
0100
0000
0010
0001
0000
0010
0001
0000
0100
0000
0010
1000
0000
0001
,
0200
0000
0010
0000
0010
0000
0310
0000
1000
0000
0001
0000
0010
0100
0000
0010
,
0100
0000
0001
0000
0100
0010
0000
0100
0010
0000
0001
0000
0100
0010
0000
0100
,
0020
0000
1000
0000
0100
0000
1030
0000
0001
0000
1000
0000
0010
0100
0000
0010
,
0100
0000
1000
0000
0100
0010
0000
0100
0010
0000
1000
0000
0100
0010
0000
0100
,
0020
0000
0001
0000
0100
0000
0031
0000
1000
0000
0001
0000
0100
1000
0000
0100
,
0010
0000
1000
0000
0100
0001
0000
0100
0010
0000
0001
0000
0100
1000
0000
0100
,
0020
0000
0001
0000
0100
0000
1030
0000
0001
0000
1000
0000
0100
0001
0000
0100
,
0010
0000
0001
0000
0100
1000
0000
0100
0010
0000
1000
0000
0100
0001
0000
0100
,
0020
1000
0100
0031
2000
0000
0000
0000
,
0001
0000
3020
0100
,
0230
0001
0302
0010
,
0023
0100
0230
1000
,
2300
0001
3002
0100
,
0203
0010
0320
1000
,
2030
0001
3002
0010
,
0023
0100
0200
0000
,
0000
0000
0330
0000
;

//---------------dance-single - TaroNuke----------------
#NOTES:
     dance-single:
     TaroNuke:
     Medium:
     7:
     0.434,0.458,0.000,0.021,0.508:
0000
0000
0000
0000
,
0000
0000
0000
0000
,
0000
0000
0000
0000
,
0000
0000
0000
0000
,
1000
0000
0000
0000
,
0001
0000
0000
0000
,
1000
0000
0001
0000
,
1000
0001
1000
0001
,
1000
0000
0100
0000
1000
0000
0000
0010
0000
0100
0000
0010
0000
0000
1000
0000
,
0001
0000
0100
0000
0001
0000
0000
0100
0000
0010
0000
0100
0000
0000
0001
0000
,
1000
0000
0100
0000
0010
0000
0000
0001
0000
0100
0000
0001
0000
0000
0100
0000
,
0001
0000
0100
0000
0010
0000
0000
1000
0000
0100
0000
1000
0000
0000
0100
0000
,
0010
0000
0001
0000
1000
0000
0000
0001
0000
0010
0000
0100
0000
0000
1000
0000
,
0010
0000
1000
0000
0001
0000
0000
1000
0000
0010
0000
0100
0000
0000
0001
0000
,
1000
0000
0100
0000
0001
0000
0000
0100
0000
0010
0000
0001
0000
0000
0100
0000
,
0001
0000
0100
0000
1000
0000
0000
0100
0000
0010
0000
1000
0000
0000
0100
0000
,
0010
0000
0001
0000
0100
0000
0000
1000
0000
0100
0000
0001
0000
0000
0100
0000
,
0010
0000
1000
0000
0100
0000
0000
0001
0000
0100
0000
1000
0000
0000
0001
0000
,
1000
0000
0010
0000
0100
0000
0000
1000
0000
0100
0000
0001
0000
0000
1000
0000
,
0001
0000
0010
0000
0100
0000
0000
0001
0000
0100
0000
1000
0000
0000
0001
0000
,
0100
0000
0001
0000
0010
0000
0000
1000
0000
0010
0000
0001
0000
0000
0010
0000
,
0100
0000
1000
0000
0010
0000
0000
0001
0000
0010
0000
1000
0000
0000
0001
0000
,
1000
0000
0100
0000
0010
0000
0000
1000
0000
0010
0000
0001
0000
0000
1000
0000
,
0001
0000
0100
0000
0010
0000
0000
0001
0000
0010
0000
1000
0000
0000
0001
0000
,
1000
0000
0000
1000
0000
0000
0000
0000
0001
0000
0000
0001
0000
0000
0000
0000
,
0100
0000
0000
0100
0000
0000
0000
0000
0010
0000
0000
0010
0000
0000
0000
0000
,
1000
0000
0000
1000
0000
0100
0000
0010
0000
0001
0000
0100
0000
0010
0000
1000
,
0001
0000
0001
0000
0100
0000
0100
0000
0010
0000
0010
1000
0000
0100
0000
0010
,
0000
0000
0000
0000
0000
0000
0000
0000
0001
0000
0100
0000
0010
0000
0000
1000
,
0000
0000
0100
0000
0010
0000
0000
0001
0000
0000
0100
0000
0010
0000
0000
1000
,
0000
0000
0001
0000
0001
0000
0001
0000
1000
0000
0100
0000
0010
0000
0000
0001
,
0000
0000
0100
0000
0010
0000
0000
1000
0000
0000
0100
0000
0010
0000
0000
0001
,
0000
0000
1000
0000
1000
0000
1000
0000
0001
0000
0100
0000
0001
0000
0100
0001
,
0000
0000
1000
0000
0100
0000
1000
0100
0000
0000
0010
0000
0001
0000
0010
0001
,
0000
0000
1000
0000
1000
0000
1000
0000
0000
0000
0100
0000
1000
0000
0100
1000
,
0000
0000
0001
0000
0100
0000
0001
0100
0000
0000
0010
0000
1000
0000
0010
1000
,
0000
0000
0001
0000
0001
0000
0001
0000
1000
0000
0100
0000
0001
0000
0000
0100
,
0000
0000
1000
0000
0100
0000
0000
0001
0000
0000
0100
0000
0010
0000
0000
0001
,
0000
0000
1000
0000
0100
0000
1000
0000
0001
0000
0100
0000
1000
0000
0000
0100
,
0000
0000
0001
0000
0100
0000
0000
1000
0000
0000
0100
0000
0010
0000
0000
1000
,
0000
0000
0001
0000
0100
0000
0001
0000
1000
0000
0010
0000
0001
0000
0000
0010
,
0000
0000
0100
0000
1000
0000
0000
0100
0000
0000
0001
0000
1000
0000
0000
0100
,
0000
0000
0010
0000
0100
0000
0010
0000
0001
0000
0010
0000
1000
0000
0000
0010
,
0000
0000
0100
0000
0001
0000
0000
0100
0000
0000
1000
0000
0001
0000
0000
0100
,
0000
0000
0010
0000
0100
0000
0010
0000
1000
0000
0000
0100
0000
0000
0100
0000
,
0000
0000
0000
0000
0000
0000
0000
0000
0010
0000
0000
0100
0000
0000
1000
0000
,
0001
0000
0000
0001
0000
0000
0001
0000
1000
0000
0000
1000
0000
0000
1000
0000
,
0010
0000
0000
0010
0000
0000
0010
0000
0100
0000
0000
0100
0000
0000
0100
0000
,
0001
0000
0000
0001
0000
0000
0001
0000
0010
0000
0000
0010
0000
0000
0010
0000
,
0100
0000
0000
0100
0000
0000
0100
0000
1000
0000
0000
1000
0000
0000
1000
0000
,
0010
0000
0000
0010
0000
0000
0010
0000
0100
0000
0000
0100
0000
0000
0100
0000
,
0001
0000
0000
0001
0000
0000
0002
0000
2000
0000
0000
0000
0000
0000
0000
0000
,
0000
0000
3003
0000
;

//---------------dance-single - TaroNuke----------------
#NOTES:
     dance-single:
     TaroNuke:
     Beginner:
     1:
     0.129,0.185,0.021,0.041,0.000:
0000
0000
0000
0000
,
0000
0000
0000
0000
,
0000
0000
0000
0000
,
0000
0000
0000
0000
,
1000
0000
0000
0000
,
0001
0000
0000
0000
,
0100
0000
0100
0000
,
0100
0000
0000
0000
,
0001
0000
0000
0000
,
1000
0000
0000
0000
,
0100
0000
0000
0000
,
0010
0000
0000
0000
,
0001
0000
0000
0000
,
0100
0000
0000
0000
,
0010
0000
0000
0000
,
1000
0000
0000
0000
,
0001
0000
0001
0000
,
0100
0000
0100
0000
,
0010
0000
0010
0000
,
1000
0000
1000
0000
,
0100
0000
0100
0000
,
0001
0000
0001
0000
,
0010
0000
0010
0000
,
1000
0000
1000
0000
,
0200
0000
0310
0000
,
0020
0000
0031
0000
,
0002
0000
1003
0000
,
1000
0001
1000
0001
,
1001
0000
1000
0000
,
1000
0000
1000
0000
,
0000
0000
0001
0000
,
0001
0000
0001
0000
,
0000
0000
0100
0000
,
0100
0000
0100
0000
,
0000
0000
0010
0000
,
0010
0000
0010
0000
,
0000
0000
1000
0000
,
0100
0000
0001
0000
,
0010
0000
1000
0000
,
0010
0000
0001
0000
,
0100
0000
1000
0000
,
1000
0000
0001
0000
,
0001
0000
0100
0000
,
0100
0000
0010
0000
,
0010
0000
2000
0000
,
3000
0000
0001
0000
,
0100
0000
0010
0000
,
1000
0000
0100
0000
,
0010
0000
0001
0000
,
1000
0000
0010
0000
,
0100
0000
0001
0000
,
0010
0000
0110
0000
;

//---------------dance-single - TaroNuke----------------
#NOTES:
     dance-single:
     TaroNuke:
     Easy:
     4:
     0.314,0.431,0.010,0.298,0.000:
0000
0000
0000
0000
,
0000
0000
0000
0000
,
0000
0000
0000
0000
,
0000
0000
0000
0000
,
1000
0000
0000
0000
,
0100
0000
0000
0000
,
0010
0000
0001
0000
,
1000
0100
0010
0001
,
0100
0010
0100
0000
0001
0000
0000
0000
,
0010
0100
0010
0000
0001
0000
0000
0000
,
1000
0100
1000
0000
0001
0000
0000
0000
,
0100
1000
0100
0000
0001
0000
0000
0000
,
0100
0010
0100
0000
0001
0000
0000
0000
,
0010
0100
0010
0000
0001
0000
0000
0000
,
1000
0010
1000
0000
0001
0000
0000
0000
,
0010
1000
0010
0000
0002
0000
0003
0000
,
1000
0000
0001
0000
0100
0010
0100
0000
,
0001
0000
1000
0000
0100
0010
0100
0000
,
1000
0000
0001
0000
1000
0010
1000
0000
,
0001
0000
1000
0000
0001
0010
0001
0000
,
1000
0000
0100
0000
0010
0001
0010
0000
,
0001
0000
0100
0000
0010
1000
0010
0000
,
1000
0000
0100
0000
0010
0010
0010
0000
,
0001
0000
1000
0000
0010
0010
0010
0000
,
1001
1000
0010
0100
,
0001
0010
0100
1000
,
0020
0230
0302
0023
,
0130
0100
1000
1000
0001
0001
0100
0100
,
0010
0000
1000
1000
,
0001
0000
0001
0000
1000
0100
1000
0000
,
0001
0100
0100
0100
0010
0000
0010
0000
,
0100
0000
0100
0000
0010
0100
0010
0000
,
1000
0100
0100
0100
0010
0000
0001
0000
,
1000
0100
0010
0000
0001
0000
1000
0000
,
0010
0100
0100
0100
0001
0000
0010
0000
,
0100
1000
0001
0000
1000
0000
0010
0000
,
0100
0001
0001
0001
0020
0000
0000
0000
,
0000
0000
0230
0000
,
0000
0000
2300
3020
,
0230
0302
0023
0230
,
0320
0032
0203
0000
,
0000
0000
0320
0000
,
0000
0000
2030
3002
,
0203
0302
2003
3200
,
0320
0032
0203
0000
,
0310
0000
1000
0000
,
0001
0000
0100
0000
,
0010
0000
1000
0000
,
0001
0000
0010
0010
,
0100
0100
1000
1000
,
0001
0001
0200
0000
,
0320
0000
2000
0000
,
0000
0000
3030
0000
;
