#TITLE:BRILLIANT 2U (AKBK Mix);
#SUBTITLE:;
#ARTIST:NAOKI;
#TITLETRANSLIT:;
#SUBTITLETRANSLIT:;
#ARTISTTRANSLIT:;
#CREDIT:;
#BANNER:;
#BACKGROUND:;
#LYRICSPATH:;
#CDTITLE:;
#MUSIC:BRILLIANT 2U (AKBK MIX).mp3;
#OFFSET:-0.585;
#SAMPLESTART:37.6;
#SAMPLELENGTH:13.700;
#SELECTABLE:YES;
#BPMS:0.000=162.000;
#STOPS:;
#BGCHANGES:;

//---------------dance-single - ----------------
#NOTES:
     dance-single:
     :
     Easy:
     7:
     0.506,0.510,0.300,0.052,0.240:
0000
0000
0000
0000
,
0000
0000
0000
0000
,
0000
0000
0000
0000
,
0000
0000
0000
0000
,
0001
0000
0000
0100
0000
0000
0001
0000
0000
0100
0000
0000
0001
0000
1000
0000
,
0100
0000
0000
1000
0000
0000
0100
0000
0000
1000
0000
0000
0100
0000
0010
0000
,
0001
0000
0000
1000
0000
0000
0001
0000
0000
1000
0000
0000
0001
0000
0100
0000
,
0010
0000
0000
1000
0000
0000
0010
0000
0000
1000
0000
0000
0010
0000
1000
0000
,
0002
0000
0000
0003
,
0001
1000
0010
0000
1000
0001
0000
0010
,
0000
0000
0001
0000
0000
1000
0000
0000
0001
0000
1000
0000
0010
0000
0000
0000
,
1000
0000
0100
0000
0000
0000
0010
0000
0001
0000
0000
1000
0000
0000
0020
0000
,
0000
0000
0000
0030
,
1000
0001
0010
0000
0001
1000
0000
0010
,
0000
0000
1000
0000
0000
0001
0000
0000
0010
0000
0100
0000
1000
0000
0000
0000
,
0010
0000
0100
0000
0000
0000
0001
0000
0010
0000
0000
0100
0000
0000
2000
0000
,
0000
0000
0000
3000
,
0001
0000
1000
0000
0001
0010
0001
0000
,
1000
0100
0010
0000
0001
0001
0001
0000
,
0101
1100
0101
1100
,
0001
0010
0001
1000
0010
1000
0100
0010
,
0001
0000
1000
0000
0010
0010
0010
0000
,
0100
0001
0100
0000
1010
0000
0101
0000
,
0011
1010
0011
1010
,
0001
0010
1000
0010
0001
0100
0010
1000
,
0001
0000
0000
0010
0000
0000
0001
0000
0000
1000
0000
0000
0001
0000
0100
0000
,
0110
0000
0110
0000
0110
0000
0100
0100
,
0001
0000
0000
0010
0000
0000
0001
0000
0000
1000
0000
0000
0010
0000
1000
0000
,
1001
0000
1001
0000
1001
0000
0100
0100
,
0001
0000
0000
1000
0000
0000
0100
0000
0000
1000
0000
0000
0010
0000
0100
0000
,
0110
0000
0110
0000
0110
0000
0100
0100
,
0001
0000
0000
0010
0000
0000
0100
0000
0000
1000
0000
0000
0001
0000
0100
0000
,
0010
1000
0100
0000
0001
0100
1000
0000
,
0001
0000
1000
0000
0001
1000
0000
0001
0000
0100
0000
0000
0001
0000
1000
0000
,
0100
0000
1000
0000
0001
1000
0000
0010
0000
0000
0000
0000
0000
0000
0000
0000
,
0001
0000
1000
0000
0010
1000
0000
0001
0000
0010
0000
0000
0001
0000
1000
0000
,
0100
0000
1000
0000
0001
0100
0000
0001
0000
0000
0000
0000
0000
0000
0000
0000
,
0100
0000
0001
0000
0100
0010
0000
0100
0000
0001
0000
0000
1000
0000
0100
0000
,
0010
0000
0100
0000
1000
0100
0000
0010
0000
0000
0000
0000
0000
0000
0000
0000
,
1000
0000
0010
0000
0100
0010
0000
0100
0000
0001
0000
0000
0100
0000
0010
0000
,
1000
0010
0100
0000
0001
0100
0010
0000
,
1000
0000
0000
0100
0000
0000
0010
0000
0000
0000
0100
0000
0100
0000
0000
0000
,
1000
0000
0000
0010
0000
0000
0100
0000
0000
0000
0001
0000
0001
0000
1000
0000
,
0001
0000
0000
0010
0000
0000
0100
0000
0000
0000
1000
0000
1000
0000
0000
0000
,
0010
0100
0001
0000
0010
0100
1000
0000
,
0001
0000
0000
1000
0000
0000
0010
0000
0000
0000
0100
0000
0100
0000
0000
0000
,
0001
0000
0000
1000
0000
0000
0010
0000
0000
0000
1000
0000
1000
0000
0100
0000
,
0010
0000
0000
0001
0000
0000
0100
0000
0000
0000
0001
0000
0001
0000
0000
0000
,
1000
0010
0100
0000
0001
0010
0100
0000
,
0001
0000
0000
0010
0000
0000
0100
0000
0000
0000
0010
0000
0010
0000
0000
0000
,
0001
0000
0000
0100
0000
0000
0010
0000
0000
0000
1000
0000
1000
0000
0001
0000
,
1000
0000
0000
0100
0000
0000
0010
0000
0000
0000
0001
0000
0001
0000
0000
0000
,
0100
0010
1000
0000
0100
0010
0001
0000
,
1000
0000
0000
0001
0000
0000
0100
0000
0000
0000
0010
0000
0010
0000
0000
0000
,
1000
0000
0000
0001
0000
0000
0100
0000
0000
0000
0001
0000
0001
0000
0010
0000
,
0100
0000
0000
1000
0000
0000
0010
0000
0000
0000
1000
0000
1000
0000
0000
0000
,
0001
0000
0100
0000
0010
0000
0000
0000
0100
0000
0000
0100
0000
0000
0100
0000
,
0001
0000
0001
0000
1000
0100
0010
0000
,
0001
1000
0010
0000
1000
0100
0000
0010
,
0000
0000
0001
0000
0000
1000
0000
0000
0010
0000
1000
0000
0001
0000
0000
0000
,
0100
0100
0000
0001
0010
0100
1000
0002
,
0000
0000
1000
1003
,
0100
0010
1000
0000
0100
0010
0000
0100
,
0000
0000
1000
0000
0000
0001
0000
0000
0100
0000
0010
0000
0100
0000
0000
0000
,
0001
0000
0001
0000
0000
0000
1000
0000
0100
0000
0000
0010
0000
0000
0002
0000
,
0000
0000
0100
0103
,
0101
0000
0101
0000
0101
0000
0100
0100
,
0001
0000
0000
0000
,
1100
0000
1100
0000
1100
0000
0100
0100
,
0001
0000
0000
0000
,
0110
0000
1001
0000
0110
0000
0100
0100
,
0001
0000
0000
0010
0000
0000
0001
0000
0000
0000
0010
0000
0100
0000
1000
0000
,
0001
0100
1000
0100
0001
1000
0000
0000
,
0101
0000
0000
0000
0101
0000
0000
0000
0001
0000
0000
1000
0000
0000
0010
0000
,
1000
0000
0000
0100
0000
0000
1000
0000
0000
0001
0000
0000
1000
0000
0010
0000
,
0110
0000
0110
0000
0110
0000
0010
0010
,
1000
0000
0000
0100
0000
0000
1000
0000
0000
0001
0000
0000
0100
0000
0001
0000
,
1001
0000
1001
0000
1001
0000
0010
0010
,
1000
0000
0000
0001
0000
0000
0010
0000
0000
0001
0000
0000
0100
0000
0010
0000
,
0110
0000
0110
0000
0110
0000
0010
0010
,
1000
0000
0000
0100
0000
0000
0010
0000
0000
0001
0000
0000
1000
0000
0010
0000
,
0100
0001
0010
1000
0010
0001
0000
0000
,
1000
0001
0000
0001
0000
0001
0000
1000
,
0100
0010
0000
0100
1000
0001
0100
0010
,
2002
0000
0000
0000
,
3003
0000
0000
0000
;

//---------------dance-single - ----------------
#NOTES:
     dance-single:
     :
     Medium:
     8:
     0.549,0.542,0.375,0.052,0.191:
0000
0000
0000
0000
,
0000
0000
0000
0000
,
0000
0000
0000
0000
,
0000
0000
0000
0000
,
1000
0000
0000
0001
0000
0000
0100
0000
0000
0001
0000
0000
1000
0000
0100
0000
,
1000
0000
0000
0010
0000
0000
1000
0000
0000
0001
0000
0000
0010
0000
0001
0000
,
1000
0000
0000
0100
0000
0000
0010
0000
0000
0100
0000
0000
1000
0000
0001
0000
,
0100
0000
0000
0010
0000
0000
1000
0000
0000
0010
0000
0000
0100
0000
0001
0000
,
2002
0000
0000
3003
,
1000
1000
0001
0100
0001
0001
0010
0100
,
0000
0000
1000
0000
0000
0001
0000
0000
1000
0000
0100
0000
0010
0000
0100
0000
,
1000
1000
0001
0100
0010
0100
0001
0002
,
0000
0000
0000
0003
,
1000
1000
0100
0010
0001
0001
0100
0010
,
0000
0000
0100
0000
0000
0001
0000
0000
1000
0000
0100
0000
0010
0000
0100
0000
,
1000
1000
0100
1000
0010
0010
0100
0002
,
0000
0000
0000
0003
,
1000
0000
0000
0100
0000
0000
1000
0000
0000
0100
0000
0000
0010
0000
0100
0000
,
1000
0000
0000
0001
0000
0000
1000
0000
0000
0001
0000
0000
1000
0000
0010
0000
,
0100
0000
0000
0001
0000
0000
0100
0000
0000
0001
0000
0000
0100
0000
0010
0000
,
1000
0100
0010
0100
1000
0010
0100
0001
,
1000
0000
0000
0010
0000
0000
1000
0000
0000
0010
0000
0000
0100
0000
0001
0000
,
0010
0000
0000
0001
0000
0000
0010
0000
0000
0001
0000
0000
0010
0000
0100
0000
,
1000
0000
0000
0001
0000
0000
1000
0000
0000
0001
0000
0000
1000
0000
0100
0000
,
0010
0001
0100
0010
1000
0001
0100
0001
,
1000
0000
0000
0100
0000
0000
0010
0000
0000
0001
0000
0000
0100
0000
0001
0000
,
0101
0000
0101
0000
0101
0000
0100
0001
,
0010
0000
0000
0001
0000
0000
1000
0000
0000
0010
0000
0000
1000
0000
0100
0000
,
1100
0000
1100
0000
1100
0000
1000
0001
,
0100
0000
0000
0001
0000
0000
1000
0000
0000
0100
0000
0000
1000
0000
0010
0000
,
1010
0000
1010
0000
1010
0000
0100
0010
,
1000
0000
0000
0001
0000
0000
0010
0000
0000
0100
0000
0000
0010
0000
0001
0000
,
1000
0100
0001
0100
1000
0010
0100
0001
,
1000
0010
1000
0100
1000
0010
0100
0010
,
0000
0110
0000
0110
0000
0110
0000
0110
,
0000
0100
0001
0010
0001
0100
0001
0010
,
0000
0100
0000
0100
0000
0100
0000
0100
,
0000
0010
0100
1000
0100
0010
0001
1000
,
0000
1001
0000
1001
0000
1001
0000
1001
,
0000
0001
1000
0010
0001
0010
1000
0100
,
0010
0010
0100
1000
0001
0001
0100
0010
,
1000
0000
0000
0001
0000
0000
1000
0000
0000
0000
1100
0000
0000
0000
0000
0000
,
0100
0000
0000
0010
0000
0000
0100
0000
0000
0000
0110
0000
0000
0000
0000
0000
,
0010
0000
0000
0001
0000
0000
0100
0000
0000
0000
0101
0000
0000
0000
0000
0000
,
0001
0100
1000
0100
0001
1000
1000
0000
,
0010
0000
0000
0100
0000
0000
0001
0000
0000
0000
0101
0000
0000
0000
0000
0000
,
0001
0000
0000
1000
0000
0000
0100
0000
0000
0000
1100
0000
0000
0000
0000
0000
,
0100
0000
0000
0010
0000
0000
0001
0000
0000
0000
1001
0000
0000
0000
0000
0000
,
1000
0001
0010
1000
0010
0001
1000
0000
,
0001
0000
0000
0100
0000
0000
0010
0000
0000
0000
0101
0000
0000
0000
0000
0000
,
0100
0000
0000
0010
0000
0000
1000
0000
0000
0000
0101
0000
0000
0000
0000
0000
,
1000
0000
0000
0010
0000
0000
0100
0000
0000
0000
1010
0000
0000
0000
0000
0000
,
1000
0010
0100
0010
0100
0001
0010
0100
,
1000
0000
0000
0001
0000
0000
0010
0000
0000
0000
1100
0000
0000
0000
0000
0000
,
1000
0000
0000
0100
0000
0000
0010
0000
0000
0000
1100
0000
0000
0000
0000
0000
,
0010
0000
0000
0100
0000
0000
1000
0000
0000
0000
0011
0000
0000
0000
0000
0000
,
0010
0000
0100
0000
1000
0000
0001
0000
0100
0000
0000
0100
0000
0000
0100
0000
,
0010
0010
0010
0010
,
0001
0001
1000
0100
1000
1000
0010
0100
,
0000
0000
0001
0000
0000
1000
0000
0000
0001
0000
0100
0000
0010
0000
0100
0000
,
0001
0001
1000
0100
0010
0100
1000
2000
,
0000
0000
0000
3000
,
0001
0001
0100
0010
1000
1000
0100
0010
,
0000
0000
0100
0000
0000
1000
0000
0000
0001
0000
0100
0000
0010
0000
0100
0000
,
0001
0001
0100
0001
0010
0010
0100
2000
,
0000
0000
0000
3000
,
1100
0000
0101
0000
1100
0000
1000
0100
,
1000
0000
0000
0010
0000
0000
1000
0000
0000
0100
0000
0000
1000
0000
0001
0000
,
0101
0000
1100
0000
0101
0000
0001
0100
,
0001
0000
0000
0010
0000
0000
0001
0000
0000
0100
0000
0000
0001
0000
0010
0000
,
0011
0000
1100
0000
0011
0000
0001
0010
,
0100
0000
0000
1000
0000
0000
0100
0000
0000
0000
1000
0000
1000
0000
1000
0000
,
0001
0010
0001
1000
0010
0100
0001
0000
,
1001
0000
0000
0000
1001
0000
0000
0000
0100
0000
0000
0100
0000
0000
0100
0000
,
0001
0010
1000
0010
0001
0100
0010
0100
,
0110
0000
0110
0000
0110
0000
0010
0010
,
1000
0100
0001
0100
1000
0010
0100
0001
,
1001
0000
1001
0000
1001
0000
1000
1000
,
0001
0010
0001
1000
0010
0100
0001
1000
,
1001
0000
1001
0000
1001
0000
0010
0100
,
0001
0010
1000
0001
0100
1000
0010
0100
,
0001
0100
0010
0100
0010
1000
0100
0010
,
0100
1000
0000
0001
0000
1000
0000
0001
,
0100
0010
0100
0001
1000
0100
0001
0010
,
2000
0000
0000
0000
,
3000
0000
0000
0000
;

//---------------dance-single - Copied from----------------
#NOTES:
     dance-single:
     Copied from:
     Hard:
     9:
     0.685,0.669,0.262,0.075,0.506:
0000
0000
0000
0000
,
0000
0000
0000
0000
,
0000
0000
0000
0000
,
0000
0000
0000
0000
,
0001
0000
0000
0010
0000
0000
0001
0000
0000
1000
0001
0000
0010
0000
0100
0000
,
1000
0000
0000
0010
0000
0000
1000
0000
0000
0001
1000
0000
0010
0000
0100
0000
,
0001
0000
0000
0010
0000
0000
0001
0000
0000
1000
0001
0000
0010
0000
0100
0000
,
1000
0001
1000
0000
0100
0000
0010
0000
0001
1000
0001
0000
0100
0000
0010
0000
,
2002
0000
0000
3003
,
0010
0000
0100
0001
0100
0000
0010
1000
0010
0000
0100
0001
0100
0000
0010
0000
,
0000
0000
1000
0000
0000
0001
0000
0000
0010
0100
0010
0100
1000
0000
0001
0000
,
1000
1000
0000
0010
0100
0001
0010
0200
,
0000
1000
1000
1300
,
0010
0000
0100
1000
0100
0000
0010
0001
0010
0000
0100
1000
0100
0000
0010
0000
,
0000
0000
0001
0000
0000
1000
0000
0000
0001
0100
0001
0100
0010
0000
1000
0000
,
0100
0100
0000
1000
0001
0010
0100
2000
,
0000
0010
0010
3010
,
1000
0000
0000
0001
0000
0000
0010
0000
0000
0001
0000
0000
1000
0000
0100
0000
,
0010
0000
0100
0000
1000
0000
0000
0000
0001
0000
1000
0000
0010
0100
0001
0000
,
1000
0000
0000
0000
0001
0000
0000
0000
1000
0000
0001
0010
0100
1000
0000
0000
,
0011
0000
0100
0000
1000
0000
0001
0000
0100
0000
0010
0000
1000
0001
1000
0000
,
0010
0000
0000
0100
0000
0000
0001
0000
0000
1000
0000
0000
0010
0000
0010
0000
,
1000
0000
1000
0000
1000
0000
0000
0000
0001
0100
0000
0010
1000
0000
0000
0000
,
0110
0000
1001
0000
0110
0000
1000
0001
,
1000
0100
0010
0000
0001
0000
0001
0000
0100
0000
0010
0000
1000
0000
0001
0000
,
1000
0100
0000
0010
0000
0000
0001
0000
0000
1000
0010
0000
0100
0000
0001
0000
,
0010
0100
0010
1000
0010
0100
0010
1000
,
0010
0001
0000
1000
0000
0000
0010
0000
0000
0100
0001
0000
1000
0000
0010
0000
,
0100
0010
0001
0010
0100
0010
0001
0010
,
1000
0010
0000
0100
0000
0000
0001
0000
0000
0010
0100
0000
1000
0000
0001
0000
,
0100
1000
0100
0010
0100
1000
0100
0010
,
0100
0001
0000
1000
0000
0000
0010
0000
0000
0100
0001
0000
0010
0000
0100
0000
,
0001
0100
1000
0100
0010
0100
0001
0100
,
1000
0000
0010
0000
1000
0100
1000
0100
0000
0010
0000
0000
0100
0000
1000
0000
,
0001
0000
0100
0000
0001
1000
0001
0100
0000
0000
0000
0000
0000
0000
0000
0000
,
0001
0000
1000
0000
0001
0100
0001
0100
0000
0010
0000
0000
1000
0000
0100
0000
,
0010
0000
0001
0000
1000
0100
1000
0010
0000
0000
0000
0000
0100
0000
0000
0000
,
0001
0000
0100
0000
0001
0010
0001
0010
0000
0100
0000
0000
0010
0000
0001
0000
,
1000
0000
0010
0000
1000
0001
1000
0010
0000
0000
0000
0000
0000
0000
0000
0000
,
1000
0000
0001
0000
1000
0010
1000
0010
0000
0100
0000
0000
0001
0000
0010
0000
,
0100
1000
0001
1000
0010
0000
0100
0000
0001
1000
0001
0100
0010
0000
0100
0000
,
0001
0000
0000
1000
0000
0000
0101
0000
0000
0000
1000
0000
0001
0000
0001
0000
,
1000
0000
0000
0001
0000
0000
1100
0000
0000
0000
0100
0000
0010
0000
0001
0000
,
0010
0000
0000
0100
0000
0000
0011
0000
0000
0000
0100
0000
1000
0000
0010
0000
,
0100
0100
0001
0010
1000
0001
0100
1000
,
0010
0000
0000
0100
0000
0000
0001
0000
0000
0000
1010
0000
1000
0000
0010
0000
,
0100
0000
0000
0001
0000
0000
1000
0000
0000
0000
0011
0000
0100
0000
1000
0000
,
0001
0000
0000
1000
0000
0000
0010
0000
0000
0000
0101
0000
0010
0000
1000
0000
,
0100
1000
0100
0000
1000
0000
0001
0000
0100
0010
0100
0010
0100
0000
0001
0000
,
1000
0100
0000
0010
0000
0000
0100
0000
0000
0000
0011
0000
1000
0000
0001
0000
,
1000
0010
0000
0100
0000
0000
0001
0000
0000
0000
1010
0000
0100
0000
0001
0000
,
1000
0100
0000
0010
0000
0000
0001
0000
0000
0000
1100
0000
1000
0000
0001
0000
,
1000
0100
1000
0000
0001
0000
1000
0000
0010
0100
0010
0100
0010
0000
1000
0000
,
0001
0010
0000
0100
0000
0000
1000
0000
0000
0000
0011
0000
0100
0000
1000
0000
,
0010
0100
0000
0001
0000
0000
1000
0000
0000
0000
0101
0000
1000
0000
0010
0000
,
0100
0001
0000
0010
0000
0000
0100
0000
0000
0000
1001
0000
0100
0000
0010
0000
,
0100
1000
0100
1000
0100
0000
0010
0000
1100
0000
0000
0101
0000
0000
1100
0000
,
1000
0000
0000
0000
0001
0000
0000
0000
1000
0000
0010
0000
0100
0001
0100
0000
,
0001
0000
0010
0100
0010
0000
0100
1000
0100
1000
0100
1000
0100
0000
0010
0000
,
0000
0000
0001
0000
0000
1000
0000
0000
0010
0100
0010
0100
0001
0000
1000
0000
,
0001
0001
0000
1000
0100
0010
0100
2002
,
0000
0000
0000
3003
,
1000
0000
0010
0100
0010
0000
0100
0001
0100
0001
0100
0001
1000
0000
0010
0000
,
0000
0000
0100
0000
0000
0001
0000
0000
1000
0010
1000
0010
1000
0000
0001
0000
,
0010
0010
0000
0001
0010
0100
0010
2002
,
0000
0000
0000
3003
,
0110
0000
0000
0000
1001
0000
0000
0000
0110
0000
0000
0000
1000
0001
1000
0000
,
0010
0100
0000
0001
1000
0000
0010
0100
0000
0001
1000
0000
0010
0000
0100
0000
,
1001
0000
0000
0000
0110
0000
0000
0000
1001
0000
0000
0000
0001
1000
0001
0000
,
0010
0000
1001
0000
0010
0000
1001
0000
0000
0000
0100
1000
0100
0000
0010
0001
,
0010
0000
0000
0000
1100
0000
0000
0000
0011
0000
0000
0000
0001
1000
0001
0000
,
1000
0000
0010
0100
0000
0001
1000
0000
0000
0000
0010
0100
0010
0000
0100
0010
,
0100
0001
1000
0010
0001
1000
0100
0001
,
1100
0000
0000
0000
0101
0000
0000
0000
1000
0000
0000
0001
0000
0000
1000
0000
,
0001
0010
0000
0001
0000
0000
1000
0000
0000
0010
1000
0000
0100
0000
0001
0000
,
1000
0010
0001
0100
0010
0100
0001
1000
,
0010
1000
0000
0001
0000
0000
0010
0000
0000
0001
0100
0000
0001
0000
0010
0000
,
1000
0001
0100
1000
0010
0100
0010
1000
,
0001
0100
0000
0001
0000
0000
1000
0000
0000
0010
1000
0000
0010
0000
0001
0000
,
1000
0100
0001
0010
0100
0010
0001
1000
,
0010
0100
0000
0010
0000
0000
1000
0000
0000
0001
0010
0000
0001
0000
1000
0000
,
0100
0000
0001
0000
1000
0000
0010
0000
0001
0000
0100
0000
0010
0000
0100
0001
,
0100
0000
0010
0000
0000
0000
0010
0000
0000
0000
0010
0000
0000
0000
1000
0010
,
1000
0010
0000
0100
0001
0010
0100
1000
,
0220
0000
0000
0000
,
0330
0000
0000
0000
;

//---------------dance-single - ----------------
#NOTES:
     dance-single:
     :
     Challenge:
     10:
     0.781,0.733,0.435,0.097,0.626: // measure 1
0000
0000
0000
0000
,  // measure 2
0000
0000
0000
0000
,  // measure 3
0000
0000
0000
0000
,  // measure 4
0000
0000
0000
0000
,  // measure 5
0100
0000
0000
1000
0001
0000
0010
0000
0000
0010
0001
0000
0100
0000
0010
0000
,  // measure 6
1000
0000
0000
1000
0010
0000
0100
0000
0000
0100
0010
0000
1000
0000
0100
0000
,  // measure 7
0010
0000
0000
0010
0001
0000
0100
0000
0000
0100
0001
0000
1000
0000
0010
0000
,  // measure 8
1000
0000
0000
1000
0100
0000
0010
0000
0000
0010
0100
0000
1000
0000
0001
0000
,  // measure 9
2002
0000
0000
3003
,  // measure 10
1000
0001
1000
0001
0100
0000
0001
0000
1000
0100
1000
0100
1000
0000
0001
0000
,  // measure 11
0000
0000
1000
0000
0000
0010
0000
0000
0100
0001
0100
0001
1000
0000
0001
0000
,  // measure 12
1000
0000
1000
0000
0000
0000
0100
0000
1000
0100
1000
0100
1000
0000
0002
0000
,  // measure 13
0000
0000
0000
0000
0000
0000
0000
0000
1003
0010
1000
0010
1000
0000
0001
0000
,  // measure 14
1000
0001
1000
0001
0100
0000
0001
0000
1000
0010
1000
0010
1000
0000
0001
0000
,  // measure 15
0000
0000
1000
0000
0000
0100
0000
0000
0010
0001
0010
0001
1000
0000
0010
0000
,  // measure 16
0100
0001
0100
0001
0100
0000
0010
0000
1000
0000
0000
0001
0000
0000
2000
0000
,  // measure 17
0000
0000
3001
0100
0001
0100
0010
0100
0010
0100
0002
0000
0000
0000
0003
0000
,  // measure 18
1000
0100
0001
0100
1000
0010
1000
0100
,  // measure 19
0001
0100
1000
0010
1000
0010
0100
0001
,  // measure 20
1000
0001
0100
0001
0010
0100
1000
1000
,  // measure 21
0001
0010
0001
0100
0010
1000
0100
1000
,  // measure 22
0010
0100
0010
0001
0010
0100
0010
1000
,  // measure 23
0001
0001
0001
1000
0100
0100
1000
1000
,  // measure 24
0001
0010
1000
0010
0100
0010
1000
0010
,  // measure 25
0001
0100
0010
1000
0100
0001
0100
1000
,  // measure 26
1100
0000
0000
0010
0001
0000
0100
0000
0000
0010
1000
0000
0100
0000
1001
0000
,  // measure 27
0100
0010
0100
0010
1001
0100
0010
0100
,  // measure 28
1001
0000
0000
0010
0001
0000
0100
0000
0000
0010
1000
0000
0100
0000
1001
0000
,  // measure 29
0010
0000
0001
0000
0100
0000
0010
0000
1000
0001
1000
0100
1000
0001
1000
0010
,  // measure 30
1000
0000
0000
0001
0100
0000
0010
0000
0000
1000
0100
0000
0010
0000
1001
0000
,  // measure 31
0010
0100
0010
0100
1001
0010
0100
0010
,  // measure 32
1001
0000
0000
0001
0100
0000
0010
0000
0000
1000
0100
0000
0010
0000
1001
0000
,  // measure 33
0001
0100
0001
1000
0001
0000
0100
0000
0010
0000
0010
0000
1000
0000
0001
0000
,  // measure 34
0100
0000
0010
0000
1000
0001
0000
0100
0000
1000
0000
0000
0100
0000
0001
0000
,  // measure 35
0010
0000
0100
0000
1000
0010
0000
0002
0000
0000
0000
0000
1003
0000
0000
0000
,  // measure 36
0010
0000
1000
0000
0001
0100
0000
1000
0000
0100
0000
0000
0001
0000
0010
0000
,  // measure 37
0100
0000
1000
0000
0001
0010
0000
2000
0000
0000
0000
0000
3001
0000
0000
0000
,  // measure 38
0010
0000
0001
0000
1000
0100
0000
0001
0000
0100
0000
0000
1000
0000
0010
0000
,  // measure 39
0100
0000
0001
0000
0010
0100
0000
2000
0000
0000
0000
0000
3010
0000
0000
0000
,  // measure 40
0100
0000
0001
0000
0010
0001
0000
1000
0000
0010
0000
0000
0001
0000
0010
0000
,  // measure 41
1000
0010
1000
0010
0100
0000
0001
0000
1000
0100
1000
0100
0010
0001
0010
0001
,  // measure 42
1000
0001
0000
0100
0000
0000
0010
0000
0000
0000
1000
0000
0110
0000
0001
0000
,  // measure 43
1000
0001
0000
0100
0000
0000
0010
0000
0000
0000
1000
0000
0110
0000
0001
0000
,  // measure 44
1000
0100
0000
0010
0000
0000
0001
0000
0000
0000
1000
0000
0110
0000
0001
0000
,  // measure 45
1000
0100
1000
0000
0001
0000
1000
0000
0001
0010
0001
0000
1000
0000
0010
0000
,  // measure 46
0100
0001
0000
1000
0000
0000
0100
0000
0000
0000
0010
0000
1001
0000
0100
0000
,  // measure 47
1000
0001
0000
0100
0000
0000
0010
0000
0000
0000
0100
0000
1001
0000
0010
0000
,  // measure 48
1000
0100
0000
0010
0000
0000
0001
0000
0000
0000
0010
0000
1001
0000
0100
0000
,  // measure 49
1000
0100
0010
0000
0001
0000
0100
0000
0010
0100
0010
0100
0010
0000
1000
0000
,  // measure 50
0001
1000
0000
0010
0000
0000
0100
0000
0000
0000
0001
0000
1010
0000
0001
0000
,  // measure 51
1000
0100
0000
0010
0000
0000
0001
0000
0000
0000
1000
0000
0011
0000
1000
0000
,  // measure 52
0001
0100
0000
0010
0000
0000
1000
0000
0000
0000
0001
0000
1010
0000
0001
0000
,  // measure 53
1000
0100
0010
0001
1000
0000
0001
0000
1000
0010
0100
0001
1000
0000
0001
0000
,  // measure 54
1000
0010
0000
0100
0000
0000
0001
0000
0000
0000
1010
0000
0100
0000
1001
0000
,  // measure 55
1000
0100
0000
0010
0000
0000
0001
0000
0000
0000
0011
0000
0100
0000
1001
0000
,  // measure 56
0001
0100
0000
0010
0000
0000
1000
0000
0000
0000
1010
0000
0100
0000
1001
0000
,  // measure 57
0001
0100
0001
0100
0001
1000
0100
1000
0100
0000
0000
0100
0000
0000
0100
0000
,  // measure 58
1000
0000
0000
0000
0001
0000
0000
0000
1000
0000
0001
0000
1000
0010
1000
0000
,  // measure 59
0001
0010
0001
1000
0010
0000
1000
0000
0001
0010
0001
1000
0001
0000
1000
0000
,  // measure 60
0000
0000
0001
0000
0000
0100
0000
0000
0010
0100
0010
1000
0001
0000
1000
0000
,  // measure 61
0001
0000
0001
0000
0000
0000
0010
0000
0001
1000
0001
0010
0001
0000
2000
0000
,  // measure 62
0000
0000
0000
0000
0000
0000
0000
0000
3001
0100
0010
0100
0001
0000
1000
0000
,  // measure 63
0001
0010
0001
1000
0010
0000
1000
0000
0001
1000
0001
0100
0001
0000
1000
0000
,  // measure 64
0000
0000
0001
0000
0000
0010
0000
0000
0100
1000
0001
1000
0001
0000
0100
0000
,  // measure 65
0010
1000
0010
0100
0010
0000
0100
0000
0001
0000
0000
1000
0000
0000
0002
0000
,  // measure 66
0000
0000
0013
0100
0010
0100
1000
0100
0010
0100
2000
0000
0000
0000
3000
0000
,  // measure 67
1001
0000
0000
0000
0101
0000
0000
0010
1000
0000
0100
0000
0010
0000
0001
0000
,  // measure 68
1001
0000
0000
0101
0000
0000
1001
0000
0000
1000
0100
0000
0010
0000
0001
0000
,  // measure 69
1001
0000
0000
0000
1100
0000
0000
0100
0010
0000
0001
0000
1000
0000
0010
0000
,  // measure 70
0110
0000
0000
0101
0000
0000
1000
0000
0001
0100
0001
0100
0001
1000
0010
1000
,  // measure 71
0010
0000
0000
0000
0110
0000
0000
0010
1000
0000
0100
0000
1000
0000
0010
0000
,  // measure 72
1010
0000
0000
1100
0000
0000
1010
0000
0000
0000
0100
0001
0100
0001
0100
0001
,  // measure 73
0100
0010
1000
0100
1001
0010
0000
0100
,  // measure 74
1100
0000
0000
0000
0011
0000
0000
0000
0110
0000
0000
1001
0000
0000
0110
0000
,  // measure 75
1100
0000
0000
0010
0001
0000
0100
0000
0000
0010
1000
0000
0100
0000
1001
0000
,  // measure 76
0100
0010
0100
0010
1001
0100
0010
0100
,  // measure 77
1001
0000
0000
0010
0001
0000
0100
0000
0000
0010
1000
0000
0100
0000
1001
0000
,  // measure 78
0010
0000
0001
0000
0100
0000
0010
0000
1000
0001
1000
0100
1000
0001
1000
0010
,  // measure 79
1000
0000
0000
0001
0100
0000
0010
0000
0000
1000
0100
0000
0010
0000
1001
0000
,  // measure 80
0010
0100
0010
0100
1001
0010
0100
0010
,  // measure 81
1001
0000
0000
0001
0100
0000
0010
0000
0000
1000
0100
0000
0010
0000
1001
0000
,  // measure 82
0001
0100
0001
1000
0001
0000
0100
0000
0010
0000
0010
0000
1000
0000
0001
0000
,  // measure 83
0110
0000
0001
0000
0000
0000
1000
0100
1000
0000
0001
0000
0010
0000
0100
1000
,  // measure 84
0100
0000
0010
0000
0000
0000
0001
0000
0110
0000
0000
1100
0000
0000
0011
0000
,  // measure 85
2002
0000
0000
0000
,  // measure 86
3003
0000
0000
0000
;
