#TITLE:Quick Silver;
#SUBTITLE:;
#ARTIST:Mystic Moon;
#TITLETRANSLIT:;
#SUBTITLETRANSLIT:;
#ARTISTTRANSLIT:;
#GENRE:;
#CREDIT:Telperion;
#BANNER:qs-bn.png;
#BACKGROUND:qs-bg.png;
#LYRICSPATH:;
#CDTITLE:;
#MUSIC:qs.ogg;
#OFFSET:-0.035;
#SAMPLESTART:14.337;
#SAMPLELENGTH:16.744;
#SELECTABLE:YES;
#DISPLAYBPM:172.000;
#BPMS:0.000=172.000
,35.500=150.500
,36.000=200.667
,36.500=143.334
,37.000=215.000
,37.500=129.000
,38.000=258.000
,38.500=114.667
,39.000=344.000
,40.500=172.000
,53.000=143.333
,53.375=215.000
,53.750=143.333
,54.125=215.000
,54.500=172.000
,55.000=143.334
,55.375=215.000
,55.750=143.333
,56.125=215.000
,56.500=172.000
,70.500=129.000
,71.000=258.000
,71.500=172.000
,79.250=344.000
,79.500=172.000
,79.750=344.000
,80.000=172.000
,85.000=143.333
,85.375=215.000
,85.750=143.333
,86.125=215.000
,86.500=172.000
,87.000=143.333
,87.375=215.000
,87.750=143.334
,88.125=215.000
,88.500=172.000
,102.500=129.000
,103.000=258.000
,103.500=172.000
,203.000=129.000
,203.250=258.000
,203.500=129.000
,203.750=258.000
,204.000=172.000
,207.000=129.000
,207.250=258.000
,207.500=129.000
,207.750=258.000
,208.000=172.000
,211.000=129.000
,211.250=258.000
,211.500=129.000
,211.750=258.000
,212.000=172.000
,215.000=129.000
,215.250=258.000
,215.500=129.000
,215.750=258.000
,216.000=172.000
,219.000=129.000
,219.250=258.000
,219.500=129.000
,219.750=258.000
,220.000=172.000
,223.000=129.000
,223.250=258.000
,223.500=129.000
,223.750=258.000
,224.000=172.000
,227.000=129.000
,227.250=258.000
,227.500=129.000
,227.750=258.000
,228.000=172.000
,231.000=180.000
,231.500=190.000
,232.000=200.000
,232.500=210.000
,233.000=220.000
,233.500=230.000
,234.000=240.000
,234.500=250.000
,235.000=260.000
,235.500=270.000
,236.000=280.000
,236.500=290.000
,237.000=300.000
,237.500=344.000
,238.500=172.000
,309.750=114.667
,310.125=344.000
,310.500=86.000
;
#STOPS:39.500=0.174,
79.250=0.044,
79.750=0.043,
231.000=0.008,
231.500=0.017,
232.000=0.024,
232.500=0.032,
233.000=0.038,
233.500=0.044,
234.000=0.049,
234.500=0.027,
234.750=0.027,
235.000=0.059,
235.500=0.063,
236.000=0.067,
236.500=0.071,
237.000=0.075,
237.500=0.174
;
#BGCHANGES:;
#KEYSOUNDS:;
#ATTACKS:;

//---------------dance-single - Telperion----------------
#NOTES:
     dance-single:
     Telperion:
     Challenge:
     11:
     0.858,0.982,0.732,0.196,0.674,569.000,82.000,22.000,7.000,0.000,0.000,0.858,0.982,0.732,0.196,0.674,569.000,82.000,22.000,7.000,0.000,0.000:
0000
0000
0000
0000
,
0000
0000
0000
0000
,
0000
0000
0000
0000
,
0000
0000
0000
0000
,
0000
0101
0001
1000
,
0010
0101
0001
1000
,
0010
0101
0001
1000
,
0010
0000
0000
0000
0101
0000
0000
0110
0000
0000
2002
0000
0000
0000
0000
0000
,
0000
0000
0000
0000
0000
0003
0000
0001
,
0000
0000
0000
0000
0001
0000
0000
0000
0000
0000
0000
0000
0001
0000
0000
0000
0000
0000
0000
0000
3001
0000
0000
0000
0000
0000
0000
0000
0022
0033
0000
0000
,
0000
0000
1000
0001
1000
0000
0100
0000
1000
0000
0001
0000
1000
0000
0010
0000
,
1000
0000
0000
0000
0001
0000
0100
0001
1000
0000
1000
0100
0010
0000
0010
0001
,
0000
0000
1000
0001
1000
0000
1000
0000
0001
0000
0100
0000
0001
0000
0010
0000
,
0100
0000
1000
0000
1100
0000
0000
1001
0000
0000
0001
0000
0101
0000
0000
1010
,
0000
0000
0000
0000
0000
0000
1000
0000
0000
0000
0000
0000
0001
0000
0100
0000
0001
0000
1000
0000
0000
0010
0000
0000
0000
0000
0000
1000
0000
0000
0100
0000
0000
0000
0000
0000
1100
0000
0000
0000
0000
0000
0001
0000
0000
0000
0000
0000
,
0000
0000
1000
0000
0001
0000
0100
0001
1000
0000
1000
0100
0010
0000
0010
0001
,
0000
0000
1000
0001
1000
0000
0100
1000
0100
1000
0001
1000
0001
0000
0100
0001
,
0000
0000
0000
0000
0000
0000
0100
0000
0000
0010
0000
0000
1000
0000
0000
0001
0000
0000
1000
0000
0001
0000
1000
0000
0001
0000
0000
0010
0000
0000
0200
0000
0000
0000
0000
0000
0000
0000
0000
0000
0000
0000
0310
0000
0000
0000
0000
0000
,
0110
0100
1000
0001
0100
0001
0010
0100
,
1000
0000
0001
0000
0100
0000
0001
0000
0100
0000
0001
0000
0100
0010
0000
0010
,
0000
0000
0100
0000
0001
0000
1000
0000
0001
0000
1000
0000
0001
0010
0100
0000
,
0010
0000
0100
0000
1100
0000
0000
1001
0000
0000
0100
0000
0101
0000
0000
0110
,
0000
0000
0000
0000
0000
0000
1000
0000
0000
0000
0000
0000
0001
0000
0100
0000
0001
0000
0100
0000
0000
0001
0000
0000
1000
0000
0000
0001
0000
0000
0100
0000
0000
0000
0000
0000
0110
0000
0000
0000
0000
0000
0010
0000
0000
0000
0000
0000
,
0100
0000
0000
0000
0001
0000
0100
0001
0010
0000
0010
0100
1000
0000
1000
0001
,
0100
0000
0000
0000
0101
0000
0001
0100
0001
0100
0001
1000
0010
0000
0010
0000
,
0010
0000
0100
0001
1000
0000
0000
0100
0000
0000
0020
0000
0000
0000
0031
0000
,
0100
0000
0010
0000
0110
0000
0000
0100
0010
0000
1000
0000
0010
0000
0001
0000
,
0010
0100
0001
0001
1001
0000
1100
0000
,
0011
0000
0000
0000
0110
0000
0000
0100
0010
0000
0001
0000
0010
0000
1000
0000
,
0010
0100
1000
1010
0000
0001
0100
0000
,
0010
0000
0000
0000
0110
0000
0000
0100
0010
0000
1000
0000
0010
0000
0001
0000
,
0010
0100
0001
0100
0110
0000
0101
0000
,
1010
0000
0000
0000
1001
0000
1000
0100
0010
0100
1000
0100
1000
0000
0000
0001
,
0000
0000
0000
0000
0000
0000
1000
0000
0000
0000
0000
0000
0001
0000
0000
0010
0000
0000
0001
0000
0010
0000
0001
0000
0010
0000
0000
0100
0000
0000
1000
0000
0000
0000
0000
0000
0000
0000
0000
0000
0000
0000
1000
0000
0000
0000
0000
0000
,
0001
1000
0110
0000
0000
0000
0000
0000
,
0000
0000
0011
0000
0000
0000
1010
0000
0000
0000
1100
0000
0011
0000
0010
0100
,
1000
0000
0001
0010
0100
0000
0110
0000
1000
0001
0100
0000
0010
0000
0100
0001
,
1000
0000
0000
0011
0000
0000
0010
0100
1000
0100
1000
0001
1000
0001
1000
0010
,
0100
0000
0000
0000
0000
0000
0000
1010
,
0000
0000
0000
0011
0000
0000
0000
0000
0000
0101
0000
0000
1010
0000
0010
0000
0100
0000
0001
0000
0000
0000
0000
0000
,
0011
0000
1000
0001
0100
0000
0010
0000
1000
0010
1000
0001
1000
0010
0100
0000
,
0001
0000
0000
0100
0000
0000
0001
0000
0000
1000
0000
0000
0001
0000
0000
0000
0010
0000
0000
0000
0100
0000
0000
0000
1000
0000
0000
0000
0010
0000
0000
0000
0100
0000
0000
0000
0002
0000
0000
0000
0000
0000
0000
0000
0000
0000
0000
0000
,
0000
0000
0003
0000
0000
0000
1000
0001
,
0010
0000
0000
10M0
0000
0000
0001
0000
0010
0000
0000
0000
0100
0000
1000
0000
,
0010
0000
0000
01M0
0000
0000
1000
0000
0010
0000
0000
0000
0100
0000
0001
0000
,
1000
0000
0000
M010
0000
0000
0001
0000
0010
0000
0000
0000
0100
0000
1000
0000
,
0001
0000
0000
001M
0000
0000
1000
0000
0100
0000
0000
0000
1001
0000
0001
0000
,
1000
0000
0000
M100
0000
0000
0001
0000
1000
0000
0000
0000
0010
0000
0100
0000
,
0001
0000
0000
001M
0000
0000
0100
0000
0010
0000
0000
0000
1000
0000
0001
0000
,
1000
0000
0000
M010
0000
0000
0001
0000
0100
0000
0000
0000
0220
0000
0000
0000
,
0000
0000
0000
0000
0330
0000
0010
0100
0000
0000
0000
0000
0102
0000
0003
0000
,
1000
0100
1000
0001
0010
0001
1000
0010
1000
0001
0010
0000
0012
0000
0003
0000
,
1000
0100
1000
0001
0010
0001
1000
0010
1000
0001
0100
0000
2010
0000
3000
0000
,
0001
0100
0001
1000
0010
1000
0001
0010
0001
1000
0100
0000
2100
0000
3000
0000
,
0001
0100
0001
1000
0001
0010
0100
1000
0001
0010
0100
0000
0210
0000
0300
0000
,
1000
0000
0001
1000
0010
0000
0100
0000
0001
0000
0100
0000
0210
0000
0300
0000
,
0001
0000
1000
0001
0010
0000
0001
0000
1000
0000
0100
0000
0021
0000
0030
0000
,
0100
0000
1000
0001
0010
0000
0001
0000
0100
0000
0010
0000
1000
0000
0001
0000
,
1000
0000
0001
0000
1000
0000
0001
0000
1000
0000
0001
1000
0001
0000
1000
0000
,
0001
0000
0000
0000
1000
0000
0000
0000
0001
0000
0000
0000
2020
3030
0000
0000
0000
0000
0000
0000
0000
0000
0000
0000
0101
0000
0000
0000
0000
0000
0000
0000
,
0210
0000
0000
0000
0301
0000
0000
1000
0000
0000
0001
0000
0000
0000
0010
0000
,
0100
0000
0000
0000
0000
0000
0000
0000
0000
0000
0000
0000
1000
0000
0000
0100
0000
0000
1000
0000
0100
0000
1000
0000
0001
0000
0000
0000
0010
0000
0000
0000
0100
0000
0000
0000
1100
0000
0000
0000
0000
0000
0000
0000
0000
0000
0000
0000
,
1100
0000
0000
0000
0001
0000
0000
1000
0000
0000
0001
0000
0000
0000
0100
0000
,
0010
0000
0000
0000
1010
0000
0000
0100
0000
0000
0001
0000
0011
0000
0000
0000
,
0011
0000
0000
0000
1001
0000
0000
0100
0000
0000
1001
0000
1000
0000
0010
0000
,
0110
0000
0000
0000
0101
0000
0000
0100
0001
0000
1000
0000
0001
1000
0100
0010
,
0000
0000
0000
0010
0000
0000
0100
0000
0000
0010
0000
0000
0001
0000
0000
1000
0000
0000
0100
0000
0000
0010
0000
0000
0000
0000
0000
0100
0000
0000
1000
0000
0000
0001
0000
0000
0100
0000
0000
0001
0000
0000
0100
0000
0001
0000
0100
0000
,
0010
0000
0100
0001
0100
0000
0001
0000
1002
0000
0013
0000
0110
0000
0000
0100
,
0010
0001
0010
1000
0010
0100
1000
1000
,
1001
0000
0000
0000
0101
0000
0000
0000
1010
0000
0000
0000
0110
0000
0000
0100
,
0010
0000
1000
0000
0010
0000
0001
0000
0010
0000
0100
0000
0110
0000
0000
1010
,
0000
0000
0001
0000
0011
0000
0000
0011
0000
0000
1000
0000
1100
0000
0000
0100
,
0010
0001
0010
1000
0010
0100
1000
0100
,
0110
0000
0000
0000
1100
0000
0000
0000
0011
0000
0000
0000
1001
0000
0001
0100
,
0010
0000
0000
0100
0000
0000
0001
0000
0000
0100
0000
0000
0001
0000
0000
0000
0000
0000
0000
0000
0000
1000
0000
0000
0000
0000
0000
0000
0000
0000
0001
0000
0000
0000
0000
0000
0010
0000
0000
0100
0000
0000
1000
0000
0100
0000
1000
0000
,
0001
1000
0100
0000
0000
0000
0100
0000
0010
0000
0001
0000
1001
0000
0001
1000
,
0010
0000
1010
0000
1000
0010
0100
0000
0101
0000
0001
1000
0100
0000
0100
1000
,
0001
0000
0000
0100
0000
0000
0001
0000
1000
0000
0001
0000
0100
0000
0000
0001
0000
0000
1000
0000
0000
0001
0000
0000
0000
0000
0000
0000
0000
0000
0220
0000
0000
0000
0000
0000
0000
0000
0000
0000
0000
0000
0000
0000
0000
0000
0000
0000
,
0000
0000
0000
0000
0000
0000
0000
0000
0000
0330
0000
0000
0000
0000
0000
0000
;

//---------------dance-single - Telperion----------------
#NOTES:
     dance-single:
     Telperion:
     Hard:
     9:
     0.686,0.772,0.589,0.295,0.317,439.000,66.000,33.000,0.000,0.000,0.000,0.686,0.772,0.589,0.295,0.317,439.000,66.000,33.000,0.000,0.000,0.000:
0000
0000
0000
0000
,
0000
0000
0000
0000
,
0000
0000
0000
0000
,
0000
0000
0000
0000
,
0000
1100
1000
0001
,
0010
1001
0001
0100
,
0010
1001
1000
0100
,
0010
0000
0000
0000
0001
0000
0000
0100
0000
0000
0020
0000
0000
0000
0000
0000
,
0000
0000
0000
0000
0000
0030
0000
0010
,
0000
0000
0000
0000
0010
0000
0000
0000
0000
0000
0000
0000
0010
0000
0000
0000
0000
0000
0000
0000
0010
0000
0000
0000
0000
0000
0000
0000
2002
3003
0000
0000
,
0000
0000
0001
0000
1000
0001
0100
0010
,
0100
0000
0001
0000
2000
0000
0000
0000
3200
0000
0000
0000
0320
0000
0000
0031
,
0000
1000
0001
0000
1000
0100
1000
0010
,
0100
0000
0001
0000
0101
0000
0000
1001
0000
0000
0000
0000
1100
0000
0000
0011
,
0000
0001
0100
1000
0001
0010
0100
0001
,
1000
0000
0000
0000
0002
0000
0000
0000
0203
0000
0000
0000
0320
0000
0000
1030
,
0000
0000
0001
0000
1001
0000
1000
0000
0100
0000
0010
0000
0010
0000
0100
1000
,
0000
0000
0001
0000
0101
0000
0000
0100
0000
0000
0120
0000
0000
0000
0100
0000
,
0130
0010
1010
0000
1001
0000
1000
0100
,
1001
0000
0000
0000
1010
0000
0000
0000
1001
0000
0000
0000
1000
0100
0000
0001
,
0000
0000
0100
0000
0010
0000
0100
0000
0010
0000
0100
0000
1000
0001
1000
0000
,
0010
0000
0100
0000
0101
0000
0000
1001
0000
0000
0000
0000
1100
0000
0000
0011
,
0000
0001
0100
1000
0001
0010
0100
0001
,
1000
0000
0000
0000
0002
0000
0000
0000
0023
0000
0000
0000
0230
0000
0000
1300
,
0000
0000
0000
0000
1001
0000
0001
0100
0000
0000
0100
0000
0010
0000
0010
0000
,
0010
0000
1000
0000
1100
0000
0000
0001
0000
0000
0020
0000
0000
0000
0000
0000
,
0030
0000
0000
0000
0001
0000
0000
0001
1000
0000
0100
0000
1000
0000
0010
0000
,
1000
0001
1000
0000
0002
0000
0203
0000
,
0320
0000
0000
0000
1030
0000
0000
1000
0001
0000
0100
0000
0001
0000
0010
0000
,
0001
1000
0001
0010
0000
0100
1000
0000
,
0010
0000
0000
0000
1001
0000
0000
0001
1000
0000
0100
0000
1000
0000
0010
0000
,
1000
0010
0100
0010
2000
0000
3200
0000
,
0310
0000
0000
0000
0011
0000
0000
0001
0100
0000
0010
0000
1010
0000
0000
1000
,
0000
0000
0100
0000
0110
0000
1000
0000
0001
0000
1000
0000
0100
0000
0000
0010
,
0000
0001
0100
0000
0000
0000
0000
0000
,
0000
1010
0000
0110
0000
0101
0001
0000
,
1000
0010
0100
0101
0000
1000
0001
1000
,
1100
0000
0000
0011
0000
0000
0001
0000
0010
0000
0100
0000
1000
0000
0001
0000
,
0100
0000
0000
0000
0000
0000
0000
1010
,
0000
0110
0000
0101
0001
0000
1000
0100
,
0001
0100
0010
0000
0101
0100
1000
1100
,
0000
0000
0000
0100
0000
0000
0001
0000
1000
0000
0010
0000
0100
0000
0010
0000
0100
0000
0002
0000
0000
0000
0000
0000
,
0000
0000
0003
0000
0000
0000
1000
1000
,
0001
0000
0000
1000
0000
0000
1000
0000
0001
0000
0000
0000
0010
0000
0001
0000
,
0010
0000
0000
0100
0000
0000
1000
0000
0001
0000
0000
0000
1000
0000
0100
0000
,
1000
0000
0000
0010
0000
0000
0100
0000
0010
0000
0000
0000
1000
0000
0001
0000
,
1000
0000
0000
0100
0001
0000
0100
0000
0010
0000
0000
0000
0110
0000
0100
0000
,
1000
0000
0000
0100
0000
0000
0100
0000
1000
0000
0000
0000
0001
0000
0010
0000
,
0001
0000
0000
0100
0000
0000
0010
0000
0100
0000
0000
0000
0001
0000
1000
0000
,
0001
0000
0000
0010
0100
0000
0010
0000
0001
0000
0000
1000
0001
0000
0100
0001
,
0000
0001
0100
0000
0010
0000
0100
0010
0000
0000
0000
0000
0101
0000
0101
0000
,
0000
0000
0000
0000
0000
0000
1100
1100
,
0000
0000
0000
0000
0000
0000
0011
0011
,
0000
0000
0000
0000
0000
0000
1010
1010
,
0000
0000
0010
1000
0010
1000
0101
0101
,
0001
0000
0000
1000
0100
0000
1000
0000
0000
0001
0000
0000
1100
0000
1100
0000
,
0100
0000
0000
1000
0001
0000
1000
0000
0000
0100
0000
0000
0011
0000
0011
0000
,
0001
0000
0000
0100
0010
0000
0100
0000
0000
0001
0000
0000
1000
0000
0001
0000
,
1000
0000
0001
0000
1000
0000
0001
0000
1000
0000
0001
1000
0001
0000
1000
0000
,
0001
0000
0000
0000
1000
0000
0000
0000
0001
0000
0000
0000
2002
3003
0000
0000
0000
0000
0000
0000
0000
0000
0000
0000
0011
0000
0000
0000
0000
0000
0000
0000
,
0020
0000
0000
0000
0130
0000
0000
1000
0000
0000
0002
0000
0000
0000
1003
0000
,
0010
0000
0000
0000
0000
0000
0100
0000
0000
0001
0000
0000
0100
0000
0000
0010
0000
0000
1000
0000
0010
0000
1000
0000
,
0001
0000
0000
0000
0100
0000
0000
0000
0001
0000
0000
0000
0010
0000
0000
0000
0001
0000
0000
0000
0010
0000
0000
0000
0100
0000
0000
0000
0000
0000
1000
0000
0000
0000
0000
0000
0001
0000
0000
0000
0000
0000
0000
0000
0000
1000
0000
0000
,
0000
0000
0100
0000
0001
0000
0000
1000
0000
0000
0010
0000
0011
0000
0000
0000
,
0011
0000
0000
0000
1001
0000
0000
0010
0000
0000
1001
0000
0000
0000
0100
0000
,
0001
0000
0000
0000
0110
0000
0000
0000
0101
0000
0000
0000
1000
0000
0001
0010
,
0000
0010
0100
0000
1000
0001
0000
0010
0000
0001
0100
0000
0010
0000
1000
0000
,
0001
0000
0100
0000
0010
0000
2002
0000
3003
0000
0000
0000
1000
0000
0000
1000
,
0001
0100
0001
0010
0001
1000
0001
0000
,
2000
0000
0000
0000
3200
0000
0000
0000
0320
0000
0000
0000
0031
0000
0000
0001
,
1000
0100
1000
0010
1000
0001
1000
0010
,
0000
0000
0100
0000
0001
0000
0000
0000
0010
0000
0000
0000
1001
0000
0000
1000
,
0001
0100
0001
0010
0001
0010
0100
0010
,
0002
0000
0000
0000
0203
0000
0000
0000
0310
0000
0000
0000
1010
0000
0000
1000
,
0001
0000
0010
0000
0011
0000
0000
0001
0000
0000
1000
0000
1100
0000
0100
0000
,
0010
0000
0001
0000
1000
0000
0100
0000
1000
0000
0001
0000
0010
0000
0001
0010
,
0001
0000
1000
0000
1000
0100
1000
0000
0001
0000
0001
0100
0001
0000
1000
0000
,
0001
1000
0001
1000
0100
1000
0001
1000
0000
0000
0220
0000
0000
0000
0000
0000
,
0000
0000
0000
0000
0000
0000
0000
0000
0000
0330
0000
0000
0000
0000
0000
0000
;

//---------------dance-single - Telperion----------------
#NOTES:
     dance-single:
     Telperion:
     Medium:
     8:
     0.564,0.631,0.491,0.330,0.049,350.000,55.000,37.000,0.000,0.000,0.000,0.564,0.631,0.491,0.330,0.049,350.000,55.000,37.000,0.000,0.000,0.000: // measure 0
0000
0000
0000
0000
,  // measure 1
0000
0000
0000
0000
,  // measure 2
0000
0000
0000
0000
,  // measure 3
0000
0000
0000
0000
,  // measure 4
0000
1001
1000
0001
,  // measure 5
0010
1001
1000
0001
,  // measure 6
0010
1001
1000
0001
,  // measure 7
0010
0000
0000
0000
1001
0000
0000
1000
0000
0000
0020
0000
0000
0000
0000
0000
,  // measure 8
0000
0000
0000
0000
0000
0030
0000
0010
,  // measure 9
0000
0000
0000
0000
0010
0000
0000
0000
0000
0000
0000
0000
0010
0000
0000
0000
0000
0000
0000
0000
0010
0000
0000
0000
0000
0000
0000
0000
2002
3003
0000
0000
,  // measure 10
0000
0000
0010
1000
0001
0100
0001
0010
,  // measure 11
0100
2000
0100
0001
,  // measure 12
3010
0000
0010
1000
0001
0100
0001
0010
,  // measure 13
0100
0000
0000
0000
1100
0000
0000
1001
0000
0000
0000
0000
1001
0000
0000
0011
,  // measure 14
0000
0000
1000
0010
0100
0001
0101
0000
,  // measure 15
0100
0002
0100
1000
,  // measure 16
0013
0000
0011
1000
0100
0010
0001
0000
,  // measure 17
1000
0000
0100
0000
0110
0000
0000
0100
0000
0000
2002
0000
0000
0000
0003
0000
,  // measure 18
3000
0000
0010
0000
0010
0000
1000
0200
,  // measure 19
0001
0310
0010
0100
,  // measure 20
0100
0000
1000
0001
1000
0001
0100
0001
,  // measure 21
0010
0000
0100
0000
1100
0000
0000
1001
0000
0000
0000
0000
1001
0000
0000
0011
,  // measure 22
0000
0000
1000
0010
0100
0001
0101
0000
,  // measure 23
1000
0002
0010
1000
,  // measure 24
0103
0000
0101
0001
0100
0010
1000
0000
,  // measure 25
0001
0000
0100
0000
0110
0000
0000
0100
0000
0000
2001
0000
0000
0000
3100
0000
,  // measure 26
1000
0001
0012
0000
0010
0000
0100
0000
,  // measure 27
1000
0013
0002
0203
,  // measure 28
0320
2030
0010
0100
,  // measure 29
3001
0000
1000
0010
0000
0100
0001
0000
,  // measure 30
1000
0012
0010
0100
,  // measure 31
1000
0013
0002
0203
,  // measure 32
0310
0000
1001
0000
1000
0100
1001
0000
,  // measure 33
0001
0100
1001
0001
1000
0100
0010
0001
,  // measure 34
2000
3000
0000
0000
,  // measure 35
0000
0110
0000
0101
0000
1001
1000
0000
,  // measure 36
0001
0010
0001
0100
0000
0010
1000
0100
,  // measure 37
1000
0000
0000
0001
0000
0000
0100
0000
0001
0000
1000
0000
0200
0000
0000
0000
,  // measure 38
0300
0000
0000
0000
0000
0000
0000
0110
,  // measure 39
0000
1100
0000
1001
0001
0000
0100
0010
,  // measure 40
1000
0010
0100
0000
0001
0010
0100
1000
,  // measure 41
0001
0000
0000
1000
0000
0010
0000
0100
0000
0002
0000
0000
,  // measure 42
0000
0003
0000
1000
,  // measure 43
1000
0000
0100
0000
0100
1000
0001
0000
,  // measure 44
0001
0000
0100
0000
0010
0100
0001
0000
,  // measure 45
0001
0000
0010
0000
0010
0100
1000
0000
,  // measure 46
1000
0010
0010
1001
,  // measure 47
0001
0000
0100
0000
0100
0001
1000
0000
,  // measure 48
1000
0000
0100
0000
0010
0100
1000
0000
,  // measure 49
0001
1000
0010
0000
0100
0010
0220
0000
,  // measure 50
0000
0000
0000
0000
0000
0000
0030
0300
0000
0000
0000
0000
0101
0000
0001
0000
,  // measure 51
0000
0000
0000
0000
0000
0000
1100
1000
,  // measure 52
0000
0000
0000
0000
0000
0000
0011
0001
,  // measure 53
0000
0000
0000
0000
0000
0000
1010
1000
,  // measure 54
0000
0000
0000
0000
0000
0000
0101
0001
,  // measure 55
0010
0000
0100
1000
0001
0000
1100
1000
,  // measure 56
0010
0000
0100
0001
1000
0000
0011
0001
,  // measure 57
0100
0000
0010
0100
0001
0000
1000
0001
,  // measure 58
1000
0000
0001
0000
1000
0000
0001
0000
1000
0000
0001
1000
0001
0000
1000
0000
,  // measure 59
0001
0000
0000
0000
1000
0000
0000
0000
0001
0000
0000
0000
2002
3003
0000
0000
0000
0000
0000
0000
0000
0000
0000
0000
1100
0000
0000
0000
0000
0000
0000
0000
,  // measure 60
0002
0000
0010
0000
0000
2003
0000
3010
,  // measure 61
1000
0000
0100
0010
0001
1000
1010
0000
,  // measure 62
0110
0000
0001
0000
0100
0000
0010
0100
,  // measure 63
0001
0000
1000
0001
0100
0001
0011
0000
,  // measure 64
0010
0000
0110
0000
0100
0000
1100
1000
,  // measure 65
0001
0000
0101
0000
0100
0000
0010
0100
,  // measure 66
0001
0100
0010
0100
0000
0001
1000
0100
,  // measure 67
0010
0001
1000
0010
1000
0000
2010
0000
,  // measure 68
0010
0100
0001
3010
,  // measure 69
2000
3200
0320
0032
,  // measure 70
0010
0000
0100
0000
1003
0000
0001
0010
,  // measure 71
0000
0100
1000
0000
0001
0000
2010
0000
,  // measure 72
0010
0100
0001
3010
,  // measure 73
2000
3200
0310
1001
,  // measure 74
0001
0010
1001
0000
1000
0010
1001
1000
,  // measure 75
0100
0010
0001
1000
0001
0100
0010
0010
,  // measure 76
0000
0100
0100
0000
0100
0100
0000
0001
,  // measure 77
1000
0001
0100
0000
0000
2020
0000
0000
,  // measure 78
0000
0000
0000
0000
0000
0000
0000
0000
0000
3030
0000
0000
0000
0000
0000
0000
;

//---------------dance-single - Telperion----------------
#NOTES:
     dance-single:
     Telperion:
     Easy:
     4:
     0.333,0.386,0.161,0.321,0.000,207.000,18.000,36.000,0.000,0.000,0.000,0.333,0.386,0.161,0.321,0.000,207.000,18.000,36.000,0.000,0.000,0.000:
0000
0000
0000
0000
,
0000
0000
0000
0000
,
0000
0000
0000
0000
,
0000
0000
0000
0000
,
0000
0100
0001
1000
,
0010
1000
0100
0010
,
0001
0100
0001
1000
,
0010
0000
0100
0000
0000
2002
0000
0000
,
0000
0000
0000
0000
0000
3003
0000
0000
,
0000
0000
0000
0000
,
0000
1000
0100
1000
,
0010
0100
0001
0020
,
0030
0001
0100
0001
,
1000
0020
0030
0020
,
0030
1000
0001
1001
,
0000
1000
0100
0020
,
0030
0001
0100
0010
,
1000
0000
0001
0000
0000
0220
0000
0000
,
0330
0001
0001
1000
,
1000
0001
1000
0001
,
0001
0000
1000
0001
1000
0000
0001
1000
,
0001
0200
0300
0020
,
0030
1000
1000
1001
,
1000
0001
1000
0001
,
1000
0001
0010
0100
,
1000
0000
0001
0000
0000
0220
0000
0000
,
0330
0001
0000
0100
,
0010
1000
0100
0001
,
0010
1000
0000
0100
,
0010
0001
0100
1000
,
0010
0001
0000
0100
,
0010
1000
0100
0001
,
0010
1000
0000
0100
,
0010
0001
0000
1000
,
0001
0110
0000
0000
,
0000
0010
0000
0010
0000
0010
0020
0000
,
0030
0000
0000
0020
0000
0000
0030
0000
,
0020
0000
0000
0030
0000
0000
0000
0000
1000
0000
0000
0000
0001
0000
0000
0000
,
0110
0000
0000
0000
0000
0000
0000
0010
,
0000
0010
0000
0010
0020
0000
0030
0000
,
0020
0000
0030
0000
0020
0030
0000
0020
,
0000
0030
0010
0000
0010
0000
0100
0000
,
0000
0000
0000
0001
,
0000
0001
0000
0010
,
0000
0100
0000
1000
,
0000
1000
0000
0010
,
0000
0100
0000
0001
,
0000
0001
0000
0010
,
0000
0100
0000
1000
,
0000
0001
0000
0100
,
0000
0000
0010
0000
0000
0000
2002
3003
,
0000
0000
0000
0000
0000
0000
2002
3003
,
0000
0000
0000
0000
0000
0000
0220
0330
,
0000
0000
0000
0000
0000
0000
0220
0330
,
0000
0000
0000
0000
0000
0000
2002
3003
,
0001
0000
0100
0000
0000
0000
2002
3003
,
1000
0000
0100
0000
0000
0000
0220
0330
,
0100
1000
0000
0001
,
1000
0000
0001
0000
1000
0000
0001
1000
,
0001
1000
0001
0000
0000
0000
0010
0000
,
0000
0010
0000
0100
,
0000
1000
0100
0010
,
0000
0010
0000
0100
,
0000
1000
0001
0100
,
0000
0100
0000
0001
,
0000
0001
0000
1000
,
0001
1000
0001
0100
,
0010
0200
0300
0001
,
0000
0100
0010
1000
,
0100
0001
0010
1000
,
0000
0100
0010
0001
,
0100
1000
0010
0001
,
0000
0100
0010
1000
,
0100
0001
0010
1000
,
0001
1000
0100
0010
,
0000
0100
0010
0011
,
0000
1001
0000
0000
1100
0000
0000
0000
,
0000
0000
0000
0000
0000
0202
0000
0000
,
0000
0000
0000
0000
0000
0000
0000
0000
0000
0303
0000
0000
0000
0000
0000
0000
;
