#TITLE:Evil Enchantress;
#SUBTITLE:[Euro Spell Mix];
#ARTIST:Eurobeat Brony;
#TITLETRANSLIT:;
#SUBTITLETRANSLIT:;
#ARTISTTRANSLIT:;
#GENRE:;
#CREDIT:;
#BANNER:[Voiceless Week] - Evil Enchantress [Euro Spell Mix].png;
#BACKGROUND:[Voiceless Week] - Evil Enchantress [Euro Spell Mix]-bg.png;
#LYRICSPATH:;
#CDTITLE:;
#MUSIC:[Voiceless Week] - Evil Enchantress [Euro Spell Mix].ogg;
#OFFSET:0.000000;
#SAMPLESTART:25.799999;
#SAMPLELENGTH:12.000000;
#SELECTABLE:YES;
#BPMS:0.000000=158.000000
;
#STOPS:
;
#BGCHANGES:;
#KEYSOUNDS:;
#ATTACKS:;

//---------------dance-single - ----------------
#NOTES:
     dance-single:
     :
     Hard:
     9:
     0.559884,0.771494,0.205732,0.144012,0.288024,381.000000,361.000000,20.000000,14.000000,0.000000,0.000000,0.559884,0.771494,0.205732,0.144012,0.288024,381.000000,361.000000,20.000000,14.000000,0.000000,0.000000:
0000
0000
0000
0000
,
0000
0000
0000
0000
,
0000
0000
0000
0000
,
0000
0000
0000
0000
,
0000
0000
0000
0000
,
1000
0000
0001
0000
1000
0000
0100
0010
0000
0100
0010
0000
0001
0000
0000
0000
,
0001
0000
1000
0000
0001
0000
0100
0010
0000
0100
0010
0000
1000
0000
0000
0000
,
1000
0000
0001
0000
1000
0000
0100
0010
0000
0100
0010
0000
0001
0000
0000
0000
,
1000
0000
0010
0100
0000
0001
1000
0000
0000
0000
0000
0000
0001
0000
0001
0000
,
2000
0010
0000
0001
0000
0100
0000
0001
,
3002
0010
0000
1000
0000
0100
0000
1003
,
2000
0100
0000
0001
0000
0010
0000
0001
,
3002
0010
0000
1000
0000
0100
0000
1003
,
0001
0001
0010
0000
1000
1000
0010
0000
,
0001
0001
0100
0010
0100
0001
1000
0000
,
1000
1000
0100
0000
0001
0001
0100
0000
,
2002
0000
0000
3003
,
1001
0000
1000
0100
0010
0001
0000
1001
,
0000
0101
0000
0001
0100
0010
0100
0000
,
0100
0001
1000
0001
0100
0000
0010
1000
0001
1000
0010
0000
1000
0000
0100
0000
,
0010
0001
0000
1000
0100
0000
0010
0001
0000
0100
0010
0000
1000
0010
0100
0001
,
1000
0000
1000
0100
0010
0001
0000
1001
,
0000
1100
0000
1000
0100
0010
0100
0000
,
1000
0100
1000
0001
1000
0000
0010
1000
0001
1000
0010
0000
1000
0000
0001
0000
,
1000
0000
0001
0100
0000
0010
2000
0000
0000
0000
0000
0000
0000
0000
3000
0000
,
0001
1000
0000
1000
0000
1000
0100
0010
,
0001
0100
0000
0100
0000
0100
0001
1000
,
0010
0100
0000
0100
0000
0100
0001
1000
,
0100
0010
0000
0010
0001
0010
0100
0010
,
0001
1000
0000
1000
0000
1000
0100
1000
,
0001
0100
0000
0100
0000
0100
0001
0100
,
0010
1000
0000
1000
0000
1000
0100
0010
,
0001
0000
1000
0010
0000
0100
0001
0000
0000
0000
0001
0000
0100
0000
0100
0000
,
0001
1000
0001
0010
0000
0010
0100
0100
,
1000
0001
1000
0010
0000
1000
0100
0100
,
1000
0001
1000
0010
0000
0010
0100
0100
,
0001
0010
1000
0010
0000
0001
0100
0100
,
0001
1000
1001
0000
1000
0001
1001
0000
,
1000
0100
0010
0001
0100
1000
0100
0000
,
0100
0001
1000
0000
1000
0010
0010
0000
,
2020
0000
0000
0000
0000
3000
1000
1030
,
1010
0000
1000
0010
0100
0001
0000
0011
,
0000
1001
0000
0001
0100
1000
0100
0000
,
0001
0100
0001
0100
0010
0000
1000
0100
1000
0100
0010
0000
0001
0000
1000
0000
,
0001
0010
0000
0100
1000
0000
0010
0100
0000
0001
0010
0000
0100
1000
0001
1000
,
0010
0000
0010
1000
0001
1000
0000
1010
,
0000
1001
0000
0001
0010
0001
0100
0000
,
0001
0100
0001
0100
0010
0000
1000
0100
1000
0100
0010
0000
0001
0100
0001
1000
,
0001
0000
1000
0001
0000
0001
0020
0000
0000
0000
0000
0000
0000
0000
0030
0000
,
0011
0000
0001
0010
0001
1000
0000
1010
,
0000
1001
0000
1000
0100
0001
0100
0000
,
1000
0100
1000
0001
1000
0000
0001
1000
0100
1000
0001
0000
0000
0000
1000
0000
,
0001
0100
0000
0010
1000
0000
0100
0010
0000
0001
1000
0000
0001
1000
0001
1000
,
0100
0000
1000
0100
0010
0001
0000
0011
,
0000
1010
0000
1000
0100
0010
0200
0000
,
1300
0010
0100
0001
0010
0100
1000
0100
,
0010
0000
0001
1000
0000
0010
0200
0000
0000
0000
0000
0000
0301
0000
1000
0000
,
2002
0000
0000
0000
,
0000
0000
0000
0000
,
0000
0000
0000
0000
,
3003
0000
0000
0000
;

//---------------dance-single - ----------------
#NOTES:
     dance-single:
     :
     Medium:
     6:
     0.392360,0.493756,0.164585,0.226305,0.072006,267.000000,251.000000,16.000000,22.000000,0.000000,0.000000,0.392360,0.493756,0.164585,0.226305,0.072006,267.000000,251.000000,16.000000,22.000000,0.000000,0.000000:
0000
0000
0000
0000
,
0000
0000
0000
0000
,
0000
0000
0000
0000
,
0000
0000
0000
0000
,
0000
0000
0000
0000
,
1000
0000
0000
0000
1000
0000
0000
0100
0000
0000
0010
0000
0001
0000
0000
0000
,
0001
0000
0000
0000
0001
0000
0000
0100
0000
0000
0010
0000
1000
0000
0000
0000
,
1000
0000
0000
0000
1000
0000
0000
0100
0000
0000
0010
0000
0001
0000
0000
0000
,
0011
0000
0000
1001
0000
0000
1010
0000
0000
0000
1000
0000
0000
0000
0100
0000
,
0020
0000
0000
0001
0000
0001
0000
0000
,
0032
0000
0000
0100
0000
0100
0000
0000
,
0203
0000
0000
0010
0000
0010
0000
0000
,
0320
0000
0000
1000
0000
1000
0000
0000
,
1030
0010
0100
0000
0001
0010
0100
0000
,
1000
0100
1000
0000
0001
0100
0100
0000
,
0001
1000
0001
0000
1000
0001
0010
0000
,
0220
0000
0000
0330
,
1001
0000
1000
0001
0100
0001
0000
0010
,
0000
0010
0000
0010
0100
2000
0000
3000
,
0001
0000
0001
1000
0000
0000
1000
0010
,
0010
0000
0000
1000
0000
0000
0001
0000
0000
0100
0000
0000
0001
0000
0100
0000
,
0001
0000
0001
1000
0100
1000
0000
0010
,
0000
0010
0000
0010
1000
0001
0000
0000
,
0001
0000
0001
1000
0000
1000
0000
0010
,
0010
0000
0000
0110
0000
0000
2002
0000
0000
0000
0000
0000
0000
0000
3003
0000
,
1000
0001
0000
0001
0000
0001
0100
0000
,
0100
0010
0000
0010
0000
0010
1000
0000
,
1000
0100
0000
0100
0000
0100
0010
0000
,
0010
0001
0000
0001
0000
0001
1000
0000
,
1000
0100
0000
0100
0000
0100
0010
0000
,
0010
0001
0000
0001
0000
0001
1000
0000
,
1000
0010
0000
0010
0000
0010
0100
0000
,
0101
0000
0000
1100
0000
0000
2002
0000
0000
0000
3003
0000
0000
0000
0000
0000
,
1000
0000
1000
0001
0000
0002
0000
0000
,
0103
0001
0010
0001
0000
0200
0000
0300
,
0100
0000
0100
0001
0000
0002
0000
0003
,
0001
0100
0010
0100
0000
0002
0000
0000
,
1003
0010
1000
0000
0001
0010
0001
0000
,
0001
0100
0010
0000
0010
0100
0100
0000
,
0001
1000
0001
0000
0010
0001
0100
0010
,
2000
0000
0000
0000
,
3001
0000
0001
0100
0001
1000
0000
0010
,
0000
0010
0000
1000
0001
1000
0000
0000
,
1000
0000
1000
0001
0000
0001
0000
1000
,
0001
0000
0000
0010
0000
0000
0100
0000
0000
1000
0000
0000
0001
0000
1000
0000
,
0001
0000
0001
0010
0100
0010
0000
0001
,
0000
0001
0000
0100
0010
0100
0000
0000
,
0100
0000
0100
0001
0000
0001
0000
0010
,
0010
0000
0000
0110
0000
0000
2002
0000
0000
0000
0000
0000
0000
0000
3003
0000
,
1001
0000
1000
0100
0010
0001
0000
0001
,
0000
0001
0000
0010
0100
1000
0000
0000
,
1000
0100
1000
0001
0100
0001
0100
0010
,
1000
0000
0000
0010
0000
0000
0100
0000
0000
0001
0000
0000
1000
0000
0001
0000
,
0010
0000
0010
0001
0100
0001
0000
0010
,
0000
0010
0000
0100
1000
0001
0000
0000
,
0010
0001
1000
0010
1000
0001
0010
0001
,
0010
0000
0000
0011
0000
0000
2020
0000
0000
0000
0000
0000
3030
0000
0000
0000
,
2002
0000
0000
0000
,
0000
0000
0000
0000
,
0000
0000
0000
0000
,
3003
0000
0000
0000
;

//---------------dance-single - ----------------
#NOTES:
     dance-single:
     :
     Beginner:
     1:
     0.114622,0.205217,0.061720,0.000000,0.000000,78.000000,72.000000,6.000000,0.000000,0.000000,0.000000,0.114622,0.205217,0.061720,0.000000,0.000000,78.000000,72.000000,6.000000,0.000000,0.000000,0.000000:
// measure 0
0000
0000
0000
0000
,  // measure 1
0000
0000
0000
0000
,  // measure 2
0000
0000
0000
0000
,  // measure 3
0000
0000
0000
0000
,  // measure 4
0000
0000
0000
0000
,  // measure 5
1000
0000
0000
0000
,  // measure 6
0001
0000
0000
0000
,  // measure 7
0100
0000
0000
0000
,  // measure 8
0010
0000
0000
0000
,  // measure 9
1001
0000
0000
0000
,  // measure 10
0000
0000
0000
0000
,  // measure 11
0000
0000
0000
0000
,  // measure 12
0000
0000
0000
0000
,  // measure 13
1000
0000
0100
0000
,  // measure 14
1000
0000
0010
0000
,  // measure 15
1000
0000
0100
0000
,  // measure 16
0010
0000
0000
0000
,  // measure 17
0001
0001
0000
0000
,  // measure 18
1000
1000
0000
0000
,  // measure 19
0001
0000
0000
0000
,  // measure 20
1001
0000
0000
0000
,  // measure 21
1000
1000
0000
0000
,  // measure 22
0001
0001
0000
0000
,  // measure 23
0100
0000
0000
0000
,  // measure 24
0010
0000
0000
0000
,  // measure 25
1000
0000
0000
0000
,  // measure 26
1000
0000
0000
0000
,  // measure 27
0001
0000
0000
0000
,  // measure 28
0001
0000
0000
0000
,  // measure 29
0010
0000
0000
0000
,  // measure 30
0010
0000
0000
0000
,  // measure 31
0100
0000
0000
0000
,  // measure 32
0100
0000
0000
0000
,  // measure 33
1001
0000
0000
0000
,  // measure 34
1000
0000
0000
0000
,  // measure 35
0100
0000
0000
0000
,  // measure 36
0001
0000
0000
0000
,  // measure 37
0100
0000
1000
0000
,  // measure 38
0001
0000
1000
0000
,  // measure 39
0001
0000
0100
0000
,  // measure 40
0010
0000
0000
0000
,  // measure 41
1000
1000
0000
0000
,  // measure 42
0001
0001
0000
0000
,  // measure 43
0010
0000
0000
0000
,  // measure 44
1001
0000
0000
0000
,  // measure 45
1000
1000
0000
0000
,  // measure 46
0001
0001
0000
0000
,  // measure 47
0100
0000
0000
0000
,  // measure 48
0010
0000
0000
0000
,  // measure 49
0010
0010
0010
0000
,  // measure 50
0100
0100
0100
0000
,  // measure 51
0001
0000
0000
0000
,  // measure 52
1001
0000
0000
0000
,  // measure 53
1000
1000
1000
0000
,  // measure 54
0001
0001
0001
0000
,  // measure 55
0100
0000
0000
0000
,  // measure 56
0010
0000
0000
0000
,  // measure 57
1001
0000
0000
0000
;

//---------------dance-double - ----------------
#NOTES:
     dance-double:
     :
     Easy:
     3:
     0.168994,0.308598,0.030860,0.185159,0.000000,115.000000,112.000000,3.000000,18.000000,0.000000,0.000000,0.168994,0.308598,0.030860,0.185159,0.000000,115.000000,112.000000,3.000000,18.000000,0.000000,0.000000:
00000000
00000000
00000000
00000000
,
00000000
00000000
00000000
00000000
,
00000000
00000000
00000000
00000000
,
00000000
00000000
00000000
00000000
,
00000000
00000000
00000000
00000000
,
00010000
00000000
00000000
00001000
,
00100000
00000000
00000000
00010000
,
00100000
00000000
00000000
00000000
,
02000000
00000000
00000000
03000000
00000000
00000000
00000000
00000000
,
20000000
00000000
00000000
00000000
,
32000000
00000000
00000000
00000000
,
03020000
00000000
00000000
00000000
,
00032000
00000000
00000000
00000000
,
00003100
00000001
00000100
00000010
,
00000100
00000001
00001000
00001000
,
00000100
00010000
00001000
00100000
,
00020000
00000000
00000000
00000000
,
10030000
01000000
10000000
00000000
,
01000000
00000000
01000000
00000000
,
00010000
00000000
00000000
00001000
00000000
00000000
00000000
00000000
,
00022000
00000000
00000000
00033000
,
00010000
00001000
00010000
00000000
,
00000100
00000000
00000100
00000000
,
00001000
00000000
00000000
00001000
00000000
00000000
00000000
00000000
,
00000020
00000000
00000000
00000030
00000000
00000000
00000000
00000000
,
00000100
00000000
00000001
00000000
,
00000100
00000000
00001000
00000000
,
00000100
00000000
00000001
00000000
,
00000010
00000000
00001000
00000000
,
00010000
00000000
01000000
00000000
,
10000000
00000000
01000000
00000000
,
00100000
00000000
00010000
00000000
,
20000000
00000000
00000000
30000000
00000000
00000000
00000000
00000000
,
10000000
10000000
00000000
00000000
,
01000000
00100000
00001000
00000000
,
00010000
00010000
00000000
00000000
,
00000100
00010000
00000010
00000000
,
00000100
00000100
00000001
00000001
,
00000100
00000100
00000010
00001000
,
00000100
00000100
00010000
00010000
,
00022000
00000000
00000000
00033000
,
00010000
00001000
00010000
00000000
,
00010000
00000000
01000000
00000000
,
10000000
00000000
00000000
10000000
00000000
00000000
00000000
00000000
,
00200000
00000000
00000000
00000000
,
10300000
00010000
10000000
00000000
,
01000000
00000000
00010000
00000000
,
00001000
00000000
00000000
00010000
00000000
00000000
00000000
00000000
,
00000020
00000000
00000000
00000030
00000000
00000000
00000000
00000000
,
00001000
00000010
00001000
00000000
,
00000001
00000100
00000001
00000000
,
00000001
00000000
00000000
00001000
00000000
00000000
00000000
00000000
,
00000020
00000000
00000000
00000000
,
00010030
00001000
00100000
00000000
,
00010000
10000000
00100000
00000000
,
10000000
00000000
00000000
00010000
00000000
00000000
00000000
00000000
,
00200000
00000000
00000000
00300000
00000000
00000000
00000000
00000000
,
00022000
00000000
00000000
00000000
,
00000000
00000000
00000000
00000000
,
00000000
00000000
00000000
00000000
,
00033000
00000000
00000000
00000000
;

//---------------dance-double - ----------------
#NOTES:
     dance-double:
     :
     Medium:
     5:
     0.343866,0.462896,0.164585,0.133726,0.056576,234.000000,218.000000,16.000000,13.000000,0.000000,0.000000,0.343866,0.462896,0.164585,0.133726,0.056576,234.000000,218.000000,16.000000,13.000000,0.000000,0.000000:
00000000
00000000
00000000
00000000
,
00000000
00000000
00000000
00000000
,
00000000
00000000
00000000
00000000
,
00000000
00000000
00000000
00000000
,
00000000
00000000
00000000
00000000
,
00000000
00010000
00000000
01000000
00000000
10000000
00000000
01000000
,
00000000
00010000
00000000
00001000
00000000
00010000
00000000
01000000
,
00000000
00010000
00000000
00001000
00000000
00000100
00000000
00001000
,
00010000
00000000
00000000
00010000
00000000
00000000
00010000
00000000
00000000
00000000
00000000
00000000
00000000
00000000
00000000
00000000
,
00021000
00000000
00000000
00001000
00000000
00001000
00000000
00000000
,
00032000
00000000
00000000
00000010
00000000
00010000
00000000
00000000
,
00023000
00000000
00000000
00001000
00000000
00001000
00000000
00000000
,
02030000
00000000
00000000
00100000
00000000
10000000
00000000
00000000
,
13000000
01000000
00010000
00000010
,
00001000
00000000
00000001
00000100
00000001
00000000
00000010
00000000
,
00001000
00010000
00001000
00100000
,
20020000
00000000
00000000
00000000
00000000
00000000
00000000
30030000
,
10000000
00000000
10000000
01000000
10000000
01000000
00000000
00100000
,
00000000
00100000
00000000
00000000
00001000
00010000
00000000
00000000
,
00010000
00000000
00000100
00010000
00000000
00001000
00000000
00010000
,
00001000
00000000
00000000
00010000
00000000
00000000
01000000
00000000
00000000
10000000
00000000
00000000
00010000
00000000
00000000
00000000
,
10000000
00000000
01000000
00100000
01000000
00100000
00000000
00001000
,
00000000
00001000
00000000
00000000
00010000
00000100
00000000
00000000
,
00000010
00000000
00000001
00000010
00000000
00000100
00000000
00010000
,
00001000
00000000
00000000
00000100
00000000
00000000
00002000
00000000
00000000
00000000
00000000
00000000
00000000
00000000
00000000
00000000
,
00000000
00013000
00000000
00001000
00000000
00000100
00000000
00000001
,
00000000
00000100
00000000
00001000
00000000
00010000
00000000
00100000
,
00000000
10000000
00000000
00100000
00000000
00010000
00000000
00001000
,
00000000
00000100
00000000
00000001
00000010
00000001
00001000
00000001
,
00000100
00000001
00000000
00000010
00000000
00000100
00000000
00010000
,
00000000
01000000
00000000
10000000
00000000
01000000
00000000
00100000
,
00000000
00001000
00000000
00010000
00000000
00000010
00000000
00000100
,
00000001
00000000
00000000
00000001
00000000
00000000
00000001
00000000
00000000
00000000
00000000
00000000
00000001
00000000
00000000
00000000
,
00000101
00000000
00000001
00000100
00000000
00000100
00000000
00000000
,
00001000
00000000
00010000
00100000
00000000
10000000
00000000
00000000
,
10000000
00000000
10000000
01000000
00000000
01000000
00000000
00000000
,
00100000
00000000
00001000
00010000
00000000
00000100
00000000
00000000
,
00000010
00000011
00001000
00001010
,
00010000
00011000
00110000
10010000
,
10000000
11000000
00010000
01010000
,
00022000
00000000
00000000
00033000
,
00011000
00000000
00010000
00001000
00010000
00001000
00000000
00100000
,
00000000
00100000
00000000
00000000
00010000
01000000
00000000
00000000
,
00001000
00000000
01000000
00001000
00000000
00010000
00000000
00001000
,
00010000
00000000
00000000
00001000
00000000
00000000
00010000
00000000
00000000
01000000
00000000
00000000
10000000
00000000
00000000
00000000
,
10010000
00000000
10000000
00010000
10000000
00010000
00000000
00100000
,
00000000
00100000
00000000
00001000
00010000
00000100
00000000
00000000
,
00000100
00000000
00000010
00000100
00000000
00001000
00000000
00000001
,
00000010
00000000
00000000
00000100
00000000
00000000
00000020
00000000
00000000
00000000
00000000
00000000
00000000
00000000
00000000
00000000
,
00000031
00000000
00000001
00000100
00001000
00010000
00000000
00001000
,
00000000
00001000
00000000
00010000
00001000
00010000
00000000
00000000
,
00011000
00000000
00010000
01000000
00000000
01000000
00000000
10000000
,
00100000
00000000
00000000
01000000
00000000
00000000
00001000
00000000
00000000
00010000
00000000
00000000
01000000
00000000
10000000
00000000
,
01000000
00000000
10000000
01000000
00010000
00001000
00000000
00010000
,
00000000
00010000
00000000
00000100
00001000
00000001
00000000
00000000
,
00001001
00000000
00000001
00000010
00000000
00000100
00000000
00010000
,
00001000
00000000
00000000
00010000
00000000
00000000
00002000
00000000
00000000
00000000
00000000
00000000
00000000
00000000
00003000
00000000
,
00022000
00000000
00000000
00000000
,
00000000
00000000
00000000
00000000
,
00000000
00000000
00000000
00000000
,
00033000
00000000
00000000
00000000
;

//---------------dance-double - ----------------
#NOTES:
     dance-double:
     :
     Hard:
     8:
     0.517268,0.555476,0.298311,0.092579,0.036003,352.000000,323.000000,29.000000,9.000000,0.000000,0.000000,0.517268,0.555476,0.298311,0.092579,0.036003,352.000000,323.000000,29.000000,9.000000,0.000000,0.000000:
00000000
00000000
00000000
00000000
,
00000000
00000000
00000000
00000000
,
00000000
00000000
00000000
00000000
,
00000000
00000000
00000000
00000000
,
00000000
00000000
00000000
00000000
,
00010000
00001000
01000000
00010000
10000000
01000000
00100000
00000000
,
00100000
00001000
00010000
00000100
00001000
00000100
00000010
00000000
,
00000001
00001000
00000100
00010000
00001000
00010000
00100000
00000000
,
10000000
00000000
00100000
10000000
00000000
00100000
20000000
00000000
00000000
00000000
00000000
00000000
00000000
00000000
30000000
00000000
,
01000000
10000000
01000000
00100000
00000000
00100000
01000000
01000000
,
10000000
00010000
00100000
00010000
00000000
10000000
01000000
01000000
,
10000000
00010000
10000000
00100000
00000000
00100000
01000000
01000000
,
00010000
00100000
10000000
00100000
00000000
00010000
00000000
01000000
,
00100000
00100000
10000000
00000000
01000000
01000000
00010000
00000000
,
00001000
00010000
00001000
00000100
00001000
00010000
00010010
00000000
,
00000100
00000100
00000001
00000000
00000100
00000100
00000010
00000000
,
00002002
00000000
00000000
00003003
,
00001001
00000000
00000001
00000100
00001000
00010000
00000000
00011000
,
00000000
01001000
00000000
00001000
01000000
00010000
01000000
00000000
,
00100000
10000000
10100000
00000000
00010000
00100000
00110000
00000000
,
00100000
00001000
00010000
00000100
00001000
00000100
00000001
00000100
,
00001100
00000000
00001000
00000100
00000001
00000100
00000000
00001100
,
00000000
00010100
00000000
00000100
00010000
00001000
00000000
00000000
,
00001000
00100000
00110000
00000000
00010000
10000000
10100000
00000000
,
10000000
00000000
00000000
01000000
00000000
00000000
00020000
00000000
00000000
00000000
00000000
00000000
00000000
00000000
00000000
00000000
,
00031000
00010000
00000100
00001000
00000100
00000010
00000001
00000000
,
00000001
00000100
00000001
00000010
00000100
00010000
00001000
00000000
,
00001000
00100000
00010000
01000000
00100000
10000000
01000000
00000000
,
01000000
10000000
00100000
01000000
00001000
00010000
00000100
00001000
,
00001100
00001000
00000010
00000100
00000001
00000010
00001000
00000000
,
00001000
00000010
00000001
00000100
00000010
00010000
00001000
00000000
,
00001000
01000000
00010000
01000000
00100000
10000000
01000000
00000000
,
10000000
00000000
01000000
00010000
00000000
01000000
00010000
00000000
00000000
00000000
00000000
00000000
00010000
00000000
00001000
00000000
,
00011000
00000000
00010000
00000010
00000000
00000010
00000000
00000010
,
00001000
00000010
00000001
00000010
00000000
00001000
00000100
00000100
,
00010000
00001000
00010000
01000000
00000000
01000000
10000000
10000000
,
01000000
00100000
00001000
00010000
00000000
00001000
00000100
00000100
,
00000001
00000100
00000101
00000000
00000001
00000100
00001010
00000000
,
00000100
00001000
00010000
01000000
10000000
01000000
00010000
00000000
,
00010000
00001000
00010000
00000100
00000000
00001000
00000000
00000010
,
00000200
00000000
00000000
00000000
00000000
00000000
00000001
00000301
,
00000101
00000000
00000001
00000100
00001000
00010000
00000000
00011000
,
00000000
00011000
00000000
00001000
00010000
01000000
10000000
00000000
,
10000000
01000000
11000000
00000000
00010000
01000000
01010000
00000000
,
01000000
00001000
00010000
00000100
00001000
00000010
00000100
00000001
,
00001001
00000000
00000001
00000010
00000100
00001000
00000000
00000010
,
00000000
00000010
00000000
00000010
00010000
00001000
01000000
00000000
,
01000000
00001000
01001000
00000000
00001000
00010000
00010100
00000000
,
00000100
00000000
00000000
00001000
00000000
00000000
00000002
00000000
00000000
00000000
00000000
00000000
00000000
00000000
00000000
00000000
,
00000103
00001000
00010000
00001000
00010000
01000000
10000000
00100000
,
10000000
01000000
00100000
00001000
00010000
00000100
00001000
00000010
,
00000100
00000001
00000101
00000000
00000001
00000010
00000011
00000000
,
00000001
00000010
00000100
00010000
00100000
00010000
00001000
00000010
,
00000001
00000100
00001000
00100000
01000000
10000000
00100000
01000000
,
00001000
00010000
00000100
00000010
00000001
00000010
00000100
00010000
,
00001000
00010000
00011000
00000000
00010000
00001000
00011000
00000000
,
00010000
00000000
00000000
00001000
00000000
00000000
00020000
00000000
00000000
00000000
00000000
00000000
00030000
00000000
00000000
00000000
,
00022000
00000000
00000000
00000000
,
00000000
00000000
00000000
00000000
,
00000000
00000000
00000000
00000000
,
00033000
00000000
00000000
00000000
;

//---------------dance-single - ----------------
#NOTES:
     dance-single:
     :
     Easy:
     4:
     0.204262,0.308598,0.041146,0.154299,0.025716,139.000000,135.000000,4.000000,15.000000,0.000000,0.000000,0.204262,0.308598,0.041146,0.154299,0.025716,139.000000,135.000000,4.000000,15.000000,0.000000,0.000000:
0000
0000
0000
0000
,
0000
0000
0000
0000
,
0000
0000
0000
0000
,
0000
0000
0000
0000
,
0000
0000
0000
0000
,
1000
1000
1000
0000
,
0001
0001
0001
0000
,
0100
0100
0100
0000
,
0010
0000
0000
0010
0000
0000
0010
0000
0000
0000
0000
0000
0000
0000
0000
0000
,
2002
0000
0000
0003
,
0200
0000
0000
0300
,
0020
0000
0000
0030
,
0002
0000
0000
3003
,
1000
1000
0001
0001
,
0010
0100
0010
0001
,
1000
1000
0001
0001
,
2002
0000
0000
3003
,
1000
1000
0100
0000
,
0001
0001
0100
0000
,
1000
0000
0000
1000
0000
0000
0000
0000
,
0020
0000
0000
0000
,
1030
1000
0001
0000
,
0001
0001
1000
0000
,
0001
0000
0000
0001
0000
0000
0000
0000
,
0010
0000
0000
0010
0000
0000
0020
0000
0000
0000
0000
0000
0000
0000
0030
0000
,
0001
0000
0001
0000
,
0100
0000
0100
0000
,
0010
0000
0010
0000
,
1000
0000
1000
0000
,
1100
0000
0100
0000
,
0010
0000
0010
0000
,
0001
0000
0001
0000
,
0001
0000
0000
0001
0000
0000
0001
0000
0000
0000
0000
0000
0000
0000
0000
0000
,
1000
0001
0000
0000
,
0100
0010
0100
0000
,
0001
1000
0000
0000
,
0010
0100
0010
0000
,
1000
1000
0001
0001
,
0010
0100
0010
0001
,
1000
1000
0001
0001
,
0020
0000
0000
0000
,
0031
0001
0010
0000
,
1000
1000
0010
0000
,
0001
0000
0000
0001
0000
0000
0000
0000
,
0020
0000
0000
0000
,
0130
0100
0010
0000
,
0010
0010
0100
0000
,
1000
0000
0000
1000
0000
0000
0000
0000
,
0010
0000
0000
0010
0000
0000
0020
0000
0000
0000
0000
0000
0000
0000
0030
0000
,
1000
0100
0001
0000
,
0001
0100
1000
0000
,
1000
0000
0000
0010
0000
0000
0100
0000
,
0001
0010
0100
1000
,
0001
0010
1000
0000
,
1000
0010
0001
0000
,
0001
0000
0000
0100
0000
0000
0010
0000
,
1000
0000
0000
1000
0000
0000
2000
0000
0000
0000
0000
0000
0000
0000
3000
0000
,
2002
0000
0000
0000
,
0000
0000
0000
0000
,
0000
0000
0000
0000
,
3003
0000
0000
0000
;

//---------------dance-single - Alternate EXP----------------
#NOTES:
     dance-single:
     :
     Edit:
     9:
     0.565762,0.771494,0.185159,0.144012,0.313741,385.000000,367.000000,18.000000,14.000000,0.000000,0.000000,0.565762,0.771494,0.185159,0.144012,0.313741,385.000000,367.000000,18.000000,14.000000,0.000000,0.000000:
0000
0000
0000
0000
,
0000
0000
0000
0000
,
0000
0000
0000
0000
,
0000
0000
0000
0000
,
0000
0000
0000
0000
,
1000
0000
0001
0000
1000
0000
0100
0010
0000
0100
0010
0000
0001
0000
0000
0000
,
0001
0000
1000
0000
0001
0000
0100
0010
0000
0100
0010
0000
1000
0000
0000
0000
,
1000
0000
0001
0000
1000
0000
0100
0010
0000
0100
0010
0000
0001
0000
0000
0000
,
1000
0000
0010
0100
0000
0001
1000
0000
0000
0000
0000
0000
0001
0000
0001
0000
,
2000
0010
0000
0001
0000
0100
0000
0001
,
3002
0010
0000
1000
0000
0100
0000
1003
,
2000
0100
0000
0001
0000
0010
0000
0001
,
3002
0010
0000
1000
0000
0100
0000
1003
,
0001
0001
0010
0000
1000
1000
0010
0000
,
0001
0001
0100
0010
0100
0001
1000
0000
,
1000
1000
0100
0000
0001
0001
0100
0000
,
2002
0000
0000
3003
,
1001
0000
1000
0100
0010
0001
0000
1001
,
0000
0101
0000
0001
0100
0010
0100
0000
,
0100
0001
1000
0001
0100
0000
0010
1000
0001
1000
0010
0000
1000
0000
0100
0000
,
0010
0001
0000
1000
0100
0000
0010
0001
0000
0100
0010
0000
1000
0010
0100
0001
,
1000
0000
1000
0100
0010
0001
0000
1001
,
0000
1100
0000
1000
0100
0010
0100
0000
,
1000
0100
1000
0001
1000
0000
0010
1000
0001
1000
0010
0000
1000
0000
0001
0000
,
1000
0000
0001
0100
0000
0010
2000
0000
0000
0000
0000
0000
0000
0000
3000
0000
,
0001
1000
0000
1000
0000
1000
0100
0010
,
0001
0100
0000
0100
0000
0100
0001
1000
,
0010
0100
0000
0100
0000
0100
0001
1000
,
0100
0010
0000
0010
0001
0010
0100
0010
,
0001
1000
0000
1000
0000
1000
0100
1000
,
0001
0100
0000
0100
0000
0100
0001
0100
,
0010
1000
0000
1000
0000
1000
0100
0010
,
0001
0000
1000
0010
0000
0100
0001
0000
0000
0000
0001
0000
0100
0000
0100
0000
,
0001
1000
0001
0010
0000
0010
0100
0100
,
1000
0001
1000
0010
0000
1000
0100
0100
,
1000
0001
1000
0010
0000
0010
0100
0100
,
0001
0010
1000
0010
0000
0001
0100
0100
,
0001
1000
1001
0000
1000
0001
1001
0000
,
1000
0100
0010
0001
0100
1000
0100
0000
,
0100
0001
1000
0000
1000
0010
0010
0000
,
2020
0000
0000
0000
0000
3000
1000
1030
,
1010
0000
1000
0010
0100
0001
0000
0011
,
0000
1001
0000
0001
0100
1000
0100
0000
,
0001
0100
0001
0100
0010
0000
1000
0100
1000
0100
0010
0000
0001
0000
1000
0000
,
0001
0010
0000
0100
1000
0000
0010
0100
0000
0001
0010
0000
0100
1000
0001
1000
,
0010
0000
0010
1000
0001
1000
0000
1010
,
0000
1001
0000
0001
0010
0001
0100
0000
,
0001
0100
0001
0100
0010
0000
1000
0100
1000
0100
0010
0000
0001
0100
0001
1000
,
0001
0000
1000
0001
0000
0001
0020
0000
0000
0000
0000
0000
0000
0000
0030
0000
,
0011
0000
0001
0010
0001
1000
0000
1010
,
0000
1001
0000
1000
0100
0001
0100
0000
,
1000
0100
1000
0001
1000
0000
0001
1000
0100
1000
0001
0000
0000
0000
1000
0000
,
0001
0100
0000
0010
1000
0000
0100
0010
0000
0001
1000
0000
0001
1000
0001
1000
,
0100
0000
1000
0100
1000
0000
0001
0000
0100
0001
0100
0000
0001
0100
0001
1000
,
0001
0000
0000
1000
0000
0000
0100
0000
0000
0000
0020
0000
0000
0000
0130
0000
,
1000
0010
0100
0001
0010
0100
1000
0100
,
0010
0000
0001
1000
0000
0010
0200
0000
0000
0000
0000
0000
0301
0000
1000
0000
,
2002
0000
0000
0000
,
0000
0000
0000
0000
,
0000
0000
0000
0000
,
3003
0000
0000
0000
;
