#TITLE:Bullit;
#SUBTITLE:;
#ARTIST:Watermat;
#TITLETRANSLIT:;
#SUBTITLETRANSLIT:;
#ARTISTTRANSLIT:;
#CREDIT:;
#BANNER:Bullit.png;
#BACKGROUND:Bullit-bg.png;
#LYRICSPATH:;
#CDTITLE:cdtitle.png;
#MUSIC:Bullit.ogg;
#OFFSET:-0.080;
#SAMPLESTART:45.940;
#SAMPLELENGTH:14.980;
#SELECTABLE:YES;
#BPMS:0.000=125.650,32.000=62.825,64.000=125.650;
#STOPS:;
#BGCHANGES:;

//---------------dance-single - ----------------
#NOTES:
     dance-single:
     :
     Hard:
     8:
     0.462,0.534,0.394,0.770,0.215:
0000
0000
0000
0000
,
0000
0000
0000
0000
,
1000
1100
0001
0101
,
1000
1010
0001
0011
,
1001
0000
0000
0001
0100
0000
0000
0000
1001
0000
0000
1000
0100
0000
0000
0000
,
1001
0000
0000
0001
0010
0000
0000
0000
1001
0000
0000
1000
0010
0000
0000
0000
,
1100
0000
0000
0100
0010
0000
0000
0000
0101
0000
0000
0100
0010
0000
0000
0000
,
1100
0000
0000
0100
0010
0000
0000
0000
0101
0000
0000
0100
0010
0000
0000
0000
,
210M
0000
0000
0000
,
0020
0000
0000
0000
0000
0000
0000
3030
,
2000
0000
0000
0020
3000
0000
0130
0000
0001
0000
0000
0020
0000
0000
0031
0000
0100
0000
0000
0020
0000
0000
0130
0000
0001
0000
0000
0020
0000
0000
0031
0000
,
0200
0000
0000
0000
0000
0000
0000
0300
,
0202
0303
2200
3300
,
2000
3020
0230
0302
0023
0000
0030
0000
,
0002
0000
0003
0200
0000
0000
0310
0000
1000
0000
0000
0200
0000
0000
1300
0000
0020
0000
0030
0200
0000
0000
0310
0000
1000
0000
0000
0200
0000
0000
1300
0000
,
0020
0000
0000
0000
0000
0000
0000
0030
,
2M10
3100
0001
0100
,
2100
0000
0000
0000
3010
0000
0000
0000
0001
0000
0000
0000
0010
0000
0001
0010
,
0200
2300
3002
0203
,
0320
0000
0000
0000
1030
0000
0000
1000
0000
0000
0100
0000
0001
0000
0000
0000
,
1002
0000
0000
0010
0003
0000
1000
0000
1000
0000
0000
0010
0000
0000
0100
0000
,
0201
0000
0000
0010
0300
0000
0001
0000
0001
0000
0000
0010
0000
0000
0100
0000
,
2100
0001
0100
3001
,
2002
3003
2002
3003
2200
3300
2200
3300
,
0012
0103
1000
0100
,
0102
0000
0000
0000
0103
0000
0000
0000
1000
0000
0000
0000
0100
0000
1000
0100
,
0020
0032
2003
3020
,
0230
0000
0000
0000
0301
0000
0000
0001
0000
0000
0010
0000
1000
0000
0000
0000
,
2001
0000
0000
0100
3000
0000
0001
0000
0001
0000
0000
0100
0000
0000
0010
0000
,
1020
0000
0000
0100
0030
0000
1000
0000
1000
0000
0000
0100
0000
0000
0010
0000
,
0012
1000
0010
1003
,
2002
3003
2002
3003
0022
0033
0022
0033
,
1002
0010
1000
0100
,
1000
0000
0000
0000
0010
0000
0000
0000
1000
0000
0000
0000
0103
0000
0100
0001
,
0020
0001
0100
0001
,
0130
0000
0000
0000
0001
0000
0000
0001
0000
0000
0100
0000
0010
0000
0000
0000
,
0020
0000
0000
1000
0030
0000
0001
0000
0020
0000
0000
0100
0030
0000
1000
0000
,
0020
0000
0000
0100
0030
0000
0001
0000
0020
0000
0000
0100
0030
0000
1000
0000
,
0002
1000
0100
1003
,
0022
0033
0022
0033
0220
0330
0220
0330
,
2001
0010
0001
0100
,
0001
0000
0000
0000
0010
0000
0000
0000
0001
0000
0000
0000
3100
0000
0100
1000
,
0020
1000
0100
1000
,
0130
0000
0000
0000
1000
0000
0000
1000
0000
0000
0100
0000
0010
0000
0000
0000
,
0200
0000
0000
1000
0300
0000
0001
0000
0200
0000
0000
0010
0300
0000
1000
0000
,
0200
0000
0000
0010
0300
0000
0001
0000
0200
0000
0000
0010
0300
0000
1000
0000
,
0020
1000
0100
1000
,
0200
0300
0200
0300
2000
3000
2000
3030
,
1001
1100
0001
0101
,
1000
1010
0001
0011
;

//---------------dance-single - ----------------
#NOTES:
     dance-single:
     :
     Medium:
     6:
     0.377,0.534,0.242,0.653,0.036:
0000
0000
0000
0000
,
0000
0000
0000
0000
,
0001
0100
1000
0100
,
0001
0100
1000
0100
,
0001
0010
1000
0010
,
0001
0010
1000
0010
,
0001
0100
1000
0010
,
0001
0100
1000
0010
,
M002
0000
0000
0000
,
0020
0000
0000
0000
0000
0000
0000
0033
,
2000
0000
3000
0010
0020
0000
0030
1000
2000
0000
3000
0010
0020
0000
0030
0100
,
0200
0000
0000
0000
0000
0000
0000
0300
,
2002
3003
2002
3003
,
2000
3000
0002
0003
2000
3000
0002
0003
2000
0000
0000
0000
0000
0000
3000
0000
,
0002
0000
0003
0100
0200
0000
0300
0001
0002
0000
0003
0100
0200
0000
0300
0010
,
0020
0000
0000
0000
0000
0000
0000
0030
,
0120
0130
1000
0010
,
0200
0000
0301
0000
0010
0000
0100
0010
,
0002
0203
0302
2003
,
3200
0000
1300
0000
1000
0010
1000
0000
,
1002
1003
0010
0001
,
2001
3100
0001
1000
,
0201
0010
0001
0310
,
2020
3030
2020
3030
2002
3003
2002
3003
,
0210
0310
1000
0100
,
0020
0000
0031
0000
0100
0000
0010
0100
,
0002
0023
0032
2003
,
3020
0000
1030
0000
1000
0100
1000
0000
,
1002
1003
0100
0001
,
2001
3010
1000
0001
,
0021
0100
0001
0130
,
2200
3300
2200
3300
2002
3003
2002
3003
,
2010
3001
0010
0100
,
0010
0000
0001
0000
0100
0000
0010
1000
,
0010
1000
0100
0010
,
0100
0000
1000
0000
0010
0100
0010
0000
,
0102
1000
0100
1003
,
2100
0001
0100
3001
,
1002
0010
1000
0013
,
0020
0030
0200
0300
0020
0030
0200
0300
,
0012
1003
0010
0100
,
0010
0000
1000
0000
0100
0000
0010
0001
,
0010
0001
0100
0010
,
0100
0000
0001
0000
0010
0100
0010
0000
,
2100
0001
0100
3001
,
0012
1000
0100
1003
,
2001
0010
0001
3010
,
0020
0030
0200
0300
0020
0030
0200
0300
,
0110
0001
0001
1000
,
1000
0010
0010
0100
;

//---------------dance-single - ----------------
#NOTES:
     dance-single:
     :
     Easy:
     3:
     0.239,0.267,0.090,0.295,0.000: // measure 1
0000
0000
0000
0000
,  // measure 2
0000
0000
0000
0000
,  // measure 3
0001
0001
1000
1000
,  // measure 4
0001
0001
1000
1000
,  // measure 5
0001
0001
1000
1000
,  // measure 6
0010
0010
0100
0100
,  // measure 7
0010
0010
0100
0100
,  // measure 8
0010
0010
0100
0100
,  // measure 9
0200
0000
0000
0000
,  // measure 10
0020
0000
0000
0330
,  // measure 11
2000
3002
2003
3002
,  // measure 12
0203
0000
0000
0300
,  // measure 13
1001
0000
1001
0000
,  // measure 14
1001
0100
0110
0000
,  // measure 15
0011
0000
1100
0000
,  // measure 16
0022
0000
0000
0000
0000
0000
0000
0033
,  // measure 17
0002
1003
0000
1000
,  // measure 18
2000
3001
0000
0001
,  // measure 19
0002
1003
0100
1000
,  // measure 20
0020
0030
0010
0010
,  // measure 21
0200
0301
0000
1000
,  // measure 22
2000
3001
0000
0001
,  // measure 23
0002
1003
0000
0000
,  // measure 24
0100
0100
0010
0010
,  // measure 25
0002
1003
0000
1000
,  // measure 26
2000
3001
0000
0001
,  // measure 27
0002
1003
0100
1000
,  // measure 28
0020
0030
0010
0010
,  // measure 29
0200
0301
0000
1000
,  // measure 30
2000
3001
0000
0001
,  // measure 31
0002
1003
0000
0000
,  // measure 32
0100
0100
0010
0010
,  // measure 33
1001
1000
1000
1000
,  // measure 34
0001
0001
0001
0001
,  // measure 35
0100
0100
0100
0100
,  // measure 36
0010
0010
0010
0010
,  // measure 37
2000
3000
0200
0300
,  // measure 38
0020
0030
0002
0003
,  // measure 39
0200
0300
0000
0000
,  // measure 40
0001
0001
1000
1000
,  // measure 41
1001
1000
1000
1000
,  // measure 42
0001
0001
0001
0001
,  // measure 43
0100
0100
0100
0100
,  // measure 44
0010
0010
0010
0010
,  // measure 45
0002
0003
0020
0030
,  // measure 46
0200
0300
2000
3000
,  // measure 47
0020
0000
0000
0030
,  // measure 48
0010
0010
0100
0100
,  // measure 49
0110
0001
0000
0001
,  // measure 50
0000
1000
0000
1000
;
