#TITLE:Aurora;
#SUBTITLE:;
#ARTIST:Sander van Dien;
#TITLETRANSLIT:;
#SUBTITLETRANSLIT:;
#ARTISTTRANSLIT:;
#GENRE:Trance;
#CREDIT:;
#BANNER:aurora-bn.png;
#BACKGROUND:aurora-bg.png;
#LYRICSPATH:;
#CDTITLE:cdtitle.png;
#MUSIC:aurora.mp3;
#OFFSET:0.000000;
#SAMPLESTART:18.202000;
#SAMPLELENGTH:12.000000;
#SELECTABLE:YES;
#BPMS:0.000000=132.000000
;
#STOPS:110.000000=0.250000,
110.500000=0.250000
;
#BGCHANGES:;
#KEYSOUNDS:;
#ATTACKS:;

//---------------dance-single - ----------------
#NOTES:
     dance-single:
     :
     Easy:
     2:
     0.250806,0.293856,0.149872,0.074936,0.000000,164.000000,150.000000,14.000000,7.000000,0.000000,0.000000,0.250806,0.293856,0.149872,0.074936,0.000000,164.000000,150.000000,14.000000,7.000000,0.000000,0.000000:
// measure 0
0000
0000
0000
0000
,  // measure 1
0000
0000
0000
0000
,  // measure 2
0000
0000
0000
0000
,  // measure 3
0000
0000
0000
0000
,  // measure 4
1100
0000
0011
0000
,  // measure 5
1010
0010
0100
0001
,  // measure 6
0101
0000
0110
0000
,  // measure 7
1001
0100
0010
1000
,  // measure 8
0020
0000
0000
0000
0000
0000
0200
0030
,  // measure 9
0000
0000
0000
0000
0000
0000
0000
0300
,  // measure 10
1000
0010
0100
0001
,  // measure 11
1000
0010
0100
0001
,  // measure 12
0010
0001
1000
0010
,  // measure 13
0100
0001
1000
0001
,  // measure 14
0100
0010
1000
0001
,  // measure 15
0100
0001
1000
0010
,  // measure 16
0100
1000
0010
1000
,  // measure 17
0001
1000
0100
0010
,  // measure 18
1000
0010
0100
0001
,  // measure 19
1000
0001
1000
0010
,  // measure 20
1000
0001
0100
0001
,  // measure 21
0010
1000
0001
1000
,  // measure 22
0010
0100
0001
1000
,  // measure 23
0010
0100
0001
0100
,  // measure 24
0100
0010
0100
0001
0010
1000
0000
0010
,  // measure 25
0000
0100
0010
1000
,  // measure 26
1100
0001
0100
0010
,  // measure 27
0100
0000
0000
0000
0001
0000
0000
0000
2200
0000
0000
3300
0010
0000
0000
0000
,  // measure 28
0100
0001
0100
0010
,  // measure 29
0001
0000
0000
0000
2002
0000
0000
0000
0000
0000
0000
3003
1000
0000
0000
0000
,  // measure 30
0010
0100
0001
0100
,  // measure 31
0010
1000
0010
0100
,  // measure 32
0001
0100
0010
1000
,  // measure 33
0001
0000
0100
0000
0010
0000
1100
0010
,  // measure 34
0100
0000
0001
0000
0000
0000
0010
0100
,  // measure 35
0001
0000
1000
0000
0000
0000
0100
1000
,  // measure 36
0010
0000
0100
0000
0000
0000
0001
0100
,  // measure 37
0010
0010
0000
1100
,  // measure 38
0000
0001
0000
0100
,  // measure 39
0010
0001
0100
1010
,  // measure 40
0000
0010
0000
0001
,  // measure 41
0100
0010
0100
0011
,  // measure 42
0000
1000
0000
0010
,  // measure 43
1000
0100
0001
0110
,  // measure 44
0000
1000
0000
0002
,  // measure 45
0100
0010
1000
0003
;

//---------------dance-single - ----------------
#NOTES:
     dance-single:
     :
     Beginner:
     1:
     0.148343,0.195904,0.032115,0.289039,0.000000,97.000000,94.000000,3.000000,27.000000,0.000000,0.000000,0.148343,0.195904,0.032115,0.289039,0.000000,97.000000,94.000000,3.000000,27.000000,0.000000,0.000000:
// measure 0
0000
0000
0000
0000
,  // measure 1
0000
0000
0000
0000
,  // measure 2
0000
0000
0000
0000
,  // measure 3
0000
0000
0000
0000
,  // measure 4
0200
0000
0000
0300
0002
0000
0000
0003
,  // measure 5
0020
0000
0000
0000
0000
0000
0000
0030
,  // measure 6
0002
0000
0000
0003
0200
0000
0000
0300
,  // measure 7
2000
0000
0000
0000
0000
0000
0000
3000
,  // measure 8
0020
0000
0000
0000
,  // measure 9
0000
0000
0000
0000
0000
0000
0000
0030
,  // measure 10
1000
0000
0100
0000
,  // measure 11
1000
0010
0100
1000
,  // measure 12
0010
0000
1000
0000
,  // measure 13
0100
0010
0001
0001
,  // measure 14
0100
0000
1000
0000
,  // measure 15
0100
0001
1000
0001
,  // measure 16
0010
0000
0100
0000
,  // measure 17
0100
0001
0100
0010
,  // measure 18
1000
0000
0100
0000
,  // measure 19
1000
0001
1000
0010
,  // measure 20
1000
0000
0100
0000
,  // measure 21
0010
1000
0001
1000
,  // measure 22
0010
0000
0001
0000
,  // measure 23
0010
0100
0001
0100
,  // measure 24
0000
1000
0000
0100
,  // measure 25
0020
0000
0000
0000
0000
0000
0000
0030
,  // measure 26
1100
0000
0100
0000
,  // measure 27
0010
0000
0000
0000
0001
0000
0000
0000
0200
0000
0000
0300
0010
0000
0000
0000
,  // measure 28
0000
0001
0000
0100
,  // measure 29
0001
0000
0000
0000
2002
0000
0000
0000
0000
0000
0000
3003
1000
0000
0000
0000
,  // measure 30
0000
0100
0000
0010
,  // measure 31
0100
1000
0010
0100
,  // measure 32
0000
0001
0000
1000
,  // measure 33
0001
0100
0010
1100
,  // measure 34
0000
0000
0002
0000
0000
0003
0010
0000
,  // measure 35
0000
0000
0200
0000
0000
0300
0001
0000
,  // measure 36
0000
0000
0020
0000
0000
0030
1000
0000
,  // measure 37
0000
0000
0200
0000
0000
0300
2000
0000
,  // measure 38
0000
3000
0002
0000
0000
0003
0200
0000
,  // measure 39
0000
0000
0000
0000
0000
0300
2000
0000
,  // measure 40
0000
3000
0020
0000
0000
0030
0002
0000
,  // measure 41
0000
0000
0000
0000
0000
0003
0020
0000
,  // measure 42
0000
0030
2000
0000
0000
3000
0200
0000
,  // measure 43
0000
0000
0000
0000
0000
0300
0020
0000
,  // measure 44
0000
0030
2000
0000
0000
3000
0020
0000
,  // measure 45
0000
0000
0000
0030
;

//---------------dance-single - ----------------
#NOTES:
     dance-single:
     :
     Medium:
     5:
     0.324213,0.367320,0.128462,0.053526,0.000000,212.000000,200.000000,12.000000,5.000000,0.000000,0.000000,0.324213,0.367320,0.128462,0.053526,0.000000,212.000000,200.000000,12.000000,5.000000,0.000000,0.000000:
// measure 0
0000
0000
0000
0000
,  // measure 1
0000
0000
0000
0000
,  // measure 2
0000
0000
0000
0000
,  // measure 3
0000
0000
0000
0000
,  // measure 4
1100
0000
0010
0000
0011
0000
0000
0100
,  // measure 5
1010
0010
0100
0001
,  // measure 6
0101
0000
0010
0000
0110
0000
0000
0001
,  // measure 7
1001
0100
0010
1000
,  // measure 8
0020
0000
0000
0000
0000
0000
0200
0030
,  // measure 9
0000
0000
0010
0000
0000
0000
0010
0300
,  // measure 10
1000
0000
0010
0000
0100
0010
0001
0000
,  // measure 11
1000
0010
0100
0001
,  // measure 12
0010
0000
0001
0000
1000
0100
0010
0000
,  // measure 13
0100
0001
1000
0001
,  // measure 14
0100
0000
0010
0000
1000
0010
0100
0000
,  // measure 15
0100
0001
1000
0010
,  // measure 16
0100
0000
1000
0000
0100
0010
1000
0000
,  // measure 17
0001
1000
0100
0010
,  // measure 18
1000
0100
0100
0000
0100
0010
1000
0000
,  // measure 19
1000
0010
0001
0000
1000
0010
0010
0000
,  // measure 20
1000
0010
0100
0000
0100
0001
0010
0000
,  // measure 21
0010
0001
0100
0000
0001
0010
1000
0000
,  // measure 22
0010
0100
0100
0000
0100
0010
1000
0000
,  // measure 23
0010
0000
0100
0010
0001
0010
0100
1000
,  // measure 24
0100
0010
0100
0001
0010
1000
0000
0010
,  // measure 25
0100
0100
0010
1000
,  // measure 26
1100
0010
0001
0010
0100
0001
0010
0000
,  // measure 27
0100
0000
0001
0000
1000
0100
0010
0010
,  // measure 28
0100
0010
0001
0100
0100
0000
0010
0000
,  // measure 29
0001
0000
2000
0000
3002
0000
1003
0100
,  // measure 30
0010
0100
0100
0010
0001
0000
0100
0000
,  // measure 31
0010
0000
1000
0000
0010
0000
0100
0010
,  // measure 32
0001
0100
0100
0010
1000
0000
0100
0000
,  // measure 33
0001
0000
0100
0000
0010
0000
1100
0010
,  // measure 34
0100
0010
1000
0000
0000
0000
0010
0100
,  // measure 35
0001
0100
1000
0000
0000
0000
0100
1000
,  // measure 36
0010
0100
0100
0000
0000
0000
0001
0100
,  // measure 37
0010
0001
0010
0000
0000
0000
1100
0000
,  // measure 38
0010
0000
0001
0000
0000
0010
0100
0000
,  // measure 39
0010
0001
0100
1010
,  // measure 40
0100
0000
0010
0000
0000
0010
0001
0000
,  // measure 41
0100
0010
0100
0011
,  // measure 42
0100
0000
1000
0000
0000
0100
0010
0000
,  // measure 43
1000
0100
0001
0110
,  // measure 44
0010
0000
1000
0000
0000
0010
2000
0000
,  // measure 45
0100
0010
0001
3000
;

//---------------dance-single - ----------------
#NOTES:
     dance-single:
     :
     Hard:
     8:
     0.429735,0.440784,0.139167,0.010705,0.117757,281.000000,268.000000,13.000000,1.000000,6.000000,0.000000,0.429735,0.440784,0.139167,0.010705,0.117757,281.000000,268.000000,13.000000,1.000000,6.000000,0.000000:
// measure 0
0000
0000
0000
0000
,  // measure 1
0000
0000
0000
0000
,  // measure 2
0000
0000
0000
0000
,  // measure 3
0000
0000
0000
0000
,  // measure 4
1100
0100
0010
0100
1000
0010
0000
0100
,  // measure 5
1010
0010
0100
0001
,  // measure 6
0101
0010
0001
0100
0010
0010
0000
0001
,  // measure 7
1001
0100
0010
1000
,  // measure 8
0020
0000
0000
0000
0000
0000
0100
0030
,  // measure 9
1000
0000
0100
0010
1000
0010
0100
0010
,  // measure 10
1100
0100
0010
1000
0100
0010
0100
0010
,  // measure 11
1000
0010
0100
0001
,  // measure 12
0010
0100
0001
0010
1000
0100
0010
0100
,  // measure 13
0001
0001
1000
0001
,  // measure 14
0100
0100
0010
0100
1000
0010
0001
0100
,  // measure 15
0100
0001
1000
0010
,  // measure 16
0100
0010
1000
0100
0010
0100
1000
0010
,  // measure 17
0001
1000
0100
0010
,  // measure 18
1000
0000
0100
0000
0010
0000
0000
0100
0100
0000
0010
0000
0001
0000
0000
0100
,  // measure 19
1000
0000
0010
0000
0001
0000
0000
0010
0001
0000
0100
0000
0010
0000
0000
0100
,  // measure 20
1000
0000
0010
0000
0100
0000
0000
0100
0010
0000
0001
0000
0010
0000
0000
0010
,  // measure 21
0100
0000
0001
0000
0100
0000
0000
0001
0001
0000
0010
0000
1000
0000
0000
0010
,  // measure 22
0010
0000
0100
0000
0100
0000
0000
0010
0100
0000
0010
0000
1000
0000
0000
0010
,  // measure 23
1000
0000
0010
0000
0100
0000
0000
0010
0001
0000
0010
0000
0100
0000
0000
0010
,  // measure 24
0100
0010
0100
0001
0010
1000
0100
0010
,  // measure 25
0100
0000
0001
0000
0100
0000
0000
0010
0010
0000
0100
0000
1000
0000
0000
0100
,  // measure 26
1100
0010
0001
0010
0100
0001
0010
0010
,  // measure 27
0100
0000
0001
0000
1MMM
MM1M
0010
0010
,  // measure 28
0100
0010
0001
0100
1000
0001
0010
0000
,  // measure 29
0100
0000
4000
0000
3004
0000
1003
0100
,  // measure 30
0010
0010
0100
0010
1000
0010
0100
0000
,  // measure 31
0010
0000
1000
0000
0010
0000
0100
0010
,  // measure 32
0001
0010
0100
0001
0010
0100
1000
0000
,  // measure 33
0001
0000
0100
0000
0010
0000
1100
0010
,  // measure 34
0001
0000
0010
0000
0100
0010
0000
0000
0100
0000
0000
0010
0010
0000
0100
0000
,  // measure 35
0001
0000
0100
0000
1000
0100
0000
0000
0010
0000
0000
0010
0100
0000
1000
0000
,  // measure 36
0010
0000
0100
0000
0010
0010
0000
0000
0010
0000
0000
0010
0001
0000
0100
0000
,  // measure 37
0010
0000
0001
0000
0010
0100
0000
0000
0010
0000
0000
0100
1100
0000
0100
0000
,  // measure 38
0010
0100
1000
0100
0000
0010
0100
0000
,  // measure 39
0010
0000
0001
0000
0100
0000
1010
0010
,  // measure 40
0100
1000
0010
0100
0000
0010
0001
0000
,  // measure 41
0100
0000
0010
0000
0100
0000
0011
0010
,  // measure 42
0100
0010
0001
0100
0000
0100
0010
0000
,  // measure 43
1000
0000
0100
0000
0001
0000
0110
0100
,  // measure 44
0010
0100
1000
0010
0000
0010
1000
0000
,  // measure 45
0100
0010
1001
L00L
;
