#TITLE:Things We Lost In The Fire;
#SUBTITLE:;
#ARTIST:Bastille;
#TITLETRANSLIT:;
#SUBTITLETRANSLIT:;
#ARTISTTRANSLIT:;
#GENRE:;
#CREDIT:;
#BANNER:[Passport] - Things We Lost In The Fire.png;
#BACKGROUND:[Passport] - Things We Lost In The Fire-bg.png;
#LYRICSPATH:;
#CDTITLE:cdtitle.png;
#MUSIC:[Passport] - Things We Lost In The Fire.ogg;
#OFFSET:-1.820000;
#SAMPLESTART:46.599998;
#SAMPLELENGTH:12.000000;
#LASTBEATHINT:282.268799;
#SELECTABLE:YES;
#BPMS:0.000000=134.000000
;
#STOPS:31.000000=1.791000
;
#BGCHANGES:;
#KEYSOUNDS:;
#ATTACKS:;

//---------------dance-single - ----------------
#NOTES:
     dance-single:
     :
     Hard:
     7:
     0.455018,0.564288,0.260323,0.091879,0.053596,416.000000,382.000000,34.000000,12.000000,0.000000,0.000000,0.455018,0.564288,0.260323,0.091879,0.053596,416.000000,382.000000,34.000000,12.000000,0.000000,0.000000:
// measure 0
0000
0000
0000
0000
,  // measure 1
0000
0000
0000
0000
,  // measure 2
0000
0000
0000
0000
,  // measure 3
0000
0000
0000
0000
,  // measure 4
0001
0100
0010
1000
0001
0000
1001
0000
,  // measure 5
1000
0100
0010
0001
1000
0002
0000
0000
,  // measure 6
1003
0010
0100
0001
1000
0000
1000
0001
,  // measure 7
0010
1000
0010
0001
1000
0020
0000
0000
,  // measure 8
0130
0100
0000
0010
0000
1000
0000
0100
,  // measure 9
0100
0010
0000
0002
0000
0000
1003
0100
,  // measure 10
1000
0000
1000
0001
0000
0001
0100
0010
,  // measure 11
0000
0010
0000
0100
0001
0010
0110
0000
,  // measure 12
0100
0000
0100
0010
0000
0001
0000
0100
,  // measure 13
0100
0010
0000
1000
0000
1000
0001
0000
,  // measure 14
0100
0000
0001
0000
1000
0000
0100
0000
0000
0100
0010
0001
,  // measure 15
1000
0010
0000
0100
0001
1000
1001
0000
,  // measure 16
0010
1000
0010
1000
0000
0001
0010
0001
,  // measure 17
0010
0100
0000
0100
0000
1000
0001
0000
,  // measure 18
0010
0000
0001
0000
1000
0000
0010
0000
0100
0000
0001
0000
,  // measure 19
1000
0001
0000
0001
0000
0001
1000
0000
,  // measure 20
0100
1000
0100
1000
0000
0001
0100
0001
,  // measure 21
0100
0010
0000
0010
1000
0100
0010
0001
,  // measure 22
0000
0001
0010
0100
1000
0010
0100
0001
,  // measure 23
0000
1000
0000
1000
0000
1000
1001
0000
,  // measure 24
0001
1000
0010
0010
1000
0000
1001
0000
,  // measure 25
1000
0001
0010
0010
0001
1001
0110
0000
,  // measure 26
0001
0100
0001
0001
0010
0000
0100
1000
,  // measure 27
0010
0001
0010
1000
0001
0010
0110
0000
,  // measure 28
1000
0001
0010
0010
0001
0000
0011
0000
,  // measure 29
0001
1000
0010
0010
1000
1010
0101
0000
,  // measure 30
1000
0100
1000
1000
0010
0000
0001
0010
,  // measure 31
0100
0001
0100
1000
0100
0020
1030
0000
,  // measure 32
0100
1000
0100
0001
0100
0000
1100
0000
,  // measure 33
1001
0000
0010
0000
0001
0001
0010
0000
,  // measure 34
0100
0000
1000
0000
0100
0100
1000
0000
,  // measure 35
0010
0100
0010
0100
0010
1000
0100
0010
,  // measure 36
0001
0000
0001
0100
0000
0001
1001
0000
,  // measure 37
0010
0000
0001
0000
0100
1000
0100
0000
,  // measure 38
0010
0000
1000
0000
0100
0001
0100
0000
,  // measure 39
0010
0100
0010
0100
0010
0001
0100
0010
,  // measure 40
1000
0100
0010
0001
,  // measure 41
1001
0001
0100
0010
1000
0100
0011
0000
,  // measure 42
1001
1000
0010
0100
0001
0010
1100
0000
,  // measure 43
0010
0001
0010
0001
0100
1000
0100
1000
,  // measure 44
0100
0000
0010
1000
0000
0001
0110
0000
,  // measure 45
1001
0001
0010
0100
1000
0010
0101
0000
,  // measure 46
1001
1000
0100
0010
0001
0100
1010
0000
,  // measure 47
0100
0001
1000
0100
0010
0001
1000
0010
,  // measure 48
0100
0001
0010
1000
,  // measure 49
0010
0000
0010
0000
0010
0000
0010
0000
0001
1000
0001
1000
0001
0000
0010
0000
,  // measure 50
0100
0000
0011
0011
0000
0001
0100
0010
,  // measure 51
1000
0000
1010
1010
0000
1000
0100
0010
,  // measure 52
0001
0000
1001
1001
0001
0000
0100
0001
,  // measure 53
0010
0000
1000
0000
0010
0000
0001
0000
0100
0001
0100
0001
1000
0010
1000
0010
,  // measure 54
1000
0001
0100
0100
0001
0000
1001
0000
,  // measure 55
0001
1000
0100
0100
1000
1001
0110
0010
,  // measure 56
1000
0000
0010
1000
0100
0000
0010
0001
,  // measure 57
0100
1000
0100
0001
1000
0100
0110
0000
,  // measure 58
0100
0001
0100
1000
0001
0100
0010
0000
,  // measure 59
2000
0000
0100
0100
0000
0000
0001
0000
,  // measure 60
3002
0000
0010
0010
0000
0000
1000
0000
,  // measure 61
0023
0000
0100
0100
0000
0000
0001
0000
,  // measure 62
0230
0000
0010
0010
0000
0000
1300
0000
,  // measure 63
0002
0000
0100
0100
0000
0000
1000
0000
,  // measure 64
0023
0000
1000
1000
0000
0000
0001
0000
,  // measure 65
0230
0000
0010
0010
0000
0000
0001
0000
,  // measure 66
2300
0000
0001
0001
3000
0000
0110
0000
,  // measure 67
0100
0000
0000
0000
;

//---------------dance-single - ----------------
#NOTES:
     dance-single:
     :
     Beginner:
     1:
     0.137818,0.179546,0.007657,0.076566,0.000000,126.000000,125.000000,1.000000,10.000000,0.000000,0.000000,0.137818,0.179546,0.007657,0.076566,0.000000,126.000000,125.000000,1.000000,10.000000,0.000000,0.000000:
0000
0000
0000
0000
,
0000
0000
0000
0000
,
0000
0000
0000
0000
,
0000
0000
0000
0000
,
0010
0000
0000
0000
,
0100
0000
0000
0000
,
0001
0000
0000
0000
,
1000
0000
0000
0000
,
0100
0000
0010
0000
,
1000
0000
0010
0000
,
0100
0000
0001
0000
,
1000
1000
0000
0000
,
0100
0000
0010
0000
,
0001
0000
0010
0000
,
0100
0000
1000
0000
,
0001
0001
0000
0000
,
0000
0010
0010
0000
,
0100
0000
0100
0000
,
1000
0000
1000
1000
,
1000
0000
0000
0100
,
0000
0010
0010
0000
,
0001
0000
0001
0000
,
0100
0000
0001
0001
,
0001
0000
0100
0000
,
0001
0000
0010
0000
,
1000
0000
0010
0000
,
0001
0000
0010
0000
,
0100
0100
0100
0000
,
1000
0000
0100
0000
,
0001
0000
0100
0000
,
1000
0000
0100
0000
,
0010
0010
0020
0000
,
0000
0000
0030
0000
,
0001
0000
0001
0000
,
0100
0000
0100
0000
,
0010
0010
0010
0000
,
2000
0000
3000
0000
,
0100
0000
0100
0000
,
1000
0000
1000
0000
,
0001
0001
0001
0000
,
0020
0000
0030
0000
,
0001
0000
0100
0000
,
0010
0000
1000
0000
,
0100
0100
0100
0000
,
0002
0000
0003
0000
,
0100
0000
1000
0000
,
0010
0000
0100
0000
,
1000
1000
1000
0000
,
0200
0000
0300
0000
,
0010
0010
0010
0000
,
1001
0000
0000
1000
,
1000
0000
0000
0001
,
0001
0000
0000
0010
,
0010
0000
0100
0000
,
1000
0000
0010
0000
,
0001
0000
0010
0000
,
1000
0000
0010
0000
,
0100
0100
0200
0000
,
0000
0000
0300
0000
,
0001
0000
1000
0000
,
0100
0000
0010
0000
,
0002
0000
1000
0000
,
2003
0000
3010
0000
,
1000
0000
0001
0000
,
0100
0000
0010
0000
,
2000
0000
0001
0000
,
3002
0000
0013
0000
,
0100
0000
0000
0000
;

//---------------dance-single - ----------------
#NOTES:
     dance-single:
     :
     Easy:
     4:
     0.278917,0.359093,0.306262,0.199070,0.000000,255.000000,215.000000,40.000000,26.000000,0.000000,0.000000,0.278917,0.359093,0.306262,0.199070,0.000000,255.000000,215.000000,40.000000,26.000000,0.000000,0.000000:
0000
0000
0000
0000
,
0000
0000
0000
0000
,
0000
0000
0000
0000
,
0000
0000
0000
0000
,
0001
1100
1000
1001
,
1000
0101
0001
1001
,
1000
0010
0100
0001
,
0010
0010
0020
0030
,
1100
0010
0001
0100
,
0101
0010
2000
3001
,
0001
0010
0100
1000
,
0001
0010
0010
1001
,
0101
0010
1000
0100
,
1100
0010
0002
1003
,
1000
0100
2002
3003
,
1000
0010
0010
0110
,
1000
0100
0001
0100
,
1000
1000
0001
0001
,
0010
1000
0010
0001
,
2002
0000
3003
0100
,
0001
0010
1000
0010
,
0001
0001
1000
1000
,
0100
0001
0100
1000
,
2002
0000
3003
0010
,
1000
1010
0010
0110
,
0001
0011
0010
0110
,
1000
0100
0001
0100
,
0010
0010
0020
0030
,
0001
0101
0100
0110
,
1000
1100
0100
0110
,
0001
0010
1000
0010
,
0001
0001
0002
0010
,
1003
1000
2000
0010
,
3001
0000
0010
0000
,
0100
0000
1000
0000
,
0010
0000
0010
0000
,
0200
0000
0300
0000
,
1000
0000
0100
0000
,
0001
0000
0010
0000
,
0001
0000
0001
0000
,
2000
0000
3000
0000
,
0010
1000
0100
0001
,
0100
1000
0010
0100
,
0101
0101
0101
0010
,
0002
1000
1003
0000
,
0010
0001
0100
1000
,
0100
0001
0010
0100
,
1010
1010
1010
0100
,
2000
0001
3001
0000
,
0010
0010
0010
0010
,
1001
0001
0010
0000
,
1001
1000
0100
0000
,
0110
0010
0001
0100
,
0010
1000
0100
0000
,
1000
0101
0001
1100
,
1000
0011
0001
1010
,
1000
0110
0001
0110
,
1000
0010
0200
0001
,
0301
0010
0200
1000
,
2300
0000
3200
0000
,
0320
0000
0032
0000
,
1003
0100
1000
0110
,
0001
0100
0001
0110
,
0002
0000
0203
0000
,
0320
0000
2030
0000
,
3001
0010
0001
1001
,
1000
0100
1000
1001
,
0100
0000
0000
0000
;

//---------------dance-single - ----------------
#NOTES:
     dance-single:
     :
     Medium:
     5:
     0.348920,0.410391,0.068909,0.252666,0.007657,319.000000,310.000000,9.000000,33.000000,0.000000,0.000000,0.348920,0.410391,0.068909,0.252666,0.007657,319.000000,310.000000,9.000000,33.000000,0.000000,0.000000:
0000
0000
0000
0000
,
0000
0000
0000
0000
,
0000
0000
0000
0000
,
0000
0000
0000
0000
,
1000
0000
0010
0100
0010
0000
0000
1000
,
0100
0000
0010
0100
0010
0000
0000
0001
,
0100
0000
0010
0100
0010
0000
1000
0000
,
0001
0100
0001
0100
0001
0020
0000
0030
,
0100
0000
0010
0001
0100
0000
0010
0000
,
0100
0000
0010
1000
0100
0100
0100
0000
,
0010
0000
0100
1000
0010
0000
0100
0000
,
0010
0000
0100
0001
0010
0010
0010
0000
,
0001
0000
1000
0010
0100
0000
0001
0000
,
1000
0000
0010
0100
0001
0001
0001
0000
,
1000
0000
0001
0000
0100
0000
0010
0000
0000
1000
0000
0000
,
0001
0000
0010
0100
1000
1000
1000
0000
,
0002
0023
0230
2300
,
3001
0100
0000
0100
0000
0100
0001
0000
,
2000
3200
0320
0032
,
1003
0010
0000
0010
0000
0010
1000
0000
,
0002
2003
3020
0230
,
0301
1000
0000
1000
0000
1000
0001
0000
,
0020
0230
2300
3002
,
0103
0010
0000
0010
0000
0010
0100
0000
,
0001
0000
0010
0001
0010
0000
0110
0000
,
1000
0000
0010
1000
0010
0000
0110
0000
,
0001
0000
0100
0010
0100
0000
1000
0100
,
0001
1000
0001
1000
0001
0010
0100
0000
,
1000
0000
0001
0100
0001
0000
0110
0000
,
0001
0000
1000
0100
1000
0000
0110
0000
,
1000
0000
0010
0100
0001
0000
0010
0100
,
1000
0010
1000
0010
1000
0001
0100
0000
,
0001
0010
0001
0010
0001
1000
0100
0000
,
1000
0100
0000
0010
0000
0001
0000
0100
,
0000
0010
0000
1000
0000
0001
0000
0000
,
0010
0100
0010
0100
0010
0000
0100
2000
,
0000
0000
0001
0001
0000
0000
3001
0000
,
0001
0100
0000
0010
0000
1000
0000
0100
,
0000
0010
0000
0001
0000
1000
0000
0000
,
0100
0010
0100
0010
0100
0000
0010
0002
,
0000
0000
1000
1000
0000
0000
1003
0000
,
1000
0000
1000
0100
0000
0100
0010
0000
,
0001
0000
0001
0100
0000
0100
0010
0000
,
1000
0001
1000
0001
0010
0000
0010
0200
,
0000
0000
0001
0001
0000
0000
1300
0000
,
0001
0000
0001
0010
0000
0010
0100
0000
,
1000
0000
1000
0010
0000
0010
0100
0000
,
0001
1000
0001
1000
0100
0000
0100
0020
,
0000
0000
1000
1000
0000
0000
0031
0000
,
1000
0001
1000
0001
1000
0001
1000
0001
,
0100
0000
0001
0001
0000
0000
2010
0000
,
3100
0000
1000
1000
0000
0000
0012
0000
,
1003
0000
0010
0010
0000
0000
0110
0000
,
0001
0100
1000
0100
0001
1000
0001
0000
,
1000
0000
0100
1000
0100
0000
0110
0000
,
0001
0000
0100
0001
0100
0000
0110
0000
,
1000
0000
0010
0100
0010
0000
0001
0010
,
1000
0001
1000
0001
1000
0100
0010
0000
,
0010
0100
0010
0100
0010
0001
1000
0000
,
0002
0000
2003
0000
,
3200
0000
0320
0000
,
0032
0000
0100
0100
0000
0000
1000
0000
,
0000
0000
0100
0100
0000
0000
1003
0000
,
2000
0000
3002
0000
,
0023
0000
0230
0000
,
2300
0000
0001
0001
0000
0000
0010
0000
,
0000
0000
0001
0001
0000
0000
3010
0000
,
0100
0000
0000
0000
;
