#TITLE:Arizona Cowboy;
#SUBTITLE:;
#ARTIST:명국환;
#TITLETRANSLIT:;
#SUBTITLETRANSLIT:;
#ARTISTTRANSLIT:Myeong Guk Hwan;
#GENRE:;
#CREDIT:usaminseijin;
#BANNER:[Passport] - Arizona Cowboy.png;
#BACKGROUND:[Passport] - Arizona Cowboy-bg.png;
#LYRICSPATH:[Passport] - Arizona Cowboy.lrc;
#CDTITLE:cdtitle.png;
#MUSIC:[Passport] - Arizona Cowboy.ogg;
#OFFSET:-1.097000;
#SAMPLESTART:19.041000;
#SAMPLELENGTH:11.550000;
#SELECTABLE:YES;
#BPMS:0.000000=103.400002
,4.000000=103.000000
,20.000000=105.000000
,30.000000=102.000000
,32.000000=104.000000
,52.000000=105.199997
,76.000000=104.000000
,84.000000=105.000000
,92.000000=103.900002
,106.000000=102.699997
,108.000000=103.400002
,128.000000=105.000000
,140.000000=104.000000
,148.000000=104.500000
,152.000000=105.199997
,160.000000=105.599998
,184.000000=105.000000
,208.000000=103.000000
,210.000000=98.500000
,214.000000=95.000000
;
#STOPS:
;
#BGCHANGES:;
#KEYSOUNDS:;
#ATTACKS:;

//---------------dance-single - ----------------
#NOTES:
     dance-single:
     :
     Hard:
     8:
     0.482338,0.541109,0.286526,0.108415,0.108415,436.000000,399.000000,37.000000,14.000000,0.000000,0.000000,0.482338,0.541109,0.286526,0.108415,0.108415,436.000000,399.000000,37.000000,14.000000,0.000000,0.000000:
// measure 0
1001
0000
1000
0100
1000
0000
0001
0010
,  // measure 1
0001
0000
1000
0001
1000
0000
1000
0001
,  // measure 2
2000
0000
0010
3010
0200
0000
0001
0301
,  // measure 3
1001
0100
0010
0100
1001
0000
1000
0100
,  // measure 4
2000
0000
0001
3001
0200
0000
0010
0310
,  // measure 5
1001
0100
0010
0100
0001
0000
1000
0100
,  // measure 6
1000
0000
0001
0010
0001
0000
0010
0100
,  // measure 7
0010
0000
1000
0100
1000
0000
0001
0000
1001
0000
0000
0000
1000
0000
0100
0000
,  // measure 8
1000
0000
0010
1000
0010
0000
0100
0001
,  // measure 9
0100
0000
0001
1000
0001
0000
0100
0000
1001
0000
0000
0000
1000
0000
0100
0000
,  // measure 10
1000
0000
0010
0100
0010
0000
1000
0001
,  // measure 11
1000
0010
0100
0010
1000
0001
0000
1000
,  // measure 12
1001
0000
0100
0010
0100
0000
0001
0000
1000
0001
1000
0000
0001
0000
1001
0000
,  // measure 13
1000
1100
0100
0110
0010
0011
0001
1001
,  // measure 14
1000
1010
0010
0110
0100
0101
0001
1001
,  // measure 15
1000
0001
1000
0010
1000
0001
1000
0010
,  // measure 16
1000
0001
0100
0001
1000
0010
0001
0010
,  // measure 17
1000
0001
0100
1000
0100
0002
1000
0013
,  // measure 18
1001
0000
1000
0100
1000
0100
1000
0100
1000
0000
0000
0000
0001
0000
0100
0000
,  // measure 19
0001
0000
1000
0010
1000
0000
0010
0100
,  // measure 20
0010
0000
1000
0010
1000
0000
0001
0000
0100
0000
0000
0000
0010
0000
0100
0000
,  // measure 21
0020
0000
1030
0001
0100
0010
1000
0001
,  // measure 22
0010
0000
0001
1000
0001
0000
1000
0000
0010
0100
0010
0000
1000
0000
0001
0000
,  // measure 23
1000
0100
0001
0100
1000
0002
0000
1003
,  // measure 24
0010
0000
0100
0010
0100
0010
0100
0010
0100
0000
0000
0000
0001
0000
1000
0000
,  // measure 25
0010
0010
0010
0010
1001
1001
0000
0000
,  // measure 26
0100
0010
0100
0000
0010
0000
0100
0000
1001
0000
0000
0000
1000
0000
0100
0000
,  // measure 27
0001
0000
0001
0100
1000
0000
1000
0010
,  // measure 28
0001
0000
0001
0010
1000
0000
1000
0001
,  // measure 29
2000
0000
0100
3100
0020
0000
0001
0031
,  // measure 30
0001
0010
0100
1000
0100
0000
1000
0100
,  // measure 31
0020
0000
0001
0031
2000
0000
0010
0010
,  // measure 32
3010
0100
0001
0100
0010
0000
1000
0001
,  // measure 33
2000
0000
0000
3001
0200
0000
0000
0310
,  // measure 34
1000
0000
0001
0010
0001
0000
1000
0000
1001
0000
0000
0000
0100
0000
1000
0000
,  // measure 35
0010
0000
0100
0001
0010
0000
0001
1000
,  // measure 36
0001
0000
0100
0001
0100
0000
0001
0000
1000
0000
0000
0000
0001
0000
0010
0000
,  // measure 37
0001
0000
0100
1000
0100
0001
0100
1000
,  // measure 38
0100
0001
1000
0001
1001
1001
0000
0010
,  // measure 39
1001
0000
0001
1000
0001
0000
1000
0000
0010
0100
0010
0000
0100
0000
0010
0000
,  // measure 40
1000
1100
0100
0110
0010
0011
0001
1001
,  // measure 41
1000
1010
0010
0110
0100
0101
0001
1001
,  // measure 42
1000
0002
0000
0103
0010
0100
0001
0100
,  // measure 43
0001
1000
0001
1000
0010
0100
0010
0100
,  // measure 44
0001
0010
0100
1000
0100
0010
0001
1000
,  // measure 45
0001
0000
0100
0010
0100
0010
0100
0010
0100
0000
0000
0000
0001
0000
0010
0000
,  // measure 46
0001
0000
1000
0100
1000
0000
0010
0100
,  // measure 47
0010
0000
1000
0100
1000
0000
0010
0000
1000
0000
0000
0000
0001
0000
0100
0000
,  // measure 48
0001
0000
1000
0100
0001
0100
1000
0100
,  // measure 49
0001
0000
1000
0001
1000
0000
0010
0000
0100
0010
0100
0000
1001
0000
1001
0000
,  // measure 50
1000
0100
1000
0010
0100
0001
0000
0100
,  // measure 51
0010
0000
1000
0001
1000
0001
1000
0001
1000
0000
0000
0000
0001
0000
0100
0000
,  // measure 52
0001
0000
1000
0010
1001
1001
0000
0010
,  // measure 53
1000
0100
1000
0000
0001
0000
0010
0000
0001
0000
0000
0000
1001
0000
0000
0000
;

//---------------dance-single - ----------------
#NOTES:
     dance-single:
     :
     Medium:
     5:
     0.380560,0.353802,0.015488,0.123903,0.000000,344.000000,342.000000,2.000000,16.000000,0.000000,0.000000,0.380560,0.353802,0.015488,0.123903,0.000000,344.000000,342.000000,2.000000,16.000000,0.000000,0.000000:
1001
0000
1000
0100
1000
0000
0001
0010
,
0001
0000
1000
0001
1000
0000
1000
0001
,
2000
0000
0000
3010
0200
0000
0000
0301
,
1000
0100
0010
0100
1000
0000
0001
0100
,
0002
0000
0000
1003
0200
0000
0000
0310
,
0001
0100
0010
0100
0001
0000
1000
0100
,
1000
0000
0001
0010
0001
0000
0010
0100
,
0020
0000
0000
0000
0031
0000
1000
0100
,
1000
0000
0010
1000
0010
0000
0100
0001
,
0100
0000
0001
1000
0001
0000
1000
0100
,
1000
0000
0010
0100
0010
0000
1000
0001
,
1000
0010
0100
0010
1000
0001
0000
1000
,
0001
0100
0010
1000
0001
0100
0001
1000
,
0001
0010
0100
1000
0001
0010
0100
1000
,
0001
0100
0010
1000
0001
0100
0010
1000
,
0001
1000
0001
0010
0001
0000
1000
0000
,
0001
1000
0100
1000
0001
0000
1000
0000
,
0001
1000
0100
0001
0100
1000
0100
0001
,
2000
0000
0000
0000
3001
0000
0001
0100
,
0001
0000
1000
0010
1000
0000
0010
0100
,
0010
0000
1000
0010
1000
0000
0010
0100
,
0020
0000
1030
0001
0100
0010
1000
0001
,
0010
0001
1000
0001
0100
0010
1000
0001
,
1000
0100
0001
0100
1000
0002
0000
1003
,
0010
0100
0010
0100
0010
0000
1000
0001
,
0010
0100
0010
0100
1000
0001
0000
0000
,
0100
0010
0100
0010
1000
0000
0001
0100
,
1000
0000
1000
0100
0001
0000
0001
0010
,
1000
0000
1000
0010
0001
0000
0001
1000
,
0002
0000
0000
0103
0020
0000
0000
0031
,
1000
0100
0010
0001
0010
0000
1000
0100
,
0020
0000
0000
0031
2000
0000
0000
3010
,
0010
0100
0001
0100
0010
0000
1000
0001
,
2000
0000
0000
3001
0200
0000
0000
0310
,
1000
0001
0010
0001
1000
0000
0100
1000
,
0010
0000
0100
0001
0010
0000
0001
1000
,
0001
0000
0100
0001
0100
0000
0010
1000
,
0010
0000
1000
0001
0100
0001
1000
0010
,
1000
0001
0010
0100
1000
0001
0000
0010
,
0001
1000
0001
1000
0010
0100
0010
0100
,
0001
0010
0100
1000
0001
0010
0100
1000
,
0001
0100
0010
1000
0001
0100
0010
1000
,
0001
1000
0000
0100
0020
0000
0000
0030
,
0001
1000
0001
2000
0000
0000
0000
3000
,
0001
0010
0100
1000
0100
0010
0001
1000
,
0001
0100
0010
0100
0010
0000
1000
0010
,
1000
0000
0001
0100
0001
0000
0100
0010
,
0100
0000
0001
1000
0001
0000
1000
0100
,
1000
0000
0001
0100
1000
0100
0001
0100
,
0001
1000
0001
0010
0001
0100
0001
1000
,
0001
0100
0001
0100
0010
1000
0000
0100
,
0010
0001
1000
0001
1000
0000
0001
0100
,
0001
0000
1000
0010
1000
0001
0000
0010
,
0001
0100
0001
0010
0001
0000
1001
0000
;

//---------------dance-single - ----------------
#NOTES:
     dance-single:
     :
     Easy:
     3:
     0.251125,0.249743,0.162623,0.046464,0.000000,227.000000,206.000000,21.000000,6.000000,0.000000,0.000000,0.251125,0.249743,0.162623,0.046464,0.000000,227.000000,206.000000,21.000000,6.000000,0.000000,0.000000:
1000
0001
1000
0110
,
0001
1000
0001
0110
,
1000
0010
1000
1001
,
0001
0100
0001
1001
,
1000
0100
0001
0010
,
2002
0000
3003
1000
,
0001
0100
0220
0330
,
2002
3003
1001
1000
,
0001
1000
0010
1000
,
0001
0100
1001
0100
,
0010
0100
0001
1000
,
0001
0100
1000
0100
,
0001
1000
1001
1001
,
0100
0010
1000
0001
,
0100
0001
0010
0001
,
1000
0010
0100
0001
,
1000
0010
0100
0010
,
1000
0100
0001
0100
,
1000
0001
1001
0000
,
1000
0010
0100
0001
,
1000
0100
0010
0001
,
0100
0001
1000
0010
,
1000
0010
0001
0100
,
1000
0001
0100
0010
,
1000
0001
1001
0100
,
0010
0100
0110
0000
,
1000
0001
1001
0000
,
1000
0010
0100
0001
,
1000
0001
0100
0010
,
1000
0100
0010
0001
,
1000
0001
0100
0010
,
1000
0010
0100
0010
,
0100
0001
0010
0001
,
1000
0001
1000
1001
,
0010
0100
0110
0000
,
1000
0001
1000
0010
,
0100
0001
1000
0001
,
0100
0010
1000
0001
,
1000
0100
0001
0100
,
1000
0010
0001
0010
,
1000
0001
0100
0010
,
1000
0001
0100
0010
,
1000
0100
0010
0001
,
1000
0010
0100
0001
,
1000
0100
0001
0010
,
1000
0100
1001
0000
,
0100
0010
1000
0010
,
0100
0001
0010
0001
,
1000
0001
0100
0010
,
1000
0010
0001
0010
,
1000
0100
0001
0100
,
1000
0001
1001
0010
,
0100
0010
0110
0000
,
1000
0001
1000
1001
;

//---------------dance-single - ----------------
#NOTES:
     dance-single:
     :
     Beginner:
     1:
     0.128328,0.145006,0.061952,0.000000,0.000000,116.000000,108.000000,8.000000,0.000000,0.000000,0.000000,0.128328,0.145006,0.061952,0.000000,0.000000,116.000000,108.000000,8.000000,0.000000,0.000000,0.000000:
1000
0000
1000
0000
,
0001
0000
0001
0000
,
1000
0000
1000
0000
,
0001
0000
0001
0000
,
0100
0000
0100
0000
,
0010
0000
0010
0000
,
0100
0000
0010
0000
,
0100
0000
0110
0000
,
1000
0000
1000
0000
,
0001
0000
0001
0000
,
1000
0000
0001
0000
,
0100
0000
0010
0000
,
1000
0000
0001
0000
,
1000
0000
1000
0000
,
0001
0000
0001
0000
,
0100
0000
0100
0000
,
0010
0000
0010
0000
,
1000
0000
0001
0000
,
1000
0000
1001
0000
,
0100
0000
0100
0000
,
0010
0000
0010
0000
,
0100
0000
0100
0000
,
0010
0000
0010
0000
,
1000
0000
1000
0000
,
0001
0000
0001
0000
,
1000
0000
1001
0000
,
0100
0000
0110
0000
,
1000
0000
1000
0000
,
0001
0000
0001
0000
,
1000
0000
1000
0000
,
0001
0000
0001
0000
,
0100
0000
0100
0000
,
0010
0000
0010
0000
,
0100
0000
0010
0000
,
0100
0000
0110
0000
,
1000
0000
1000
0000
,
0001
0000
0001
0000
,
1000
0000
0001
0000
,
0100
0000
0010
0000
,
1000
0000
0001
0000
,
1000
0000
1000
0000
,
0001
0000
0001
0000
,
0100
0000
0100
0000
,
0010
0000
0010
0000
,
1000
0000
0001
0000
,
1000
0000
1001
0000
,
0100
0000
0100
0000
,
0010
0000
0010
0000
,
0100
0000
0100
0000
,
0010
0000
0010
0000
,
1000
0000
1000
0000
,
0001
0000
0001
0000
,
1000
0000
1001
0000
,
0100
0000
0110
0000
;
