#TITLE:Hello, Hello;
#SUBTITLE:;
#ARTIST:Mari Ferrari;
#TITLETRANSLIT:;
#SUBTITLETRANSLIT:;
#ARTISTTRANSLIT:;
#GENRE:Deep House;
#CREDIT:;
#BANNER:hh-bn.png;
#BACKGROUND:hh-bg.png;
#LYRICSPATH:;
#CDTITLE:cdtitle.png;
#MUSIC:hello hello.mp3;
#OFFSET:0.000000;
#SAMPLESTART:32.020000;
#SAMPLELENGTH:12.000000;
#SELECTABLE:YES;
#BPMS:0.000000=60.000000
,48.000000=120.000000
,112.000000=60.000000
,128.000000=120.000000
,160.000000=30.000000
;
#STOPS:
;
#BGCHANGES:;
#KEYSOUNDS:;
#ATTACKS:;

//---------------dance-single - ----------------
#NOTES:
     dance-single:
     :
     Hard:
     7:
     0.342692,0.421020,0.199903,0.016659,0.137434,288.000000,264.000000,24.000000,2.000000,0.000000,0.000000,0.342692,0.421020,0.199903,0.016659,0.137434,288.000000,264.000000,24.000000,2.000000,0.000000,0.000000:
0000
0000
0000
0000
,
0000
0000
0000
0000
,
0000
0000
0000
0000
,
0000
0000
0000
0000
,
1001
0100
0010
0100
1100
0010
0100
0001
,
0011
0100
0100
0010
0011
1000
0100
0010
,
0011
1000
0100
0001
0011
1000
0100
0100
,
0110
0001
0100
1000
0011
0010
0100
0010
,
0011
0000
1000
0100
1000
0100
0100
1000
0000
0000
0010
0001
0010
0001
0001
0010
,
0010
0000
0000
0000
0000
1000
0100
0010
0000
0001
0010
0001
0010
0100
0010
0000
,
0001
0000
0001
1000
0001
1000
1000
0001
0000
0000
0010
0100
0010
0100
0100
0010
,
0000
0000
0000
0000
0000
0100
0010
0001
0000
0010
0100
0010
1000
0010
0100
0000
,
0011
0000
1000
0000
1000
0010
0100
0001
,
0011
0010
0010
0000
0100
1000
0100
0010
,
0011
0100
0100
0000
1000
0100
0010
0001
,
1010
0100
0010
0000
0001
0010
0010
0001
,
0101
0000
1000
0000
0010
0001
0010
0001
,
1010
0100
0010
0000
1000
0100
1000
0100
,
0011
0010
0100
0000
1000
0100
0010
0001
,
1001
0001
0010
0000
0001
0010
0100
1000
,
1100
0000
0010
0001
0010
0001
0001
0010
,
0000
0000
1000
0100
1000
0100
0100
1000
,
0000
0100
0010
0000
0010
0001
0010
0100
,
0000
0100
0010
0001
0010
0100
1000
0000
,
1001
0000
0100
0010
0100
0001
1000
0010
,
0000
0100
0010
1000
0001
0100
0010
0100
,
0000
0010
0100
0000
1000
0100
1000
0001
,
0000
0100
0010
0100
0001
1000
0010
0000
,
0101
0000
0000
0000
1000
0000
0000
0000
0000
0000
0100
0000
0000
0010
0000
0000
0100
0000
0000
0000
0001
0000
0000
0000
0000
0000
0000
0000
1000
0000
0000
0000
,
0010
0000
0000
0000
0100
0000
0000
0000
0000
0000
1000
0000
0000
0001
0000
0000
0100
0000
0000
0000
0010
0000
0000
0000
0000
0000
0000
0000
0100
0000
0000
0000
,
0001
0000
0000
0000
1000
0000
0000
0000
0000
0000
0100
0000
0000
0001
0000
0000
0100
0000
0000
0000
0010
0000
0000
0000
0000
0000
0000
0000
0100
0000
0000
0000
,
0001
0000
0000
0000
1000
0000
0000
0000
0000
0000
0100
0000
0000
0001
0000
0000
0010
0000
0000
0000
0100
0000
0000
0000
0000
0000
0000
0100
0010
0000
0010
0000
,
0101
0000
1000
0010
0100
0001
0010
0001
,
0000
0000
0010
0100
0010
1000
0001
0100
,
0000
0010
0100
0000
0001
1000
0001
0100
,
0000
0010
0010
0100
0001
1000
0010
0000
,
0101
0000
0010
1000
0010
0100
0001
0010
,
0000
0000
0010
1000
0100
0010
0100
0001
,
0000
0100
0010
0000
0100
0010
1000
0001
,
0000
0100
0010
1000
0001
0100
0010
0000
,
0101
0000
0000
2020
0000
0000
0000
3030
0000
0000
0000
0000
0000
0000
0000
0000
;

//---------------dance-single - ----------------
#NOTES:
     dance-single:
     :
     Challenge:
     10:
     0.379578,0.505225,0.199903,0.016659,0.212397,319.000000,295.000000,24.000000,2.000000,0.000000,0.000000,0.379578,0.505225,0.199903,0.016659,0.212397,319.000000,295.000000,24.000000,2.000000,0.000000,0.000000:
0000
0000
0000
0000
,
0000
0000
0000
0000
,
0000
0000
0000
0000
,
0000
0000
0000
0000
,
1001
0000
0100
0001
0010
0000
0100
0000
1100
0001
0010
0001
0100
0000
0001
0000
,
0011
0000
0100
0000
0100
0010
0010
0000
0011
0000
1000
0000
0100
0000
0010
0000
,
0011
0000
1000
0010
0100
0000
0001
0000
0011
0000
1000
0010
0100
0000
0100
0000
,
0110
0000
0001
0000
0100
0100
1000
0000
0011
0000
0010
0000
0100
0000
0010
0000
,
0011
0000
1000
0100
1000
0100
0100
1000
0000
0000
0010
0001
0010
0001
0001
0010
,
0010
0000
0000
0000
0100
0000
0000
0000
0010
0000
0000
0000
0000
0000
0000
1000
0000
0000
0100
0000
0000
0010
0000
0000
0000
0000
0000
0001
0000
0000
0010
0000
0000
0001
0000
0000
0010
0000
0000
0100
0000
0000
0010
0000
0000
0000
0000
0000
,
0001
0000
0001
1000
0001
1000
1000
0001
0000
0100
0010
0100
0010
0100
0100
0010
,
0000
0000
1000
0000
0100
0000
0000
0000
0010
0000
0100
0000
0010
0000
0001
0000
0000
0000
0010
0000
0100
0000
0010
0000
1000
0000
0010
0100
0100
0000
0100
0000
,
0011
0000
1000
0000
1000
0010
0100
0001
,
0011
0010
0010
0000
0100
1000
0100
0010
,
0011
0100
0100
0000
1000
0100
0010
0001
,
1010
0100
0010
0000
0001
0010
0010
0001
,
0101
0000
1000
0000
0010
0001
0010
0001
,
1010
0100
0010
0000
1000
0100
1000
0100
,
0011
0010
0100
0000
1000
0100
0010
0001
,
1001
0001
0010
0000
0001
0010
0100
1000
,
1100
0000
0010
0001
0010
0001
0001
0010
,
0000
0100
1000
0100
1000
0100
0100
1000
,
0000
0100
0010
0000
0010
0001
0010
0100
,
0000
0100
0010
0001
0010
0100
1000
0010
,
1001
0000
0100
0010
0100
0001
1000
0010
,
0000
0100
0010
1000
0001
0100
0010
0100
,
0000
0010
0100
0000
1000
0100
1000
0001
,
0000
0100
0010
0100
0001
1000
0010
0100
,
0101
0000
0000
0000
1000
0000
0000
0000
0000
0000
0100
0000
0000
0010
0000
0000
0100
0000
0000
0000
0001
0000
0000
0000
0100
0000
0000
0000
1000
0000
0000
0000
,
0010
0000
0100
0000
0000
1000
0100
0010
0000
0100
0010
0010
0100
0010
0100
0000
,
0001
0000
0000
0000
1000
0000
0000
0000
0000
0000
0100
0000
0000
0001
0000
0000
0100
0000
0000
0000
0010
0000
0000
0000
0010
0000
0000
0000
0100
0000
0000
0000
,
0001
0000
0000
0000
1000
0000
0000
0000
0000
0000
0100
0000
0001
0000
0100
0000
0000
0000
0010
0000
0100
0000
0010
0000
0001
0000
0000
0100
0010
0000
0010
0000
,
0101
0000
1000
0010
0100
0001
0010
0001
,
0000
1000
0010
0100
0010
1000
0001
0100
,
0000
0010
0100
0000
0001
1000
0001
0100
,
0000
0010
0010
0100
0001
1000
0010
0001
,
0101
0000
0010
1000
0010
0100
0001
0010
,
0000
0100
0010
1000
0100
0010
0100
0001
,
0000
0100
0010
0000
0100
0010
1000
0001
,
0000
0100
0010
1000
0001
0100
0010
0010
,
0101
0000
0000
2020
0000
0000
0000
3030
0000
0000
0000
0000
0000
0000
0000
0000
;

//---------------dance-single - ----------------
#NOTES:
     dance-single:
     :
     Medium:
     4:
     0.305805,0.370498,0.199903,0.041647,0.024988,257.000000,233.000000,24.000000,5.000000,0.000000,0.000000,0.305805,0.370498,0.199903,0.041647,0.024988,257.000000,233.000000,24.000000,5.000000,0.000000,0.000000:
0000
0000
0000
0000
,
0000
0000
0000
0000
,
0000
0000
0000
0000
,
0000
0000
0000
0000
,
1001
0100
0010
0100
1100
0010
0100
0001
,
0011
0100
0100
0010
0011
1000
0100
0010
,
0011
1000
0100
0001
0011
1000
0100
0100
,
0110
0001
0100
1000
0011
0010
0100
0010
,
0011
0000
1000
0000
1000
0000
0200
0000
0000
0300
0010
0000
0010
0000
0001
0000
,
0010
0000
0000
0000
0000
0000
0000
0000
0000
0200
0000
0000
0310
0000
0100
0000
0000
0000
0001
0000
0000
0010
0000
0000
,
0001
0000
1000
0000
0001
0000
2000
0000
0000
3000
0010
0000
0010
0000
0100
0010
,
0000
0000
0000
0000
0000
0100
0010
0001
0000
0010
0100
0000
1000
0000
0000
0000
,
0011
0000
1000
0000
1000
0010
0100
0001
,
0011
0010
0010
0000
0100
1000
0100
0010
,
0011
0100
0100
0000
1000
0100
0010
0001
,
1010
0100
0010
0000
0001
0010
0010
0001
,
0101
0000
1000
0000
0010
0001
0010
0001
,
1010
0100
0010
0000
1000
0100
1000
0100
,
0011
0010
0100
0000
1000
0100
0010
0001
,
1001
0001
0010
0000
0001
0010
0100
1000
,
1100
0000
0010
0000
0010
0001
0001
0010
,
0000
0010
1000
0000
1000
0100
0100
1000
,
0000
0100
0010
0000
0010
0001
0010
0100
,
0000
0100
0010
0000
0010
0100
1000
0010
,
1001
0000
0100
0000
0100
0001
1000
0010
,
0000
0100
0010
0000
0001
0100
0010
0100
,
0000
0010
0100
0000
1000
0100
1000
0001
,
0000
0100
0010
0000
0001
1000
0010
0010
,
0101
1000
0000
0010
0100
0001
0000
1000
,
0010
0100
0000
0001
0100
0010
0000
0100
,
0001
1000
0000
0001
0100
0010
0000
0100
,
0001
1000
0000
0100
0010
0100
0000
0010
,
0101
0000
1000
0000
0100
0001
0010
0001
,
0000
1000
0010
0000
0010
1000
0001
0100
,
0000
0010
0100
0000
0001
1000
0001
0100
,
0000
0010
0010
0000
0001
1000
0010
0000
,
0101
0000
0010
0000
0010
0100
0001
0010
,
0000
0100
0010
0000
0100
0010
0100
0001
,
0000
0100
0010
0000
0100
0010
1000
0001
,
0000
0100
0010
0000
0001
0100
0010
0000
,
0101
0000
0000
2020
0000
0000
0000
3030
0000
0000
0000
0000
0000
0000
0000
0000
;

//---------------dance-single - ----------------
#NOTES:
     dance-single:
     :
     Easy:
     2:
     0.209423,0.252612,0.191574,0.041647,0.008329,176.000000,153.000000,23.000000,5.000000,0.000000,0.000000,0.209423,0.252612,0.191574,0.041647,0.008329,176.000000,153.000000,23.000000,5.000000,0.000000,0.000000:
0000
0000
0000
0000
,
0000
0000
0000
0000
,
0000
0000
0000
0000
,
0000
0000
0000
0000
,
1001
0010
1100
0100
,
0011
0100
0011
0100
,
0011
0100
0011
0100
,
0110
0100
0011
0100
,
0011
0000
0000
0000
1000
0000
0200
0000
0000
0300
0010
0000
0010
0000
0001
0000
,
0000
0000
0000
0200
0310
0000
0001
0010
,
0001
0000
1000
0000
0001
0000
2000
0000
0000
3000
0010
0000
0010
0000
0100
0010
,
0000
1000
0000
0100
0001
0100
1000
0000
,
0011
1000
1000
0100
,
0011
0010
0100
0100
,
0011
0100
1000
0010
,
1010
0010
0001
0010
,
0101
1000
0010
0001
,
1010
0010
1000
0100
,
0011
0100
1000
0010
,
1001
0010
0001
0100
,
1100
0010
0010
0001
,
0100
1000
0001
0100
,
0001
0010
0100
0010
,
1000
0010
0100
1000
,
1001
0100
0100
1000
,
0100
0010
0001
0010
,
0010
0100
1000
1000
,
0100
0010
0001
0010
,
0000
1000
0000
0010
0000
0001
0000
1000
,
0000
0100
0000
0001
0000
0010
0000
0100
,
0000
1000
0000
0001
0000
0010
0000
0100
,
0000
1000
0000
0100
0000
0001
0000
0010
,
0101
1000
0100
0010
,
0100
0010
0010
0001
,
1000
0100
0001
0001
,
0100
0010
0001
0010
,
0101
0010
0010
0001
,
1000
0010
0100
0001
,
0010
0010
0100
1000
,
0100
0010
0001
0010
,
0101
0000
0000
2020
0000
0000
0000
3030
0000
0000
0000
0000
0000
0000
0000
0000
;

//---------------dance-single - ----------------
#NOTES:
     dance-single:
     :
     Beginner:
     1:
     0.154687,0.218931,0.291526,0.049976,0.004165,130.000000,95.000000,35.000000,6.000000,0.000000,0.000000,0.154687,0.218931,0.291526,0.049976,0.004165,130.000000,95.000000,35.000000,6.000000,0.000000,0.000000:
// measure 0
0000
0000
0000
0000
,  // measure 1
0000
0000
0000
0000
,  // measure 2
0000
0000
0000
0000
,  // measure 3
0000
0000
0000
0000
,  // measure 4
1001
0000
1100
0000
,  // measure 5
0011
0000
1100
0000
,  // measure 6
0011
0000
0101
0000
,  // measure 7
0110
0000
1001
0000
,  // measure 8
0011
0000
1000
0000
0010
0000
0200
0000
0000
0300
0010
0000
0001
0000
0010
0000
,  // measure 9
2000
0000
3000
0200
0300
0000
0000
0010
,  // measure 10
0001
0000
1000
0000
0010
0000
2000
0000
0000
3000
0001
0000
0010
0000
0100
0000
,  // measure 11
0000
1000
0000
0100
0000
0010
0000
0100
,  // measure 12
0011
0000
0100
0000
,  // measure 13
0011
0000
0100
0000
,  // measure 14
0011
0000
1000
0000
,  // measure 15
1010
0000
0001
0000
,  // measure 16
0101
0000
0010
0000
,  // measure 17
1010
0000
1000
0000
,  // measure 18
0011
0000
1000
0000
,  // measure 19
1001
0000
0001
0000
,  // measure 20
1100
0000
0010
0000
,  // measure 21
0110
0000
0001
0000
,  // measure 22
0101
0000
0100
0000
,  // measure 23
1100
0000
0100
0000
,  // measure 24
1001
0000
0100
0000
,  // measure 25
0101
0000
0001
0000
,  // measure 26
0011
0000
1000
0000
,  // measure 27
0101
0000
0001
0000
,  // measure 28
0000
1000
0000
0010
0000
0001
0000
1000
,  // measure 29
0000
0100
0000
0001
0000
0010
0000
0100
,  // measure 30
0000
1000
0000
0001
0000
0010
0000
0100
,  // measure 31
0000
1000
0000
0100
0000
0001
0000
0010
,  // measure 32
0101
0000
0100
0000
,  // measure 33
1100
0000
0010
0000
,  // measure 34
1010
0000
0001
0000
,  // measure 35
0110
0000
0001
0000
,  // measure 36
0101
0000
0010
0000
,  // measure 37
1100
0000
0100
0000
,  // measure 38
0011
0000
0100
0000
,  // measure 39
0101
0000
0001
0000
,  // measure 40
0101
0000
0000
2020
0000
0000
0000
3030
0000
0000
0000
0000
0000
0000
0000
0000
;
