#TITLE:Drop FM;
#SUBTITLE:feat. Hannah Diamond;
#ARTIST:A.G. Cook;
#TITLETRANSLIT:;
#SUBTITLETRANSLIT:;
#ARTISTTRANSLIT:;
#GENRE:;
#CREDIT:;
#BANNER:[Girls Week] - Drop FM feat. Hannah Diamond.png;
#BACKGROUND:[Girls Week] - Drop FM feat. Hannah Diamond-bg.jpg;
#LYRICSPATH:;
#CDTITLE:;
#MUSIC:[Girls Week] - Drop FM feat. Hannah Diamond.ogg;
#OFFSET:-0.028624;
#SAMPLESTART:54.867268;
#SAMPLELENGTH:17.142857;
#SELECTABLE:YES;
#BPMS:0.000000=140.014984
;
#STOPS:
;
#BGCHANGES:;
#KEYSOUNDS:;
#ATTACKS:;

//---------------dance-single - ----------------
#NOTES:
     dance-single:
     :
     Hard:
     8:
     0.507161,0.656139,0.521447,0.378585,0.300011,497.000000,424.000000,73.000000,53.000000,20.000000,0.000000,0.507161,0.656139,0.521447,0.378585,0.300011,497.000000,424.000000,73.000000,53.000000,20.000000,0.000000:
0000
0000
0000
0000
,
0000
0000
0000
0000
,
0000
0000
0000
0000
,
0000
0000
0000
0000
,
1000
0000
0000
0010
0000
0000
0100
0000
0000
0010
0000
0000
0001
0000
0000
0010
,
0000
0000
0100
0000
0000
0010
0000
0000
1000
0000
0000
0010
0000
0000
0100
0000
,
0001
0010
1000
0010
0001
0010
1000
0010
,
0001
0000
0000
0010
0000
0011
0000
0000
0001
0000
1000
0000
0000
1010
0000
0000
,
0210
0000
0000
0000
0301
0000
0000
0000
0101
0000
0001
0000
1000
0100
0000
0000
,
1200
0320
0032
2003
,
3001
0100
0001
0000
1000
0010
1000
0000
,
1020
0000
0230
0000
0301
0010
0100
0100
,
1200
0000
0000
0000
1300
0000
0000
0000
1001
0000
0001
0000
0100
0001
0000
0000
,
0201
0320
2030
3002
,
0013
0001
0010
0000
0100
1000
0100
0000
,
1000
0000
0010
0000
0100
0000
0001
0001
,
1000
0100
0001
0100
1000
1000
1000
0000
,
000M
0000
0000
0000
00M0
0000
0000
0000
0M00
0000
0000
0000
0000
M000
0000
0000
0101
0000
0000
0000
0000
0000
0000
0000
1100
0000
0000
0000
0000
0000
0000
0000
,
0120
0000
0000
0000
0031
0000
0000
0000
0011
0000
0001
0000
1000
0010
0000
0000
,
0120
0000
0000
0000
0230
0000
0000
0000
0302
0000
0000
0000
1003
0000
0100
0010
,
0001
0010
1000
0010
0001
0010
0100
0000
,
1100
0101
0220
0330
,
2000
3020
0032
0023
,
2030
0000
0000
0000
0000
0000
0000
0000
3001
0000
0000
0000
0000
0000
0000
0000
M000
0000
0000
0000
0M00
0000
0000
0000
00M0
0000
0000
0000
0000
000M
0000
0000
,
1000
0000
0000
0100
0000
0000
0010
0000
0000
0100
0000
0000
0001
0000
0000
0100
,
0000
0000
0010
0000
0000
0100
0000
0000
1000
0000
0000
0100
0000
0000
0010
0000
,
0010
0001
0010
1000
0010
0001
0010
1000
,
0010
0000
0000
0010
0000
0010
0000
0000
0001
0000
0001
0000
0000
0001
0000
0000
,
1000
0000
0000
0010
0000
0000
0100
0000
0000
0010
0000
0000
0001
0000
0000
0010
,
0000
0000
0100
0000
0000
0010
0000
0000
1000
0000
0000
0010
0000
0000
0100
0000
,
0100
0001
0100
1000
0100
0001
0100
1000
,
0100
0000
0000
0010
0000
0110
0000
0000
1000
0000
0100
0000
0000
0110
0000
0000
,
0011
0000
0001
0000
1000
0000
0000
0000
1010
0000
1000
0000
0001
0010
0000
0000
,
0110
0000
0000
0000
1100
0000
0000
0000
2001
0000
0000
0000
3010
0000
0100
0001
,
0100
0000
0001
0000
0001
0000
0000
0000
1000
0000
1000
0000
0001
1000
0000
0000
,
0002
0000
0000
0000
0023
0000
0000
0000
0230
0000
0000
1300
0000
0001
0100
0010
,
2000
0000
0010
0000
3010
0000
0000
0000
0200
0000
0001
0000
0301
0100
0000
0000
,
0101
1100
1002
0023
,
0130
0010
0110
0000
1000
0001
1001
0000
,
2000
0000
3200
0000
0320
0000
0031
0001
,
1000
0010
0001
1000
0100
0100
0100
0000
,
000M
0000
0000
0000
0M00
0000
0000
0000
00M0
0000
0000
0000
0000
M000
0000
0000
0201
0000
0000
0000
0000
0000
0000
0000
0320
0000
0000
0000
0000
0000
0000
0000
,
1030
0000
0000
0000
1010
0000
0000
0000
1000
0000
0001
0000
0010
0001
0000
0000
,
0011
0000
0000
0000
0110
0000
0000
0000
1100
0000
0000
0000
1000
0000
0100
0010
,
0001
0100
1000
0100
0001
0001
0001
0000
,
0101
1100
2002
3003
,
2000
3200
0302
0203
,
2300
0000
0000
0000
0000
0000
0000
0000
3001
0000
0000
0000
0000
0000
0000
0000
M000
0000
0000
0000
00M0
0000
0000
0000
0M00
0000
0000
0000
0000
000M
0000
0000
,
1000
0000
0000
0010
0000
0000
0001
0000
0000
0010
0000
0000
1000
0000
0000
0010
,
0000
0000
0001
0000
0000
0010
0000
0000
1000
0000
0000
0010
0000
0000
0100
0000
,
0001
0010
0100
0010
1000
0010
0100
0010
,
0001
0000
0000
0010
0000
0011
0000
0000
0001
0000
1000
0000
0000
1010
0000
0000
,
0001
0000
0000
0010
0000
0000
1000
0000
0000
0010
0000
0000
0001
0000
0000
0010
,
0000
0000
1000
0000
0000
0010
0000
0000
0001
0000
0000
0010
0000
0000
0100
0000
,
1000
0010
0100
0010
0001
0010
0100
0010
,
1000
0000
0000
1010
0000
1000
0000
0000
0001
0000
0010
0000
0000
0011
0000
0000
,
0110
0000
0000
1100
0000
0000
1001
0000
0000
0101
0000
0000
0110
0000
0000
1010
,
0000
0000
1001
0000
0000
0011
0000
0000
0110
0000
0000
1100
0000
0000
1001
0000
,
0001
0010
0100
1000
0001
0010
0100
1000
,
0001
0000
0000
0100
0000
0101
0000
0000
0001
0000
1000
0000
0000
1100
0000
0000
,
0110
0000
0000
0011
0000
0000
1001
0000
0000
1010
0000
0000
0110
0000
0000
0101
,
0000
0000
1001
0000
0000
1100
0000
0000
0110
0000
0000
0011
0000
0000
1001
0000
,
1000
0010
0100
0001
1000
0010
0100
0001
,
1000
0000
0000
0010
0000
1010
0000
0000
1000
0000
0001
0000
0000
0011
0000
0000
,
0010
0100
1000
0001
0100
0100
0100
0000
,
0010
0000
0000
0010
0000
0000
0100
0000
0020
0000
0000
0000
2030
0000
0000
0000
,
3001
0000
0000
0000
0010
0000
0000
0010
0100
0000
1000
0000
0001
0000
0000
0000
,
1000
0000
0010
0000
0001
0000
0010
1000
,
0001
0100
1000
0100
0010
0010
0010
0000
,
2000
3020
0230
0300
,
0002
0023
2030
3020
,
0032
0000
0000
0000
0000
0000
0000
0000
1003
0000
0000
0000
0000
0000
0000
0000
000M
0000
0000
0000
0M00
0000
0000
0000
00M0
0000
0000
0000
0000
M000
0000
0000
,
0001
0000
0001
0000
0000
0000
0000
0000
0010
0000
0010
0000
0100
0010
0000
0000
,
0110
0000
0000
0000
1100
0000
0000
0000
1001
0000
0000
0000
1000
0000
0001
0100
,
0010
0000
1000
0000
1000
0000
0000
0000
0001
0000
0001
0000
0000
0100
0000
0000
,
0100
0000
0000
0000
0000
0000
0000
0000
0010
0000
0000
1000
0000
0001
1000
0001
,
0010
0000
0010
0000
0000
0000
0000
0000
0100
0000
0100
0000
1000
0100
0000
0000
,
1100
0110
0011
0000
,
0001
0000
0100
0000
0000
0000
0010
0000
1000
0000
1000
0000
0000
1000
0000
0000
,
0001
0000
1000
0000
0100
0000
0010
0010
;

//---------------dance-single - ----------------
#NOTES:
     dance-single:
     :
     Medium:
     7:
     0.379605,0.427917,0.100004,0.164292,0.125004,372.000000,358.000000,14.000000,23.000000,0.000000,0.000000,0.379605,0.427917,0.100004,0.164292,0.125004,372.000000,358.000000,14.000000,23.000000,0.000000,0.000000:
0000
0000
0000
0000
,
0000
0000
0000
0000
,
0000
0000
0000
0000
,
0000
0000
0000
0000
,
1000
1000
0010
0010
,
0100
0100
0001
0001
,
1000
0001
1000
0001
1000
0001
1000
0001
,
0010
0000
0000
0100
0000
0010
0000
0000
0001
0000
1000
0000
0000
0010
0000
0000
,
0100
0000
0001
0000
1000
0001
1000
0000
,
0100
0000
0010
0000
0002
0000
0003
0010
,
0001
0001
0100
0000
0010
0010
1000
0000
,
0001
0000
0100
0000
0010
1000
0001
0001
,
0010
0000
0100
0000
1000
0100
1000
0000
,
0001
0100
0020
0030
,
1000
0000
0010
1000
0001
0000
1000
0001
,
0010
0000
0100
0000
1000
0000
0001
0001
,
0010
0100
0010
0100
1000
0001
1000
0000
,
2002
3003
0002
0203
,
0310
0000
0110
0000
0010
1000
0001
0000
,
0010
0010
0100
0110
,
0100
0010
0001
1000
0010
0100
0010
0000
,
0200
0302
2003
3000
,
0100
0100
0010
0010
,
0001
0001
2002
3003
,
1000
0000
0000
0010
0000
0000
1000
0000
0000
0010
0000
0000
1000
0000
0000
0010
,
0000
0000
1000
0000
0000
0010
0000
0000
1000
0000
0000
0010
0000
0000
1000
0000
,
0001
0100
0001
0100
0001
0100
0001
0100
,
0001
0100
1000
0100
,
0001
0000
0000
0010
0000
0000
0001
0000
0000
0010
0000
0000
0001
0000
0000
0010
,
0000
0000
0001
0000
0000
0010
0000
0000
0001
0000
0000
0010
0000
0000
0001
0000
,
1000
0100
1000
0100
1000
0100
1000
0100
,
1000
0000
0000
0001
0000
1000
0000
0000
0010
0000
0100
0000
0000
0010
0000
0000
,
0100
0000
0001
0000
1000
0001
1000
0000
,
0100
0010
0001
1000
,
0001
0100
1000
0000
1000
0100
0001
0000
,
0100
0000
0010
0000
1000
0000
0001
1000
,
0001
0000
0010
0000
0100
0010
0100
0000
,
1000
0100
0020
0030
,
0001
0010
1000
0000
1000
0010
0001
0000
,
1000
0000
0010
0000
0100
0000
0001
0001
,
1000
0010
0100
0100
0001
1000
0001
0000
,
2002
3003
1000
0100
,
0010
0000
0010
0000
0001
0000
0001
0010
,
0001
0000
0001
0000
1000
0000
1000
0010
,
1000
1000
0010
0010
0100
0010
0100
0000
,
0001
0010
0200
0300
,
0010
0010
0100
0100
,
1000
1000
2002
3003
,
0001
0001
0000
0100
0000
0010
0010
0000
,
1010
0000
1010
0000
1010
0000
0000
0010
,
1000
0000
0001
0000
0010
0000
0100
0100
,
1000
0000
0000
1000
0000
1000
0000
0000
0001
0000
0001
0000
0000
0001
0000
0000
,
0100
0100
0000
0001
0000
0010
0010
0000
,
0011
0011
0011
0000
,
0010
0010
0000
0100
0100
0100
0000
1000
,
1000
0000
0001
0000
0100
0000
0010
0010
,
1000
0000
0000
0100
0000
0000
0010
0000
0000
0001
0000
0000
1000
0000
0000
0100
,
0000
0000
0010
0000
0000
0001
0000
0000
1000
0000
0000
0100
0000
0000
0010
0000
,
0001
0010
1000
0010
,
0001
0000
0000
0001
0000
0001
0000
0000
1000
0000
1000
0000
0000
1000
0000
0000
,
0001
0000
0000
0100
0000
0000
0010
0000
0000
1000
0000
0000
0001
0000
0000
0100
,
0000
0000
0010
0000
0000
1000
0000
0000
0001
0000
0000
0100
0000
0000
0010
0000
,
1000
0010
0001
0010
,
1000
0000
0000
1000
0000
1000
0000
0000
0001
0000
0001
0000
0000
0001
0000
0000
,
2002
0000
0000
3003
,
0000
0000
0000
0000
,
1000
0100
0010
0010
,
0001
0100
0010
0000
,
1000
0010
0001
0010
,
1000
1000
1000
0000
,
0001
0001
0010
0010
,
0100
0100
2002
3003
,
1000
0010
0000
0000
1000
0001
0000
0000
,
1000
0001
0010
0000
,
0001
0010
0001
0000
1000
0001
1000
0000
,
0020
0030
0200
0300
,
0001
0010
0000
0000
0001
1000
0000
0000
,
0001
1000
0010
0000
,
1000
0010
1000
0000
0001
1000
0001
0000
,
0010
0000
0100
0000
1000
0000
0001
0001
;

//---------------dance-single - ----------------
#NOTES:
     dance-single:
     :
     Easy:
     4:
     0.208171,0.283939,0.042859,0.100004,0.000000,204.000000,198.000000,6.000000,14.000000,0.000000,0.000000,0.208171,0.283939,0.042859,0.100004,0.000000,204.000000,198.000000,6.000000,14.000000,0.000000,0.000000:
0000
0000
0000
0000
,
0000
0000
0000
0000
,
0000
0000
0000
0000
,
0000
0000
0000
0000
,
0000
0001
0000
0001
,
0000
0001
0000
0001
,
0100
0100
0100
0100
,
0020
0030
2002
3003
,
1000
0000
0100
0100
,
0010
0001
0010
0000
,
0001
0000
0100
0100
,
0010
1000
0010
0000
,
1000
0000
0001
0001
,
0010
0100
0010
0000
,
0100
0000
0100
0000
,
1000
1000
0001
0001
,
1000
0010
0100
0100
,
0000
0000
0001
1000
,
0001
0001
0010
0010
,
1000
0010
0001
0000
,
1000
0010
0001
0010
,
1000
0010
0100
0000
,
0001
0001
1000
1000
,
0001
0001
0000
0000
,
2002
0000
0000
0000
,
0000
0000
0000
3003
,
1000
0001
1000
0001
,
0010
0010
0100
0100
,
0220
0000
0000
0000
,
0000
0000
0000
0330
,
0010
0100
0010
0100
,
2000
3000
2002
3003
,
0001
0000
0100
0100
,
0010
0010
0010
0000
,
1000
0000
1000
0000
,
0001
1000
0001
0000
,
0010
0000
0010
0010
,
0100
0100
0100
0000
,
1000
0000
0001
0000
,
0100
0010
0100
0100
,
0010
0100
0001
0001
,
0000
0000
1000
1000
,
0001
0010
0100
0010
,
1000
0010
0001
0000
,
1000
0100
0001
0100
,
1000
0001
1000
0000
,
0001
0001
0100
0100
,
0010
0010
0000
0000
,
1000
0000
0010
0010
,
1000
0001
1000
0000
,
0100
0100
0010
0010
,
0001
0000
1000
0000
,
0010
0000
0100
0100
,
0001
1000
0001
0000
,
0010
0000
0010
0000
,
0100
0100
0100
0000
,
2200
0000
0000
0000
,
0000
0000
0000
3300
,
1000
0100
1000
0100
,
0010
0000
0010
0000
,
0202
0000
0000
0000
,
0000
0000
0000
0303
,
0001
0100
0001
0100
,
0010
0000
0010
0000
,
1000
1000
1000
1000
,
0000
0000
0000
0000
,
0001
0000
0001
0000
,
1000
1000
1000
0000
,
0100
0100
0100
0000
,
0010
0000
0010
0000
,
0001
0000
1000
0000
,
0001
0000
0000
0000
,
0100
0000
0100
0000
,
0100
0100
0100
0000
,
0010
0010
0010
0000
,
0010
0000
0000
0000
,
1000
0000
1000
0000
,
1000
1000
1000
0000
,
0001
0000
0001
0000
,
0001
0001
0001
0000
;

//---------------dance-single - ----------------
#NOTES:
     dance-single:
     :
     Beginner:
     1:
     0.075513,0.111433,0.000000,0.000000,0.000000,74.000000,74.000000,0.000000,0.000000,0.000000,0.000000,0.075513,0.111433,0.000000,0.000000,0.000000,74.000000,74.000000,0.000000,0.000000,0.000000,0.000000:
0000
0000
0000
0000
,
0000
0000
0000
0000
,
0000
0000
0000
0000
,
0000
0000
0000
0000
,
0000
0000
0000
0000
,
0000
0000
0000
0000
,
0000
0000
0000
0000
,
0000
0000
0000
0000
,
1000
0000
0000
0000
,
1000
0000
1000
0000
,
0100
0000
0000
0000
,
0100
0000
0100
0000
,
0010
0000
0000
0000
,
0010
0000
0010
0000
,
0001
0000
0000
0000
,
0001
0000
0001
0000
,
1000
0000
0000
0000
,
0000
0000
0000
0000
,
0001
0000
0001
0000
,
0001
0000
0000
0000
,
0100
0000
0000
0000
,
0100
0000
0000
0000
,
0010
0000
0010
0000
,
0010
0000
0000
0000
,
1000
0000
0000
0000
,
0000
0000
0000
0000
,
1000
0000
0000
0000
,
1000
0000
0000
0000
,
0001
0000
0000
0000
,
0000
0000
0000
0000
,
0001
0000
0000
0000
,
0001
0000
0000
0000
,
0010
0000
0000
0000
,
0010
0000
0010
0000
,
0100
0000
0000
0000
,
0100
0000
0100
0000
,
1000
0000
0000
0000
,
1000
0000
1000
0000
,
0001
0000
0000
0000
,
0001
0000
0000
0000
,
0100
0100
0100
0000
,
0000
0000
0000
0000
,
0010
0000
0000
0000
,
0010
0000
0000
0000
,
1000
0000
1000
0000
,
1000
0000
0000
0000
,
0001
0000
0001
0000
,
0001
0000
0000
0000
,
0010
0000
0000
0000
,
0000
0000
0000
0000
,
0010
0000
0000
0000
,
0010
0000
0000
0000
,
0100
0000
0000
0000
,
0000
0000
0000
0000
,
0100
0000
0000
0000
,
0100
0000
0000
0000
,
1000
0000
0000
0000
,
0000
0000
0000
0000
,
0001
0000
0000
0000
,
0001
0000
0000
0000
,
0001
0000
0000
0000
,
0000
0000
0000
0000
,
1000
0000
0000
0000
,
1000
0000
0000
0000
,
1000
0000
0000
0000
,
0000
0000
0000
0000
,
0010
0000
0000
0000
,
0010
0000
0000
0000
,
0100
0000
0000
0000
,
0001
0000
0000
0000
,
1000
0000
0000
0000
,
1000
0000
0000
0000
,
0100
0000
0000
0000
,
0100
0000
0000
0000
,
0010
0000
0000
0000
,
0000
0000
0000
0000
,
0001
0000
0000
0000
,
0001
0000
0000
0000
,
1000
0000
0000
0000
;
