#TITLE:Valkyrie;
#SUBTITLE:;
#ARTIST:Savant;
#TITLETRANSLIT:;
#SUBTITLETRANSLIT:;
#ARTISTTRANSLIT:;
#GENRE:Electro House;
#CREDIT:www.youtube.com/watch?v=DMXvDaXCOFo;
#BANNER:Valkyrie.png;
#BACKGROUND:Valkyrie-bg.png;
#LYRICSPATH:;
#CDTITLE:cuzco.png;
#MUSIC:Valkyrie.ogg;
#OFFSET:0.000000;
#SAMPLESTART:68.570984;
#SAMPLELENGTH:12.000000;
#SELECTABLE:YES;
#DISPLAYBPM:63.000000:126.000000;
#BPMS:0.000000=62.999996
,16.000000=125.999992
,46.000000=251.999985
,46.250000=125.999992
,46.375000=62.999996
,46.500000=125.999992
,47.000000=84.000000
,47.333332=168.000000
,48.000000=125.999992
,76.000000=84.000000
,76.666664=125.999992
,78.000000=189.000000
,79.000000=125.999992
,112.000000=62.999996
,112.500000=31.499998
,112.875000=15.749999
,113.000000=31.499998
,113.125000=62.999996
,113.250000=125.999992
,113.500000=251.999985
,113.625000=125.999992
,113.687500=62.999996
,113.875000=31.499998
,114.000000=125.999992
,117.250000=94.500000
,117.625000=31.499998
,117.750000=62.999996
,118.000000=125.999992
,122.000000=84.000000
,122.166664=168.000000
,122.500000=84.000000
,122.583336=168.000000
,122.916664=84.000000
,123.166664=125.999992
,123.416664=251.999985
,123.750000=125.999992
,123.916664=62.999996
,124.000000=125.999992
,126.000000=94.500000
,126.250000=189.000000
,126.875000=62.999996
,127.000000=94.500000
,127.250000=189.000000
,127.500000=125.999992
,127.625000=94.500000
,127.687500=189.000000
,127.937500=62.999996
,128.125000=189.000000
,128.500000=125.999992
,130.500000=189.000000
,130.875000=62.999996
,131.000000=125.999992
,132.500000=94.500000
,132.625000=189.000000
,132.875000=94.500000
,133.000000=189.000000
,133.062500=94.500000
,133.125000=125.999992
,133.250000=62.999996
,133.312500=189.000000
,133.500000=251.999985
,133.750000=125.999992
,133.875000=62.999996
,134.000000=125.999992
,138.000000=84.000000
,138.166672=168.000000
,138.500000=84.000000
,138.583328=168.000000
,138.916672=84.000000
,139.166672=125.999992
,139.416672=251.999985
,139.750000=125.999992
,139.916672=62.999996
,140.000000=125.999992
,142.000000=94.500000
,142.250000=189.000000
,142.875000=62.999996
,143.000000=94.500000
,143.250000=189.000000
,143.500000=125.999992
,143.625000=94.500000
,143.687500=189.000000
,143.937500=62.999996
,144.125000=189.000000
,144.500000=125.999992
,146.000000=189.000000
,146.125000=94.500000
,146.375000=189.000000
,146.875000=62.999996
,147.000000=125.999992
,148.000000=503.999969
,148.500000=251.999985
,148.750000=125.999992
,149.000000=62.999996
,149.125000=31.499998
,149.312500=62.999996
,149.375000=125.999992
,149.500000=168.000000
,149.666672=336.000000
,150.000000=189.000000
,150.125000=94.500000
,150.250000=62.999996
,150.375000=189.000000
,150.750000=125.999992
,151.000000=94.500000
,151.250000=189.000000
,151.500000=125.999992
,154.000000=168.000000
,154.166672=84.000000
,154.250000=125.999992
,154.500000=189.000000
,154.625000=94.500000
,154.750000=62.999996
,154.812500=189.000000
,155.187500=125.999992
,155.437500=62.999996
,155.500000=84.000000
,155.583328=168.000000
,155.916672=84.000000
,156.000000=62.999996
,156.062500=125.999992
,156.312500=189.000000
,156.500000=125.999992
,158.000000=62.999996
,158.125000=189.000000
,158.625000=94.500000
,158.750000=62.999996
,158.875000=125.999992
,159.000000=251.999985
,159.250000=189.000000
,159.375000=94.500000
,159.500000=62.999996
,159.562500=189.000000
,159.937500=62.999996
,160.000000=125.999992
,160.250000=62.999996
,160.312500=189.000000
,160.500000=125.999992
,162.500000=189.000000
,162.687500=62.999996
,162.875000=189.000000
,163.437500=62.999996
,163.500000=125.999992
,165.000000=378.000000
,165.750000=125.999992
,167.500000=189.000000
,167.875000=62.999996
,168.000000=125.999992
,169.500000=62.999996
,169.625000=189.000000
,170.000000=125.999992
,170.250000=251.999985
,170.500000=125.999992
,170.750000=251.999985
,171.000000=125.999992
,171.250000=251.999985
,171.500000=125.999992
,171.750000=251.999985
,172.250000=125.999992
,172.375000=62.999996
,172.500000=189.000000
,172.625000=94.500000
,172.750000=125.999992
,174.000000=94.500000
,174.250000=189.000000
,174.875000=62.999996
,175.000000=94.500000
,175.250000=189.000000
,175.500000=125.999992
,175.625000=94.500000
,175.687500=189.000000
,175.937500=62.999996
,176.125000=189.000000
,176.500000=125.999992
,177.500000=251.999985
,177.750000=125.999992
,177.875000=62.999996
,178.000000=125.999992
,181.000000=62.999996
,181.125000=125.999992
,181.250000=251.999985
,181.500000=189.000000
,181.687500=125.999992
,181.937500=62.999996
,182.000000=125.999992
,214.000000=62.999996
,222.000000=125.999992
;
#STOPS:113.000000=1.191000,
114.000000=0.120000,
114.250000=0.118000,
114.500000=0.119000,
114.750000=0.060000,
114.875000=0.119000,
115.125000=0.059000,
115.250000=0.060000,
115.375000=0.119000,
115.625000=0.059000,
115.750000=0.060000,
115.875000=0.059000,
116.000000=0.119000,
116.250000=0.119000,
116.500000=0.119000,
116.750000=0.060000,
116.875000=0.060000,
117.000000=0.060000,
117.125000=0.059000,
165.000000=0.238000,
170.000000=0.059000,
170.500000=0.060000,
171.000000=0.060000,
171.500000=0.059000
;
#BGCHANGES:;
#KEYSOUNDS:;
#ATTACKS:;

//---------------dance-single - C 11 X 16----------------
#NOTES:
     dance-single:
     C 11 X 16:
     Challenge:
     11:
     0.592436,0.824113,0.242164,0.582707,0.590274,548.000000,516.000000,32.000000,77.000000,36.000000,0.000000,0.592436,0.824113,0.242164,0.582707,0.590274,548.000000,516.000000,32.000000,77.000000,36.000000,0.000000:
// measure 0
0000
0000
0000
0000
,  // measure 1
0000
0000
0000
0000
,  // measure 2
0000
0000
0000
0001
0000
0000
1000
0000
0000
0100
0000
0000
0010
0000
0000
0001
0000
0000
1000
0000
0000
0002
0000
0000
0000
0000
0000
0010
0000
0000
0000
0000
0000
1003
0000
0000
0000
0000
0001
1000
0000
0000
0001
0000
0000
0020
0000
0000
,  // measure 3
0000
0001
0000
0100
0000
0031
1000
0100
1000
0001
0010
1000
0010
0002
1003
1010
,  // measure 4
1000
0010
0100
0010
1000
0100
0010
0002
,  // measure 5
1000
0000
0100
0000
1003
0010
0100
0002
,  // measure 6
0010
0000
1000
0000
0013
0100
1000
0002
,  // measure 7
1000
0000
0000
1003
0000
0000
0001
0010
0100
1000
0000
0000
0001
0000
0000
1000
0000
0000
0010
0000
0000
1000
0000
0000
,  // measure 8
0001
0100
0010
0100
0001
1000
0001
0200
,  // measure 9
1000
0000
0301
2000
0100
3100
1000
0020
,  // measure 10
0100
0000
0130
0010
0100
0000
0002
0000
0010
0000
0013
0000
0100
0000
0002
0000
,  // measure 11
0100
0000
0000
0000
0000
0000
0103
0000
0000
0000
0000
0000
1000
0000
0000
0000
0000
0000
0001
0000
0000
0000
0000
0000
2002
0000
0000
0000
0000
0000
0000
0000
0000
00M0
0000
0000
3M03
0000
0000
0000
M00M
0000
0000
0000
0000
0000
0000
0000
,  // measure 12
2001
0000
0000
3100
0010
0001
1000
0000
2000
3001
0000
0000
0200
0000
0000
0301
0000
0000
1000
0000
0000
0200
0000
0000
,  // measure 13
1300
0000
0000
1000
0000
0001
0010
0000
0200
0310
0000
0000
0002
0000
0000
1003
0000
0010
0100
0000
0000
0002
0000
0000
,  // measure 14
1003
0000
0000
0010
1000
0001
0100
0000
0020
0130
0000
0000
0002
0000
0000
0023
0030
0000
0100
0000
0000
0020
0000
0000
,  // measure 15
0031
0000
0000
0000
0000
0000
0001
0000
0000
0000
1000
0000
0010
0000
0000
0000
2000
0000
3001
0000
0000
0000
0000
0000
0200
0000
0000
0300
0000
0000
0002
0000
0000
1003
0000
0000
0002
0000
0000
0003
0000
0000
2000
0000
0000
3000
0000
0000
,  // measure 16
1000
0000
0000
0000
0000
0000
0001
0000
1000
0000
0010
0000
0100
0000
0000
0000
0200
0000
0301
0000
0000
0000
0000
0001
0200
0000
0000
0000
0000
0000
0301
0000
0000
0000
0000
0000
1000
0000
0000
0000
0000
0000
0200
0000
0000
0000
0000
0000
,  // measure 17
0310
0000
0000
0000
0000
0000
0100
0000
0000
0000
1000
0000
0100
0000
0000
0000
0020
0000
0031
0000
0000
0000
0000
0000
2000
0001
0000
0000
0000
0000
3M01
0000
0000
0000
0010
0000
010M
0000
0000
0000
0000
0000
M001
0000
0000
0000
0000
0000
,  // measure 18
02M0
0000
0000
0000
0000
0000
0000
0000
0000
0000
0000
0000
0000
0000
0000
0000
0300
0000
01M0
2000
0000
0000
0000
0000
0000
0000
0000
0000
0000
0000
0000
0000
0000
0000
0000
0000
00M2
0000
0000
0000
0000
0000
0000
0000
0000
0000
0000
0000
,  // measure 19
0000
0000
0000
0000
3003
0000
1010
1000
,  // measure 20
0001
0000
0010
0000
0100
0000
0010
0002
1000
0000
0000
0000
0103
0000
0001
0000
,  // measure 21
0010
0000
0100
0000
1000
0000
0001
0020
0100
0000
0030
0000
0110
0000
0100
0010
,  // measure 22
0002
0000
0000
0000
1000
0000
0000
0000
0203
0000
0000
0000
0010
0000
0000
0302
,  // measure 23
1000
0000
1000
0000
0023
0030
0110
0100
,  // measure 24
0020
0100
0032
0100
,  // measure 25
2003
0000
0001
0000
3200
0000
0310
0110
,  // measure 26
0020
0000
0000
0000
1000
0000
0000
0000
0100
0000
0000
0000
0031
0000
0000
1000
,  // measure 27
0020
0000
0001
0000
0100
0000
1030
1010
,  // measure 28
0000
0000
0000
0000
M0M0
0000
0000
0000
0000
0000
0000
0000
1001
0000
0000
0000
0001
0000
0010
0000
0010
0000
0001
0010
0000
0001
1000
0100
0000
0100
1000
0001
,  // measure 29
1000
0000
0010
0000
0010
0000
1000
0010
1000
0000
2002
0000
3003
0000
0012
0000
1003
0000
0000
0000
0010
0000
0000
0000
0001
0000
0000
0000
0010
0000
0000
0000
,  // measure 30
1000
0000
0100
0000
0010
0000
1000
0000
0020
0000
0031
0010
0002
0000
0000
0000
,  // measure 31
1003
1010
1001
1000
0200
0302
0103
0020
,  // measure 32
0031
0000
0000
1001
0000
0000
1100
0000
0000
1000
0000
0000
0010
0000
0000
0200
0000
0000
0310
1000
0001
0100
0000
0000
,  // measure 33
1000
0200
0301
0M0M
1010
1000
0010
1000
,  // measure 34
0100
0000
0001
0000
0100
0000
0010
0000
0002
0000
1003
0010
2000
0000
0000
0000
,  // measure 35
3001
0101
1010
0001
0100
2000
3100
0020
,  // measure 36
1030
1001
0011
1000
0200
0301
0100
1000
,  // measure 37
2002
0000
0000
0000
0003
0000
0000
0000
3001
0010
0000
0001
1000
0000
1000
0010
,  // measure 38
0100
0000
0001
0000
1000
0000
0010
0000
0100
0010
0100
0010
0200
0000
0301
1000
,  // measure 39
0020
0030
1010
0000
1001
0000
1000
0000
0100
0000
MM10
0001
00MM
0010
0001
1000
,  // measure 40
0001
1000
0100
0000
0010
0000
1000
0000
0010
0000
0100
0010
0000
0100
1000
0000
,  // measure 41
0010
0000
0000
0000
0000
0000
0100
0000
0000
0000
0000
0000
0102
M0M0
0000
0000
0000
0000
0000
0000
0000
0000
0000
0000
0103
0000
0000
0000
0000
0000
0001
0000
0000
0000
0000
0000
0010
0000
0000
0000
0000
0000
0200
0000
0000
0000
0000
0000
,  // measure 42
1300
0010
0001
0M10
M11M
1M1M
1MM1
MM11
,  // measure 43
M21M
0000
0000
0310
0000
0000
0001
0010
0100
1000
0000
0000
0010
0000
0000
0002
0000
0000
0013
0000
0000
0200
0000
0000
,  // measure 44
0301
0000
0000
0000
0000
0000
1000
0000
0000
0000
0000
0000
0010
0000
1000
0000
0001
0000
0100
0000
0000
0000
0000
0000
0010
0000
0000
0001
0000
0000
0010
0000
0000
0000
0000
0000
1000
0000
0000
0010
0000
0000
1000
0000
0000
0000
0000
0000
,  // measure 45
0001
0000
0000
0000
0000
0000
0000
0000
0000
0000
0000
0000
0000
0000
0000
0000
0000
0000
0000
0000
0000
0000
0000
0000
0010
0000
0000
0000
0000
0000
0000
0000
0000
0000
0000
0000
0000
0000
0000
0000
0000
0000
0000
0000
0000
0000
0000
0000
0010
0000
0000
0000
0000
0000
0000
0000
0000
0000
0000
0000
0000
0000
0000
0000
0000
0000
0000
0000
0000
0000
0000
0000
0000
0000
0000
0000
0000
0000
000M
0000
0000
0000
0000
0000
M0M0
0000
0000
0000
0000
0000
0M00
0000
0000
0000
0000
0000
0001
0000
0000
0000
0000
0000
0000
0000
0000
0000
0000
0000
0000
0000
0000
0000
0000
0000
0000
0000
0000
0000
0000
0000
0010
0000
0000
0000
0000
0000
0000
0000
0000
0000
0000
0000
0000
0000
0000
0000
0000
0000
0000
0000
0000
0000
0000
0000
0100
0000
0000
0000
0000
0000
0000
0000
0000
0000
0000
0000
0000
0000
0000
0000
0000
0000
0000
0000
0000
0000
0000
0000
0010
0000
0000
0000
0000
0000
0000
0000
0000
0000
0000
0000
0000
0000
0100
0000
0000
0000
0000
0000
0000
0000
0000
0000
,  // measure 46
0000
0000
0000
0000
0000
0000
0000
0000
0000
0000
0000
0000
0000
0000
1000
0000
0000
0000
0000
0000
0000
0000
0000
0000
0000
0000
0000
0000
0000
0000
0000
0000
0000
0000
0000
0000
0000
0000
0001
0000
0000
0000
0000
0000
0000
0000
0000
0000
0000
0000
0000
0000
0000
0000
0000
0000
0000
0000
0000
0000
0000
0000
0010
0000
0000
0000
0000
0000
0000
0000
0000
0000
0000
0000
0000
0000
0000
0000
0000
0000
0000
0000
0000
0000
0000
0000
0001
0000
0000
0000
0000
0000
0000
0000
0000
0000
1000
0000
0000
0000
0000
0000
0000
0000
0000
0000
0000
0000
0000
0000
0000
0000
0000
0000
0000
0000
0000
0000
0000
0000
0010
0000
0000
0000
0000
0000
0000
0000
0000
0000
0000
0000
0000
0000
0000
0000
0000
0000
0000
0000
0000
0000
0000
0000
0001
0000
0000
0000
0000
0000
0000
0000
0000
0000
0000
0000
0000
0000
0000
0000
0000
0000
0000
0000
0000
0000
0000
0000
0010
0000
0000
0000
0000
0000
0000
0000
0000
0000
0000
0000
0000
0000
1000
0000
0000
0000
0000
0000
0000
0000
0000
0000
,  // measure 47
0000
0000
0000
0000
0000
0000
0000
0000
0000
0000
0000
0000
0000
0000
0100
0000
0000
0000
0000
0000
0000
0000
0000
0000
0000
0000
0000
0000
0000
0000
0000
0000
0000
0000
0000
0000
0000
0000
1000
0000
0000
0000
0000
0000
0000
0000
0000
0000
0000
0000
0000
0000
0000
0000
0000
0000
0000
0000
0000
0000
0000
0000
0100
0000
0000
0000
0000
0000
0000
0000
0000
0000
0000
0000
0000
0000
0000
0000
0000
0000
0000
0000
0000
0000
0000
0000
1000
0000
0000
0000
0000
0000
0000
0000
0000
0000
0001
0000
0000
0000
0000
0000
0000
0000
0000
0000
0000
0000
0000
0000
0000
0000
0000
0000
0000
0000
0000
0000
0000
0000
0100
0000
0000
0000
0000
0000
0000
0000
0000
0000
0000
0000
0000
0000
0000
0000
0000
0000
0000
0000
0000
0000
0000
0000
0010
0000
0000
0000
0000
0000
0000
0000
0000
0000
0000
0000
0000
0000
0000
0000
0000
0000
0000
0000
0000
0000
0000
0000
0100
0000
0000
0000
0000
0000
0000
0000
0000
0000
0000
0000
0000
0000
0010
0000
0000
0000
0000
0000
0000
0000
0000
0000
,  // measure 48
0000
0000
0000
0000
0000
0000
0000
0000
0000
0000
0000
0000
0000
0000
1000
0000
0000
0000
0000
0000
0000
0000
0000
0000
0000
0000
0000
0000
0000
0000
0000
0000
0000
0000
0000
0000
0000
0000
0100
0000
0000
0000
0000
0000
0000
0000
0000
0000
0000
0000
0000
0000
0000
0000
0000
0000
0000
0000
0000
0000
0000
0000
0010
0000
0000
0000
0000
0000
0000
0000
0000
0000
0000
0000
0000
0000
0000
0000
0000
0000
0000
0000
0000
0000
0000
0000
0001
0000
0000
0000
0000
0000
0000
0000
0000
0000
1000
0000
0000
0000
0000
0000
0000
0000
0000
0000
0000
0000
0000
0000
0000
0000
0000
0000
0000
0000
0000
0000
0000
0000
0001
0000
0000
0000
0000
0000
0000
0000
0000
0000
0000
0000
0000
0000
0000
0000
0000
0000
0000
0000
0000
0000
0000
0000
0010
0000
0000
0000
0000
0000
0000
0000
0000
0000
0000
0000
0000
0000
0000
0000
0000
0000
0000
0000
0000
0000
0000
0000
0100
0000
0000
0000
0000
0000
0000
0000
0000
0000
0000
0000
0000
0000
0000
0000
0010
0000
0000
0000
0000
0000
0000
0000
,  // measure 49
0001
0000
0000
0000
0000
0000
0000
0000
0010
0000
0000
0000
0000
0000
0000
0001
0000
0000
0000
0000
0000
0000
0000
0000
0000
0000
0000
0000
0000
0000
0000
0000
0000
1000
0000
0000
0000
0000
0000
0000
0010
0000
0000
0000
0000
0000
0000
0000
1000
0000
0000
0000
0000
0000
0000
0000
0000
0000
0000
0000
0001
0000
0000
0000
0000
0000
0000
0000
0000
0000
0000
0000
0100
0000
0000
0000
0000
0000
0000
0000
0000
0000
0000
0000
0010
0000
0000
0000
0000
0000
0000
0000
0000
0000
0000
0000
1000
0000
0000
0000
0000
0000
0000
0000
0000
0000
0000
0000
0000
0000
0000
0000
0000
0000
0000
0000
0000
0000
0000
0000
0001
0000
0000
0000
0000
0000
0000
0000
0000
0000
0000
0000
0000
0000
0000
0000
0000
0000
0000
0000
0000
0000
0000
0000
0100
0000
0000
0000
0000
0000
0000
0000
0000
0000
0000
0000
0000
0000
0000
0000
0000
0000
0000
0000
0000
0000
0000
0000
0010
0000
0000
0000
0000
0000
0000
0000
0000
0000
0000
0000
0000
0000
1000
0000
0000
0000
0000
0000
0000
0000
0000
0000
,  // measure 50
0000
0000
0000
0000
0000
0000
0000
0000
0000
0000
0000
0000
0000
0000
0010
0000
0000
0000
0000
0000
0000
0000
0000
0000
0000
0000
0000
0000
0000
0000
0000
0000
0000
0000
0000
0000
0000
0000
1000
0000
0000
0000
0000
0000
0000
0000
0000
0000
0000
0000
0000
0000
0000
0000
0000
0000
0000
0000
0000
0000
0000
0000
0100
0000
0000
0000
0000
0000
0000
0000
0000
0000
0000
0000
0000
0000
0000
0000
0000
0000
0000
0000
0000
0000
0000
0000
0010
0000
0000
0000
0000
0000
0000
0000
0000
0000
1000
0000
0000
0000
0000
0000
0000
0000
0000
0000
0000
0000
0000
0000
0000
0000
0000
0000
0000
0000
0000
0000
0000
0000
0010
0000
0000
0000
0000
0000
0000
0000
0000
0000
0000
0000
0000
0000
0000
0000
0000
0000
0000
0000
0000
0000
0000
0000
0001
0000
0000
0000
0000
0000
0000
0000
0000
0000
0000
0000
0000
0000
0000
0000
0000
0000
0000
0000
0000
0000
0000
0000
0100
0000
0000
0000
0000
0000
0000
0000
0000
0000
0000
0000
0000
0000
1000
0000
0000
0000
0000
0000
0000
0000
0000
0000
,  // measure 51
0000
0000
0000
0000
0000
0000
0000
0000
0000
0000
0000
0000
0000
0000
0100
0000
0000
0000
0000
0000
0000
0000
0000
0000
0000
0000
0000
0000
0000
0000
0000
0000
0000
0000
0000
0000
0000
0000
0001
0000
0000
0000
0000
0000
0000
0000
0000
0000
1000
0000
0000
0000
0000
0000
0000
0000
0001
0000
0000
0000
0000
0000
0000
0000
1000
0000
0000
0000
0000
0000
0000
0000
0010
0000
0000
0000
0000
0000
0000
0000
0100
0000
0000
0000
0000
0000
0000
0000
0001
0000
0000
0000
0000
0000
0000
0000
1000
0000
0000
0000
0000
0000
0000
0000
0000
0000
0000
0000
0000
0000
0000
0000
0000
0000
0000
0000
0000
0000
0000
0000
0100
0000
0000
0000
0000
0000
0000
0000
0000
0000
0000
0000
0000
0000
0000
0000
0000
0000
0000
0000
0000
0000
0000
0000
1000
0000
0000
0000
0000
0000
0000
0000
0000
0000
0000
0000
0000
0000
0000
0000
0000
0000
0000
0000
0000
0000
0000
0000
0100
0000
0000
0000
0000
0000
0000
0000
0000
0000
0000
0000
0000
0000
0010
0000
0000
0000
0000
0000
0000
0000
0000
0000
,  // measure 52
0000
0000
0000
0000
0000
0000
0000
0000
0000
0000
0000
0000
0000
0000
0100
0000
0000
0000
0000
0000
0000
0000
0000
0000
0000
0000
0000
0000
0000
0000
0000
0000
0000
0000
0000
0000
0000
0000
0010
0000
0000
0000
0000
0000
0000
0000
0000
0000
0100
0000
0000
0000
0000
0000
0000
0000
1000
0000
0000
0000
0000
0000
0000
0000
0001
0000
0000
0000
0000
0000
0000
0000
0100
0000
0000
0000
0000
0000
0000
0000
0010
0000
0000
0000
0000
0000
0000
0000
1000
0000
0000
0000
0000
0000
0000
0000
0001
0000
0000
0000
0000
0000
0000
0000
0000
0000
0000
0000
0000
0000
0000
0000
0000
0000
0000
0000
0000
0000
0000
0000
0100
0000
0000
0000
0000
0000
0000
0000
0000
0000
0000
0000
0000
0000
0000
0000
0000
0000
0000
0000
0000
0000
0000
0000
0010
0000
0000
0000
0000
0000
0000
0000
0000
0000
0000
0000
0000
0000
0000
0000
0000
0000
0000
0000
0000
0000
0000
0000
0100
0000
0000
0000
0000
0000
0000
0000
0000
0000
0000
0000
0000
0000
1000
0000
0000
0000
0000
0000
0000
0000
0000
0000
,  // measure 53
0000
0000
0000
0000
0000
0000
0000
0000
0000
0000
0000
0000
0000
0000
0100
0000
0000
0000
0000
0000
0000
0000
0000
0000
0000
0000
0000
0000
0000
0000
0000
0000
0000
0000
0000
0000
0000
0000
0001
0000
0000
0000
0000
0000
0000
0000
0000
0000
1000
0000
0000
0000
0000
0000
0000
0000
0001
0000
0000
0000
0000
0000
0000
0000
0010
0000
0000
0000
0000
0000
0000
0000
0100
0000
0000
0000
0000
0000
0000
0000
0000
0000
0000
0000
0000
0000
0000
0010
0000
0000
0000
0000
0000
0000
0000
0000
M001
0000
0000
0000
0000
0000
0000
0000
0000
0000
0000
0000
0100
0000
0000
0000
0000
0000
0000
0000
0000
0000
0000
0000
0010
0000
0000
0000
0000
0000
0000
0000
0000
0000
0000
0000
1000
0000
0000
0000
0000
0000
0000
0000
0000
0000
0000
0000
0100
0000
0000
0000
0000
0000
0000
0000
0000
0000
0000
0000
0010
0000
0000
0000
0000
0000
0000
0000
0000
0000
0000
0000
0001
0000
0000
0000
0000
0000
0000
0000
0000
0000
0000
0000
1000
0000
0000
0000
0000
0000
0000
0000
0000
0000
0000
0000
,  // measure 54
1000
1000
1000
1000
1000
0020
0130
0001
0001
0001
0001
0001
0001
0010
0100
1000
,  // measure 55
1000
0000
0000
0100
0000
0000
1000
0100
0010
0001
0000
0000
1000
0000
0000
0002
0000
0000
0103
0000
0000
0001
0000
0000
1000
0000
0000
0000
0000
0000
1000
0000
0000
0000
0000
0000
0001
0000
0000
0000
0000
0000
0010
0000
0000
0000
0000
0000
,  // measure 56
0010
0001
1000
0010
0010
0100
0010
0010
,  // measure 57
0100
0100
0001
1000
0001
0010
0100
0100
,  // measure 58
1000
0001
0000
0000
0101
0000
0000
0000
0110
0000
0000
0000
1001
0000
0000
0001
,  // measure 59
0100
0000
0010
0000
2000
0002
0000
0000
0000
0000
0000
0000
0000
0000
0000
0000
,  // measure 60
0000
0000
3003
0000
;

//---------------dance-single - C 9 X 13----------------
#NOTES:
     dance-single:
     C 9 X 13:
     Hard:
     9:
     0.464868,0.549409,0.098379,0.476760,0.314056,430.000000,417.000000,13.000000,63.000000,53.000000,0.000000,0.464868,0.549409,0.098379,0.476760,0.314056,430.000000,417.000000,13.000000,63.000000,53.000000,0.000000:
// measure 0
0000
0000
0000
0000
,  // measure 1
0000
0000
0000
0000
,  // measure 2
0000
1000
0001
0100
0001
1000
0100
0020
0000
0000
0100
0000
0000
0000
0130
2000
,  // measure 3
0000
0000
0001
0000
0000
0000
3001
0100
0010
0100
0001
0010
0001
1000
0010
0101
,  // measure 4
0001
0010
1000
0010
0001
0100
0010
0002
,  // measure 5
0000
0023
0000
2030
0000
3010
0100
0002
,  // measure 6
0000
0023
0000
0230
0000
1300
0001
0020
,  // measure 7
0000
0000
0130
0000
0010
0100
0010
0000
0001
0000
0100
0000
0010
0000
0100
0000
,  // measure 8
0001
0010
0100
1000
0001
0100
0010
0002
,  // measure 9
0000
0013
0100
0002
0000
1003
0001
0200
,  // measure 10
0000
0000
0310
0100
0010
0000
0200
0000
0000
0000
0301
0000
0010
0000
2000
0000
,  // measure 11
0000
3010
0001
1000
2002
0000
3003
MMMM
,  // measure 12
1001
0001
0010
0100
0210
0001
0000
1300
,  // measure 13
0001
0000
0000
0000
0000
0000
0100
0000
0000
0000
0100
0000
0010
0000
0000
0000
0000
0000
0100
0000
0000
0000
0000
0000
0110
0000
0000
0000
0000
0000
0100
0000
0000
0010
0000
0000
0100
0000
0000
0000
0000
0000
0001
0000
0000
0000
0000
0000
,  // measure 14
0001
0010
0100
1000
2001
0010
0000
3100
,  // measure 15
1000
0000
0000
0000
0000
0000
0001
0000
0000
0000
0001
0000
0100
0000
0000
0000
0000
0000
0010
0000
0000
0000
0000
0000
0001
0000
0000
0000
0000
0000
0010
0000
0000
0100
0000
0000
0010
0000
0000
0000
0000
0000
0100
0000
0000
0000
0100
0000
,  // measure 16
0001
1000
0100
0010
2000
0001
0000
3010
,  // measure 17
0001
0100
1000
0001
0010
0100
0001
0020
,  // measure 18
1000
0000
0000
0100
0000
0000
0002
0000
,  // measure 19
0000
0000
0033
1001
,  // measure 20
0001
0000
0100
0000
0010
0000
0010
2000
0000
0000
0000
0000
3001
0000
0010
0000
,  // measure 21
0100
0000
0010
0000
0001
0000
0001
2000
0000
0000
0000
0000
301M
0000
0010
2000
,  // measure 22
0001
0000
0000
0000
0010
0000
0000
0000
3002
0000
0000
0000
0010
0000
0000
2003
,  // measure 23
0001
0000
0010
0000
3002
0000
M010
0010
,  // measure 24
0023
0100
0032
1000
,  // measure 25
0203
0000
0010
0000
2300
0000
0100
0M00
,  // measure 26
3200
0010
0001
0010
,  // measure 27
0302
0000
0010
0000
1000
0000
0010
MMM0
,  // measure 28
0003
0000
0000
0000
0000
0000
0000
0000
0000
0000
0000
0000
0000
0000
0000
0000
M000
0000
00M0
0000
000M
0000
00M0
M000
0000
000M
M000
0M00
0000
0M00
M000
00M0
,  // measure 29
0M00
0000
000M
0000
00M0
0000
0M00
M000
00M0
0M00
20M2
0M00
0003
00M0
3001
00M0
1000
0000
0000
0000
0100
0000
0000
0000
0010
0000
0000
0000
0100
0000
0000
0000
,  // measure 30
1000
0010
0100
0010
2000
0001
0001
0000
,  // measure 31
3100
0001
0100
1000
0002
1000
0010
1000
,  // measure 32
0103
0000
0010
0000
0100
0000
1000
0000
0001
0000
0020
0000
1030
0001
1000
0000
,  // measure 33
0100
0020
0031
MMMM
0001
0100
0010
0100
,  // measure 34
0001
0010
0100
1000
0002
1000
1000
0000
,  // measure 35
0103
0001
0100
1000
0200
0010
0001
0010
,  // measure 36
0301
1000
0100
0001
0200
0010
0310
0001
,  // measure 37
MMMM
0000
0000
0000
0000
0000
0000
0000
0011
0000
0000
1001
0000
0000
1000
0010
,  // measure 38
1000
0000
0010
0000
0100
0000
1000
0000
0100
0010
0100
0010
0200
0000
0001
0000
,  // measure 39
0301
0000
1000
0000
0100
0000
0001
0000
0100
0000
2200
3300
0000
0022
0033
0000
,  // measure 40
0010
0000
0100
0000
1000
0000
0010
0000
0100
0000
0100
0010
0000
0010
1000
0000
,  // measure 41
1000
0001
0011
MMMM
0001
0100
1000
0002
,  // measure 42
0013
1000
0001
0020
0100
0100
0100
0100
,  // measure 43
0130
0000
0001
0000
0100
0010
0100
0000
2000
0000
0010
0000
0001
0000
0010
0000
,  // measure 44
3001
0000
0100
0000
0010
0100
0010
0000
1000
0001
1000
0000
0100
0010
0100
0000
,  // measure 45
1000
0002
1003
MMMM
0001
1000
0200
1300
,  // measure 46
0020
0000
0130
0000
2000
0000
3100
0020
0100
0000
0100
0000
1030
0000
0001
0000
,  // measure 47
1000
0100
0001
0100
0010
0001
2000
3001
,  // measure 48
0200
0000
0310
0000
0002
0000
0013
0200
0010
0000
0310
0000
1000
0000
0001
0000
,  // measure 49
0020
0000
0001
0000
0230
0000
0010
0000
1300
0000
0001
0000
0100
0000
0001
1000
,  // measure 50
0000
0010
0000
1000
0000
0100
0000
0010
1000
0000
0010
0000
0001
0000
0100
0010
,  // measure 51
0000
0001
0000
0010
1000
0000
M001
0000
100M
0000
0010
0000
0001
0000
0010
0100
,  // measure 52
0000
0010
0000
1000
0001
0000
100M
0000
M001
0000
0010
0000
0100
0000
0010
0001
,  // measure 53
0000
0100
0000
0010
1000
0001
1000
0001
1M00
0010
0100
0010
1000
0100
0010
0001
,  // measure 54
0000
0000
0000
0000
0000
0001
0010
0100
0000
0000
0000
0000
0000
0100
1000
0010
,  // measure 55
0000
0001
0010
1000
0001
0010
0100
1000
0001
0000
1000
0000
0001
0000
0010
0000
,  // measure 56
0100
0010
0100
1000
0001
0100
0010
0100
,  // measure 57
0010
0100
0001
1000
0100
0010
0100
1000
,  // measure 58
0100
0010
0000
0000
0010
0000
0000
0000
0001
0000
0000
0000
1000
0000
0000
0001
,  // measure 59
1000
0200
0002
0000
0000
0000
0000
0000
,  // measure 60
0000
0000
0303
0000
;

//---------------dance-single - C 1 X 2----------------
#NOTES:
     dance-single:
     C 1 X 2:
     Beginner:
     1:
     0.122163,0.178596,0.113514,0.000000,0.000000,113.000000,98.000000,15.000000,0.000000,0.000000,0.000000,0.122163,0.178596,0.113514,0.000000,0.000000,113.000000,98.000000,15.000000,0.000000,0.000000,0.000000:
0000
0000
0000
0000
,
0000
0000
0000
0000
,
0000
0000
0000
0000
,
0000
0000
0000
0000
,
1000
0000
1000
0000
,
1000
0000
0000
0000
,
0001
0000
0000
0000
,
1000
0000
0001
0000
,
0010
0000
0010
0000
,
0010
0000
0000
0000
,
0100
0000
0000
0000
,
0010
0000
0110
0000
,
1001
0000
0000
0000
,
1000
0000
0000
0000
,
0001
0000
0000
0000
,
1000
0000
0001
0000
,
0010
0010
0010
0000
,
0100
0100
0100
0000
,
1001
0000
0000
0000
,
0000
0000
0000
0000
,
1000
0000
0000
0000
,
0001
0000
0000
0000
,
1000
0000
1000
0000
,
0001
0000
0001
0000
,
0010
0000
1000
0000
,
0010
0000
0001
0000
,
1000
0000
0010
0000
,
0001
0000
0010
0000
,
0000
0000
0000
0000
,
0000
0000
1000
1000
,
1000
0000
1001
0000
,
0000
0001
0001
0000
,
0000
1000
1000
0000
,
1001
0000
0010
0010
,
0010
0000
0110
0000
,
0000
0100
0100
0000
,
0000
0010
0010
0000
,
0110
0000
1001
0000
,
1000
1000
1000
0000
,
0000
0001
0001
0000
,
0000
1000
1000
0000
,
1001
0000
0001
0000
,
1000
0000
1001
0000
,
0000
0010
0010
0000
,
0000
0100
0100
0000
,
1001
0000
1000
0000
,
0000
0000
0001
0000
,
0000
0000
1000
0000
,
0000
0000
0001
0000
,
0010
0010
0010
0000
,
0010
0000
0100
0000
,
0010
0010
0010
0000
,
0100
0100
0100
0000
,
0010
0000
1001
0000
,
0000
0000
0000
0000
,
0000
0000
1000
0000
,
0001
0000
1000
0000
,
0001
0000
1000
0000
,
1001
0000
0110
0000
,
1001
0000
0000
0000
;

//---------------dance-single - C 4 X 6----------------
#NOTES:
     dance-single:
     C 4 X 6:
     Easy:
     4:
     0.219461,0.295137,0.204326,0.287569,0.068109,203.000000,176.000000,27.000000,38.000000,43.000000,0.000000,0.219461,0.295137,0.204326,0.287569,0.068109,203.000000,176.000000,27.000000,38.000000,43.000000,0.000000:
0000
0000
0000
0000
,
0000
0000
0000
0000
,
0000
0000
0000
0000
,
0000
1000
0000
0001
1000
0001
1000
1001
,
0001
0010
0100
1000
,
0020
0000
0030
0001
,
0020
0000
0030
1000
,
0001
0010
0100
1000
,
0001
0100
0010
1000
,
0100
0020
0030
1000
,
0010
0002
0003
1000
,
0010
0100
0220
0330
,
0001
1000
1001
0000
,
0001
0010
0100
0010
,
0001
0100
0110
0000
,
0010
1000
0001
1000
,
0001
0100
1000
0000
,
1000
0100
0001
0010
,
0200
0000
0300
0020
0000
0000
0200
0000
,
0000
0000
0330
1001
,
1000
0100
0100
0000
,
0001
0100
0100
0000
,
2000
3000
0020
0030
,
0200
0300
0002
0003
,
0020
0030
2000
3000
,
0020
0030
0002
0003
,
0200
0300
2000
3000
,
0200
0300
0001
1001
,
0000
0000
0000
0000
0000
0000
0000
0000
0000
0000
0000
0000
0000
0000
0000
0000
0M00
0000
00M0
0000
00M0
0000
0M00
M000
0000
M000
000M
0M00
0000
0M00
000M
00M0
,
M000
0000
000M
0000
000M
0000
00M0
0M00
00M0
0M00
M0MM
0M00
00M0
0M00
M0M0
0M00
0001
0000
0000
0000
0000
0000
0000
0000
0100
0000
0000
0000
0000
0000
0000
0000
,
1000
0100
0002
0000
,
0003
1001
2000
0000
,
3000
1001
0110
0010
,
0100
MMMM
1001
1000
,
0100
0001
0200
0000
,
0300
0110
0020
0000
,
0030
0110
1001
0001
,
MMMM
0000
1010
0011
,
1010
1000
0200
0000
,
0300
0101
1200
0000
,
0300
1001
1000
0001
,
1000
MMMM
1010
1001
,
0011
1001
0020
0000
,
0030
1001
0200
0000
,
0300
1001
0001
1000
,
0010
MMMM
1000
0200
,
0320
0032
2003
0000
,
3000
0000
0001
2000
,
3200
0320
0032
0003
,
1000
0100
0110
0100
,
1000
0010
0001
0010
,
0100
0000
0001
1000
0001
0000
0100
0000
,
0010
0000
1000
0001
1000
0000
0100
0000
,
0010
0000
1000
0000
0010
0001
1000
0010
,
1000
0000
0000
0010
1000
0000
0000
0001
,
0010
1000
0010
0001
1000
0000
0100
0000
,
1000
0001
0100
1000
,
0100
0001
0010
1000
,
0010
0001
0001
1000
,
1000
0220
0000
0000
,
0330
0000
0000
0000
;

//---------------dance-single - C 7 X 11----------------
#NOTES:
     dance-single:
     C 7 X 11:
     Medium:
     7:
     0.374056,0.499463,0.272434,0.522166,0.090811,346.000000,310.000000,36.000000,69.000000,8.000000,0.000000,0.374056,0.499463,0.272434,0.522166,0.090811,346.000000,310.000000,36.000000,69.000000,8.000000,0.000000:
// measure 0
0000
0000
0000
0000
,  // measure 1
0000
0000
0000
0000
,  // measure 2
0000
1000
0100
0010
0002
1000
0000
0103
,  // measure 3
0020
1000
0000
0130
0010
0010
0010
0110
,  // measure 4
1000
0100
1000
0000
0001
0100
0001
0000
,  // measure 5
2000
0000
0001
0000
3001
0010
0100
1000
,  // measure 6
0002
0000
1000
0000
1003
0010
0100
0001
,  // measure 7
2000
0000
3010
1000
0020
0000
0130
0010
,  // measure 8
1000
0010
1000
0000
0001
0010
0001
0000
,  // measure 9
0020
0000
0130
0010
0002
0000
1003
0010
,  // measure 10
0200
0000
1300
0100
0002
0000
1003
0100
,  // measure 11
0002
0103
0220
0330
,  // measure 12
0100
1000
0001
0000
0201
0000
0010
0000
,  // measure 13
0301
0001
1000
0000
2001
0000
0100
0000
,  // measure 14
3001
1000
0010
0000
0210
0000
1000
0000
,  // measure 15
0310
0010
1000
0000
1001
0001
0010
0100
,  // measure 16
1000
0100
1000
0010
0001
0010
0000
0100
,  // measure 17
0001
1000
0100
0001
0100
0010
0001
1000
,  // measure 18
1010
0000
0000
1100
0000
0000
2002
0000
,  // measure 19
0000
0000
3003
0110
,  // measure 20
1000
0000
0001
0000
0100
0000
0000
0200
0000
0000
0000
0000
0301
0000
0010
0000
,  // measure 21
0001
0000
1000
0000
0100
0000
0000
0200
0000
0000
0000
0000
1300
0000
0010
0000
,  // measure 22
2000
3010
0002
0013
,  // measure 23
2000
0000
3100
0000
0020
0030
1001
0000
,  // measure 24
0002
0103
2000
3100
,  // measure 25
0002
0000
0013
0000
0200
0300
0010
0100
,  // measure 26
2000
0000
0010
0000
3010
0000
0010
0100
,  // measure 27
0002
0000
0103
0000
2000
0000
3200
0301
,  // measure 28
0000
0000
0000
0000
0000
0000
0000
0000
0000
0000
0000
0000
1001
0000
0000
0000
1000
0000
0000
0000
0001
0000
0000
0010
0000
0000
0000
0001
0000
0000
1000
0000
,  // measure 29
0001
0000
0000
0000
1000
0000
0000
0010
0000
0000
0220
0000
0000
0000
0300
0000
1030
0000
0000
0000
0002
0000
0000
0000
0010
0000
0000
0000
0000
0000
0000
0000
,  // measure 30
1003
0010
1000
0000
2002
0000
0000
0000
,  // measure 31
3003
0001
1000
0010
0220
0000
0000
0000
,  // measure 32
0330
0100
0001
0020
1000
M000
1030
0010
,  // measure 33
0001
0000
2002
3003
1000
0200
0010
0000
,  // measure 34
1300
0010
0100
0000
0202
0000
0000
0000
,  // measure 35
0303
0001
0010
0100
2200
0000
0000
0000
,  // measure 36
3300
1000
0100
0020
1000
M000
0032
2000
,  // measure 37
0MM0
0000
0000
0000
0000
3003
0000
0000
1010
0000
0000
0011
0000
0000
1010
0000
,  // measure 38
1000
0100
0010
0001
0022
0000
0000
0000
,  // measure 39
0033
0001
0100
0010
2020
0000
0000
0000
,  // measure 40
3030
0000
1000
0000
0100
0000
0001
0000
0100
0000
0000
1100
0000
0000
1001
0000
,  // measure 41
0100
0010
MMMM
0000
1001
0001
0020
0000
,  // measure 42
0031
1000
0020
0030
0220
0000
0000
0000
,  // measure 43
0330
0010
1000
0001
2002
0000
0000
0000
,  // measure 44
3003
0001
1000
0100
0010
0001
1000
0001
,  // measure 45
0100
0001
1000
0000
0001
1000
0020
0000
,  // measure 46
0032
0000
0000
0000
0013
0000
0000
0010
1000
0000
0001
0000
0010
0000
0000
0100
,  // measure 47
1000
0001
1000
0000
0010
1000
0200
0000
,  // measure 48
0302
0000
0000
0000
0103
0000
0000
0100
1000
0000
0000
0000
0001
0000
0000
0000
,  // measure 49
1000
0010
0100
0001
0010
0100
0010
0000
,  // measure 50
0001
0000
1000
0000
0010
0100
0010
0000
,  // measure 51
1000
0000
0001
1000
0001
0010
0001
0000
,  // measure 52
1000
0000
0001
1000
0010
1000
0001
0000
,  // measure 53
1000
0000
0000
0000
0010
0000
0100
0000
0010
0100
0010
1000
0001
0010
0100
0002
,  // measure 54
0000
0000
0000
0000
0000
0103
0010
0002
0000
0000
0000
0000
0000
1003
0010
0200
,  // measure 55
0000
0310
1000
0001
0010
0100
0010
0001
1000
0000
0000
0000
1010
0000
0000
0000
,  // measure 56
1000
1001
0001
0011
,  // measure 57
0001
1001
0100
0110
,  // measure 58
0010
0110
1000
1001
,  // measure 59
0001
2002
0000
0000
,  // measure 60
3003
0000
0000
0000
;
