#TITLE:ちゅるりちゅるりら;
#SUBTITLE:;
#ARTIST:でんぱ組.inc;
#TITLETRANSLIT:Chururi Chururira;
#SUBTITLETRANSLIT:;
#ARTISTTRANSLIT:Dempagumi.inc;
#GENRE:;
#CREDIT:Lisek;
#BANNER:[Gimmick Week] - Chururi Chururira.png;
#BACKGROUND:[Gimmick Week] - Chururi Chururira-bg.png;
#LYRICSPATH:;
#CDTITLE:cdtitle.png;
#MUSIC:[Gimmick Week] - Chururi Chururira.ogg;
#OFFSET:-0.071451;
#SAMPLESTART:0.000000;
#SAMPLELENGTH:14.30;
#SELECTABLE:YES;
#BPMS:0.000000=200.000000
,56.000000=400.000000
,72.000000=200.000000
,80.000000=400.000000
,96.000000=200.000000
,296.000000=100.000000
,312.000000=200.000000
;
#STOPS:
;
#BGCHANGES:0.000=[Gimmick Week] - Chururi Chururira.avi=1.000=1=0=1===CrossFade==,
383.000=[Gimmick Week] - Chururi Chururira-bg.png=1.000=1=0=1===CrossFade==,
99999=-nosongbg-=1.000=0=0=0 // don't automatically add -songbackground-
;
#KEYSOUNDS:;
#ATTACKS:TIME=0.070000:LEN=1.200000:MODS=100% Stealth:TIME=1.270000:LEN=0.450000:MODS=75% Stealth:TIME=1.720000:LEN=0.450000:MODS=50% Stealth:TIME=2.170000:LEN=0.300000:MODS=25% Stealth:TIME=33.669998:LEN=3.300000:MODS=30% Mini:TIME=37.270000:LEN=0.150000:MODS=*100000 -30% Mini:TIME=37.570000:LEN=0.150000:MODS=*100000 -30% Mini:TIME=37.869999:LEN=0.150000:MODS=*100000 -30% Mini:TIME=38.169998:LEN=0.150000:MODS=*100000 -30% Mini:TIME=38.470001:LEN=3.450000:MODS=30% Mini:TIME=27.370001:LEN=0.300000:MODS=*100000 50% Drunk:TIME=27.969999:LEN=0.300000:MODS=*100000 -50% Drunk:TIME=48.070000:LEN=0.150000:MODS=*100000 -10% Mini:TIME=48.369999:LEN=0.150000:MODS=*100000 -15% Mini:TIME=48.669998:LEN=0.150000:MODS=*100000 -20% Mini:TIME=48.970001:LEN=0.150000:MODS=*100000 -25% Mini:TIME=49.270000:LEN=0.150000:MODS=*100000 -30% Mini:TIME=49.570000:LEN=0.150000:MODS=*100000 -35% Mini:TIME=49.869999:LEN=0.150000:MODS=*100000 -90% Mini:TIME=51.820000:LEN=0.010000:MODS=*100000 80% Drunk:TIME=114.970001:LEN=0.150000:MODS=*10000 -100% Mini:TIME=17.920000:LEN=0.600000:MODS=*100000 Dizzy:TIME=22.719999:LEN=0.600000:MODS=*100000 Dizzy:TIME=32.470001:LEN=0.200000:MODS=*100000 -25% Mini, Tornado:TIME=32.669998:LEN=0.200000:MODS=*100000 -50% Mini, Tornado:TIME=32.869999:LEN=0.200000:MODS=*100000 -75% Mini, Tornado:TIME=33.070000:LEN=0.200000:MODS=*100000 -100% Mini:TIME=52.869999:LEN=0.300000:MODS=30% Mini:TIME=53.470001:LEN=0.300000:MODS=30% Mini:TIME=54.669998:LEN=0.300000:MODS=30% Mini:TIME=43.270000:LEN=0.300000:MODS=30% Mini:TIME=43.869999:LEN=0.300000:MODS=30% Mini:TIME=45.070000:LEN=0.300000:MODS=30% Mini:TIME=57.669998:LEN=0.070000:MODS=-100% Mini, Alternate:TIME=57.869999:LEN=0.070000:MODS=-100% Mini, Alternate:TIME=58.070000:LEN=0.070000:MODS=-100% Mini, Alternate:TIME=58.270000:LEN=0.070000:MODS=-100% Mini, Alternate:TIME=58.869999:LEN=0.070000:MODS=-100% Mini, -100% Alternate:TIME=59.070000:LEN=0.070000:MODS=-100% Mini, -100% Alternate:TIME=59.270000:LEN=0.070000:MODS=-100% Mini, -100% Alternate:TIME=59.470001:LEN=0.070000:MODS=-100% Mini, -100% Alternate:TIME=64.570000:LEN=9.600000:MODS=10% Drunk:TIME=96.070000:LEN=0.300000:MODS=30% Mini:TIME=96.669998:LEN=0.300000:MODS=30% Mini:TIME=97.870003:LEN=0.300000:MODS=30% Mini:TIME=100.870003:LEN=0.070000:MODS=-100% Mini, Alternate:TIME=101.070000:LEN=0.070000:MODS=-100% Mini, Alternate:TIME=101.269997:LEN=0.070000:MODS=-100% Mini, Alternate:TIME=101.470001:LEN=0.070000:MODS=-100% Mini, Alternate:TIME=102.070000:LEN=0.070000:MODS=-100% Mini, -100% Alternate:TIME=102.269997:LEN=0.070000:MODS=-100% Mini, -100% Alternate:TIME=102.470001:LEN=0.070000:MODS=-100% Mini, -100% Alternate:TIME=102.669998:LEN=0.070000:MODS=-100% Mini, -100% Alternate:TIME=106.870003:LEN=0.150000:MODS=*100000 -30% Mini:TIME=107.169998:LEN=0.150000:MODS=*100000 -30% Mini:TIME=107.470001:LEN=0.150000:MODS=*100000 -30% Mini:TIME=109.269997:LEN=0.150000:MODS=*100000 -30% Mini:TIME=109.570000:LEN=0.150000:MODS=*100000 -30% Mini:TIME=109.870003:LEN=0.150000:MODS=*100000 -30% Mini:TIME=111.669998:LEN=0.150000:MODS=*100000 -20% Mini, 20% Dizzy:TIME=111.970001:LEN=0.150000:MODS=*100000 -30% Mini, -20% Dizzy:TIME=112.269997:LEN=0.150000:MODS=*100000 -40% Mini, 20% Dizzy:TIME=112.570000:LEN=0.150000:MODS=*100000 -50% Mini, -20% Dizzy:TIME=112.870003:LEN=0.300000:MODS=*100000 -60% Mini, 20% Dizzy:TIME=113.470001:LEN=0.300000:MODS=*100000 -10% Mini, 40% Dizzy:TIME=114.070000:LEN=0.300000:MODS=*100000 -10% Mini, -40% Dizzy:TIME=114.669998:LEN=0.300000:MODS=*100000 -10% Mini, 40% Dizzy:TIME=103.269997:LEN=0.600000:MODS=*100000 Wave, -10% Mini:TIME=60.070000:LEN=0.600000:MODS=*100000 Wave, -10% Mini:TIME=63.669998:LEN=0.150000:MODS=*100000 -30% Mini:TIME=63.970001:LEN=0.150000:MODS=*100000 -30% Mini:TIME=64.269997:LEN=0.150000:MODS=*100000 -30% Mini:TIME=79.269997:LEN=0.220000:MODS=30% Mini:TIME=79.870003:LEN=0.220000:MODS=30% Mini:TIME=80.470001:LEN=0.220000:MODS=30% Mini:TIME=87.669998:LEN=0.600000:MODS=100% Space, 20% Mini:TIME=88.269997:LEN=0.600000:MODS=-100% Space, 20% Mini:TIME=16.870001:LEN=0.600000:MODS=*100000 -50% Dizzy:TIME=21.670000:LEN=0.600000:MODS=*100000 -50% Dizzy;

//---------------dance-single - ----------------
#NOTES:
     dance-single:
     Lisek:
     Challenge:
     10:
     0.796198,1.032608,0.603927,0.345101,0.465887,646.000000,575.000000,70.000000,40.000000,0.000000,1.000000,0.796198,1.032608,0.603927,0.345101,0.465887,646.000000,575.000000,70.000000,40.000000,0.000000,1.000000:
0000
0000
0000
0000
,
0000
0000
0000
0000
,
1000
0000
0000
0000
1000
0000
0000
1000
0100
0000
0010
0000
0001
0000
0100
0000
,
0001
0000
0000
0000
0001
0000
0000
0001
0010
0000
0100
0000
1000
0000
0010
0000
,
1000
0000
0000
0000
1000
0000
0000
1000
0100
0000
0010
0000
0001
0000
1000
0000
,
0001
0100
0010
1000
0002
0000
0003
0000
,
1000
0000
0000
0000
1000
0000
0000
1000
0010
0000
0100
0000
0001
0000
1000
0000
,
0001
0000
0000
0000
0001
0000
0000
0001
0100
0000
0010
0000
1000
0000
0001
0000
,
1001
0000
0000
0001
1000
0000
0010
0000
0110
0000
0000
0100
0010
0000
1000
0000
,
1001
0000
0000
1000
0001
0000
0100
0000
0020
0000
0000
0000
0030
0000
0000
0000
,
0100
0000
0000
0000
0100
0000
0000
0000
0100
0000
0000
0000
0000
0000
0000
0010
,
1000
1000
1000
0000
,
0001
0010
0001
0100
0001
0000
0000
0000
1000
0010
1000
0100
1000
0000
0000
0000
,
0001
0100
0010
1000
0001
0000
1000
0000
,
1010
0000
0110
0000
,
0001
1000
0000
1010
,
0000
0101
0000
0001
,
2002
0000
3003
0000
,
1000
0010
1000
0100
1000
0000
0000
0000
0001
0010
0001
0100
0001
0000
0000
0000
,
1000
0010
0100
0001
0010
0100
1000
0001
,
0101
0000
1010
0000
,
1000
0001
0000
0101
,
0000
1010
0000
1000
,
2002
0000
3003
0000
,
0001
0000
0100
0000
1000
0000
0100
0000
0001
0000
0100
0010
0100
0000
0001
0000
,
1000
0000
0100
0000
0001
0000
0100
0000
1000
0000
0010
0100
0010
0000
1000
0000
,
0001
0010
1000
0010
0001
0000
0100
1000
,
0100
0000
0001
0010
0001
0000
1001
0000
,
1000
0000
0010
0000
0001
0000
0010
0000
1000
0000
0010
0100
0010
0000
1000
0000
,
0001
0000
0100
0000
1000
0000
0100
0000
0001
0000
0100
0010
0100
0000
0001
0000
,
1000
0100
0010
0001
0100
0010
1000
0001
,
1000
0000
0010
0000
0100
0000
0202
0000
0000
0303
0000
0000
,
0001
0000
0001
0100
0000
0000
0100
0010
0000
0000
0010
1000
0000
0000
1000
0100
,
0000
0000
0100
0010
0000
0000
0010
0001
0000
0000
0001
0100
0000
0000
0100
0010
,
0000
0000
0010
1000
0000
0000
1000
0001
0000
0000
0001
0100
0000
0000
0000
0000
,
0101
0110
1010
1001
,
1000
0000
1000
0100
0000
0000
0100
0010
0000
0000
0010
0001
0000
0000
0001
0100
,
0000
0000
0100
0010
0000
0000
0010
1000
0000
0000
1000
0001
0000
0000
0001
0100
,
0000
0000
0100
0001
0000
0000
0001
1000
0000
0000
1000
0001
0000
0000
0000
0000
,
1000
0000
1000
0000
1000
0001
1000
0001
,
1001
0110
1001
0110
,
1000
0001
0100
0010
0110
0000
1001
0000
,
0001
0000
0100
0001
0100
0010
1000
0000
0001
0000
0100
0001
0100
0010
1000
0000
,
0001
0010
0100
1000
0010
0100
0110
0000
,
0101
1010
1100
0011
,
0101
1010
2002
3003
,
0001
0010
1000
0100
0001
0000
1000
0000
,
1001
0001
1000
0010
0100
0001
0010
0100
,
1100
0011
1100
0011
,
0100
0010
0100
0010
1001
0000
0110
0000
,
1000
0010
0100
0001
0010
0000
0110
0000
,
2001
0010
0100
3001
,
1000
0000
0001
0000
0100
0000
0010
0000
0000
0000
0000
0000
,
0010
0000
0100
0000
0001
0000
1000
0000
0000
0000
0000
0000
,
0002
0023
0230
2300
,
3001
0100
0010
1000
0100
0010
0001
1000
,
0001
0000
0100
0000
1000
0000
0100
0010
0100
0000
0010
0000
1000
0000
0001
0000
,
0011
0110
1100
0000
,
1000
0000
0000
0000
0000
0100
0001
0000
0000
0000
0000
0000
1000
0000
0000
0000
0000
0010
0001
0000
0000
0000
0000
0000
,
0100
0000
0000
0000
0000
0001
0100
0000
0000
0000
0000
1000
0100
0000
0000
0000
0000
0001
0100
0000
0000
0000
0000
0000
,
0001
0000
0000
0000
0000
0010
1000
0000
0000
0000
0000
0000
0001
0000
0000
0000
0000
0100
1000
0000
0000
0000
0000
0000
,
0010
0000
0000
0000
0000
0100
0001
0000
0000
0000
0000
0100
1000
0000
0000
0000
0000
0100
0001
0000
0000
0000
0000
0000
,
1000
0000
0000
0000
0000
0010
0001
0000
0000
0000
0000
0000
1000
0000
0000
0000
0000
0100
0001
0000
0000
0000
0000
0000
,
0100
0000
0000
0000
0000
1000
0100
0000
0000
0000
0000
0001
0100
0000
0000
0000
0000
1000
0100
0000
0000
0000
0000
0000
,
0001
0000
0000
0000
0000
0100
1000
0000
0000
0000
0000
0000
0001
0000
0000
0000
0000
0010
1000
0000
0000
0000
0000
0000
,
0010
0000
0000
0000
0000
0100
0001
0000
0000
0000
0000
0100
1000
0000
0000
0000
0000
0100
0001
0000
0000
0000
0000
0000
,
1000
0100
0001
0100
0000
0010
0001
0010
,
0000
0100
1000
0100
0000
1000
0001
0100
,
0001
0100
1000
0100
0000
0001
0000
1000
,
0000
0010
0200
0000
1000
0000
0010
0000
,
0301
0100
0001
0000
1000
0010
1000
0000
,
0001
0100
0001
0000
1000
0000
0010
0000
,
1000
0100
0001
0100
1000
0010
0001
0010
,
1000
0000
0100
0000
0001
0000
0100
0000
1000
0010
0100
0001
0010
0100
1000
0001
,
2000
0000
0000
0000
3200
0000
0320
0000
0032
0000
0103
0001
0200
0000
0300
0000
,
0020
0000
1030
0100
2000
0000
3200
0000
0320
0000
0000
0000
0000
0000
0000
0000
,
0032
0000
0203
0000
0320
0000
2030
0000
3200
0000
0310
0001
0020
0000
0030
0000
,
0001
0100
0010
1000
0100
0000
0010
0000
0001
0100
0010
1000
0002
0000
0000
0000
,
1003
0100
0010
0001
1000
0010
0100
0001
1000
0100
1000
0001
,
0010
0001
0100
0010
1000
0100
0010
0001
0010
0100
1000
0000
,
1100
0011
0101
1010
,
1000
0001
0100
0010
0110
0000
1001
0000
,
1000
0001
0100
0001
1000
0000
0010
0000
,
0110
1010
0101
0110
,
0001
0000
0010
0000
0100
0000
1000
0000
0000
0000
0000
0000
,
1000
0000
0100
0000
0010
0000
0001
0000
0000
0000
0000
0000
,
2000
3002
0203
0320
,
1030
0001
0100
0001
1000
0010
0100
0001
,
1000
0100
0001
0100
1000
0100
0001
0100
,
1100
0110
0022
0033
,
0001
0010
1000
0010
0001
0010
1000
0010
,
0011
0110
2200
3300
,
1000
0000
0010
0000
0001
0000
0010
0000
1000
0000
0010
0100
0001
0000
0100
0000
,
0101
1010
1100
0011
,
1001
0000
0000
0001
0100
0000
0000
0000
1001
0000
0000
1000
0010
0000
0000
0000
,
1001
0000
0000
0001
0100
0000
0000
0000
1001
0000
0000
0000
1011
0000
0000
0000
;

//---------------dance-single - ----------------
#NOTES:
     dance-single:
     Lisek:
     Beginner:
     1:
     0.088740,0.165217,0.017255,0.120785,0.000000,72.000000,70.000000,2.000000,14.000000,0.000000,0.000000,0.088740,0.165217,0.017255,0.120785,0.000000,72.000000,70.000000,2.000000,14.000000,0.000000,0.000000:
// measure 0
0000
0000
0000
0000
,  // measure 1
0000
0000
0000
0000
,  // measure 2
1000
0000
0000
0000
,  // measure 3
0001
0000
0000
0000
,  // measure 4
1000
0000
0000
0000
,  // measure 5
0001
0000
0000
0000
,  // measure 6
0100
0000
0000
0000
,  // measure 7
0010
0000
0000
0000
,  // measure 8
1000
0000
0000
0000
,  // measure 9
0001
0000
0000
0000
,  // measure 10
0000
0000
0000
0000
,  // measure 11
0000
0000
0000
0000
,  // measure 12
1000
0000
0000
0000
,  // measure 13
0001
0000
0000
0000
,  // measure 14
1000
0000
0000
0000
,  // measure 15
0000
0000
0000
0000
,  // measure 16
0001
0000
0000
0000
,  // measure 17
0000
0000
0000
0000
,  // measure 18
0100
0000
0000
0000
,  // measure 19
0010
0000
0000
0000
,  // measure 20
0100
0000
0000
0000
,  // measure 21
0000
0000
0000
0000
,  // measure 22
0010
0000
0000
0000
,  // measure 23
0000
0000
0000
0000
,  // measure 24
1000
0000
0000
0000
,  // measure 25
0100
0000
0000
0000
,  // measure 26
0010
0000
0000
0000
,  // measure 27
0001
0000
0000
0000
,  // measure 28
1000
0000
0000
0000
,  // measure 29
0010
0000
0000
0000
,  // measure 30
0100
0000
0000
0000
,  // measure 31
0002
0000
0000
0003
,  // measure 32
1000
0000
0000
0000
,  // measure 33
0001
0000
0000
0000
,  // measure 34
1000
0000
0000
0000
,  // measure 35
0001
0000
0000
0000
,  // measure 36
0100
0000
0000
0000
,  // measure 37
0010
0000
0000
0000
,  // measure 38
0100
0000
0000
0000
,  // measure 39
0020
0000
0000
0000
,  // measure 40
0030
0000
0000
0000
,  // measure 41
0000
0000
0000
0000
,  // measure 42
1000
0000
0000
0000
,  // measure 43
0001
0000
0000
0000
,  // measure 44
2002
0000
0000
0000
,  // measure 45
0000
0000
3003
0000
,  // measure 46
0000
0000
0000
0000
,  // measure 47
0000
0000
0000
0000
,  // measure 48
0001
0000
0000
0000
,  // measure 49
1000
0000
0000
0000
,  // measure 50
0001
0000
0000
0000
,  // measure 51
1000
0000
0000
0000
,  // measure 52
0002
0000
0003
0000
,  // measure 53
2000
0000
0000
3000
,  // measure 54
0000
0000
0000
0000
,  // measure 55
0000
0000
0000
0000
,  // measure 56
0001
0000
0000
0000
,  // measure 57
2000
0000
3000
0000
,  // measure 58
0001
0000
0000
0000
,  // measure 59
1000
0000
0000
0000
,  // measure 60
0001
0000
0000
0000
,  // measure 61
1000
0000
0000
0000
,  // measure 62
0010
0000
0000
0000
,  // measure 63
0100
0000
0000
0000
,  // measure 64
0010
0000
0000
0000
,  // measure 65
0100
0000
0000
0000
,  // measure 66
0001
0000
0000
0000
,  // measure 67
0000
0000
0000
0000
,  // measure 68
1000
0000
0000
0000
,  // measure 69
0000
0000
0000
0000
,  // measure 70
0010
0000
0010
0000
,  // measure 71
0010
0000
0000
0000
,  // measure 72
0000
0000
0000
0000
,  // measure 73
0000
0000
0000
0000
,  // measure 74
2000
0000
0000
0000
,  // measure 75
0000
0000
0000
3000
,  // measure 76
0002
0000
0000
0000
,  // measure 77
0000
0000
0003
0000
,  // measure 78
0000
0000
0000
0000
,  // measure 79
0000
0000
0000
0000
,  // measure 80
1000
0000
0000
0000
,  // measure 81
0001
0000
0000
0000
,  // measure 82
1000
0000
0000
0000
,  // measure 83
0000
0000
0000
0000
,  // measure 84
0002
0000
0003
0000
,  // measure 85
2000
0000
3000
0000
,  // measure 86
0000
0000
0000
0000
,  // measure 87
0000
0000
0000
0000
,  // measure 88
0001
0000
0000
0000
,  // measure 89
2000
0000
0000
3000
,  // measure 90
0001
0000
0000
0000
,  // measure 91
2000
0000
0000
3000
,  // measure 92
0001
0000
0000
0000
,  // measure 93
2000
0000
0000
0000
,  // measure 94
3000
0000
0000
0000
,  // measure 95
0000
0000
0000
1001
;

//---------------dance-single - ----------------
#NOTES:
     dance-single:
     Lisek:
     Easy:
     3:
     0.194736,0.289130,0.017255,0.146668,0.000000,158.000000,156.000000,2.000000,17.000000,0.000000,0.000000,0.194736,0.289130,0.017255,0.146668,0.000000,158.000000,156.000000,2.000000,17.000000,0.000000,0.000000:
0000
0000
0000
0000
,
0000
0000
0000
0000
,
1000
0000
0000
0000
,
0001
0000
1000
0000
,
0001
0000
0000
0000
,
1000
0001
1000
0000
,
0001
0000
0000
0000
,
0100
0000
0000
0000
,
0010
0000
0100
0000
,
0010
0100
0010
0000
,
0000
0000
0000
0000
,
0000
0000
0000
0000
,
1000
0000
0001
0000
,
1000
0000
0001
0000
,
0100
0000
0000
0000
,
0010
0000
0000
0000
,
0100
0000
0000
0000
,
0010
0000
0000
0000
,
1000
0000
0100
0000
,
1000
0000
0100
0000
,
0010
0000
0000
0000
,
0001
0000
0000
0000
,
0010
0000
0000
0000
,
0001
0000
0000
0000
,
1000
0000
0010
0000
,
0100
0000
0001
0000
,
1000
0000
0010
0000
,
0100
0000
0001
0000
,
1000
0000
0100
0000
,
1000
0000
0001
0000
,
0100
0000
0001
0000
,
2002
0000
3003
0000
,
1000
0000
0001
0000
,
0100
0000
0010
0000
,
1000
0000
0001
0000
,
1000
0001
1000
0001
,
1000
0000
0010
0000
,
0100
0000
0001
0000
,
1000
0000
0001
0000
,
2002
0000
0000
3003
,
0001
0000
1000
0000
,
0001
0000
1000
0000
,
0001
0000
0100
0000
,
0010
0000
1000
0000
,
0001
0000
1000
0000
,
0001
1000
0001
0000
,
0200
0000
0000
0000
,
0320
0000
0000
0000
,
1030
0000
0001
0000
,
1000
0000
0001
0000
,
1000
0000
0100
0000
,
0010
0000
0001
0000
,
2000
0000
3000
0000
,
0002
0000
0003
0000
,
1000
0000
0001
0000
,
1000
0000
0000
0000
,
0001
0000
1000
0000
,
0001
1000
0001
0000
,
1000
0000
0100
0000
,
1000
0000
0100
0000
,
0010
0000
0001
0000
,
0010
0000
0001
0000
,
1000
0000
0010
0000
,
1000
0000
0010
0000
,
0100
0000
0001
0000
,
0100
0000
0000
0000
,
0001
0000
1000
0000
,
0010
0000
0100
0000
,
0001
0000
0010
0000
,
0100
0000
1000
0000
,
0001
0000
1000
0000
,
0001
0000
0100
0000
,
0010
0000
0100
0000
,
0001
0000
0000
0000
,
2000
0000
0000
3000
,
0002
0000
0000
0003
,
0200
0000
0000
0300
,
0020
0000
0000
0030
,
0000
0000
0000
0000
,
0000
0000
0000
0000
,
1000
0000
0001
0000
,
1000
0000
0001
0000
,
0100
0000
0010
0000
,
1000
0000
0100
0000
,
2000
0000
3000
0000
,
0002
0000
0003
0000
,
1000
0000
0001
0000
,
1000
0000
0000
0000
,
0001
0000
0100
0000
,
0020
0000
0000
0030
,
1000
0000
0010
0000
,
0200
0000
0000
0300
,
0001
0000
0100
0000
,
0010
0100
0010
0100
,
0020
0000
0000
0000
,
0000
0000
0000
1030
;

//---------------dance-single - ----------------
#NOTES:
     dance-single:
     Lisek:
     Medium:
     5:
     0.363589,0.454347,0.215688,0.345101,0.000000,295.000000,270.000000,25.000000,40.000000,0.000000,0.000000,0.363589,0.454347,0.215688,0.345101,0.000000,295.000000,270.000000,25.000000,40.000000,0.000000,0.000000:
0000
0000
0000
0000
,
0000
0000
0000
0000
,
1001
0000
0000
0000
,
1001
0000
0110
0000
,
1001
0000
0000
0000
,
2002
0000
0000
3003
,
1000
0010
0100
0000
,
0001
0100
0010
0000
,
1000
0001
0100
0010
,
1000
0100
0010
0000
,
0001
0001
0001
0000
,
1000
1000
1000
0000
,
0001
0000
0100
0000
,
0001
1000
0010
0000
,
1000
0000
0000
0000
,
0100
0000
0000
0000
,
0010
0000
0001
0000
,
1000
0000
0000
0000
,
0001
0000
0100
0000
,
0010
1000
0001
0100
,
0010
0000
0000
0000
,
0100
0000
0000
0000
,
0010
0000
1000
0000
,
0001
0000
0000
0000
,
1000
0010
0200
0300
,
0001
1000
0020
0030
,
1000
0100
0010
0001
,
2000
3020
0230
0302
,
1003
0001
0020
0030
,
0001
1000
0200
0300
,
1000
0001
0100
0010
,
2002
0000
3003
0000
,
1000
0100
1000
0100
,
0010
0001
0010
0001
,
1000
0010
1000
0010
,
0200
0320
0230
0320
,
1030
0001
1000
0001
,
0100
0010
0100
0010
,
1000
0100
1000
0100
,
1000
0001
2000
3000
,
1001
0000
0110
0000
,
0000
0000
1001
0000
,
1000
0001
1000
0010
,
0100
0001
0010
0000
,
0001
1000
0001
1000
,
0001
1000
1001
0000
,
1000
0000
0010
0000
,
0200
0000
0000
0300
,
1001
0000
0110
0000
,
0000
0000
1001
0000
,
0001
0100
0010
1000
,
0001
0100
0001
0000
,
2000
0000
3010
0000
,
0200
0000
0301
0000
,
1000
0001
1000
0001
,
2002
0000
0000
3003
,
1000
0010
0100
0001
,
1000
0001
1000
0000
,
0001
0010
0100
1000
,
0001
0010
0200
0300
,
1000
0100
0010
0001
,
1000
0100
0020
0031
,
1000
0010
0100
0001
,
1000
0010
0200
0300
,
0001
0100
0010
1000
,
0001
0100
0020
1030
,
0001
0010
0100
0010
,
0001
1000
0010
0100
,
0001
0010
0100
0010
,
0001
1000
0010
0100
,
0020
0130
0200
0310
,
0020
0130
0010
1000
,
0002
0000
2003
0000
,
0001
0001
0001
3001
,
1000
0010
0100
0001
,
1000
0100
2000
0000
,
3001
0100
0010
1000
,
0001
1000
0002
0000
,
2003
0000
3020
0000
,
0230
0000
0000
0300
,
1001
0000
0110
0000
,
0000
0000
1001
0000
,
1000
0001
0100
0010
,
1000
0001
0100
0000
,
0002
0000
0103
0000
,
0020
0000
1030
0000
,
0001
1000
0001
1000
,
2002
0000
0000
3003
,
0001
0100
0010
1000
,
0001
0001
1001
0000
,
1000
0010
0100
0001
,
1000
1000
1001
0000
,
0001
1000
0010
0100
,
0001
1000
0001
1000
,
0110
0000
1001
0000
,
0110
0000
1001
1001
;

//---------------dance-single - ----------------
#NOTES:
     dance-single:
     Lisek:
     Hard:
     8:
     0.565720,0.743478,0.396867,0.345101,0.099217,459.000000,413.000000,46.000000,40.000000,0.000000,0.000000,0.565720,0.743478,0.396867,0.345101,0.099217,459.000000,413.000000,46.000000,40.000000,0.000000,0.000000:
0000
0000
0000
0000
,
0000
0000
0000
0000
,
1000
0000
0010
0000
1000
0001
0100
0000
,
0001
0000
0100
0000
0001
1000
0010
0000
,
1000
0000
0100
0000
1000
0001
0100
0000
,
0001
1000
0010
0100
0002
0000
0003
0000
,
1000
0000
0100
0000
1000
0010
0100
0000
,
0001
0000
0100
0000
0001
1000
0010
0000
,
0100
0000
0000
0100
0010
0000
0000
0000
0010
0000
0000
0010
1000
0000
0000
0000
,
1000
0000
0000
1000
0001
0000
0000
0001
2000
0000
0000
0000
3000
0000
0000
0000
,
0001
0000
0000
0000
0001
0000
0000
0000
0001
0000
0000
0000
0000
0000
0000
1000
,
0100
0100
0100
0000
,
1000
0100
1000
0000
0001
0010
0001
0000
,
0100
0010
1000
0100
0010
0000
0001
1000
,
0010
0000
0100
0000
,
0001
0100
0000
0010
,
0000
1000
0000
0001
,
0200
0000
0300
0000
,
0001
1000
0010
0000
1000
0001
0100
0000
,
0010
1000
0100
0010
0001
0010
0100
1000
,
0001
0000
0100
0000
,
0010
0100
0000
0001
,
0000
1000
0000
0100
,
0020
0000
0030
0000
,
0001
0010
1000
0010
0002
0000
0000
0003
,
1000
0100
0001
0100
2000
0000
0000
3000
,
0001
0100
1000
0100
0001
0000
1000
0000
,
0020
0230
0302
2003
,
3001
0010
1000
0010
0002
0000
0000
0003
,
1000
0100
0001
0100
2000
0000
0001
3000
,
0001
0100
0010
1000
,
0001
0000
1000
0000
0001
0000
2000
0000
0000
3000
0000
0000
,
0001
0010
0000
0100
0000
1000
0000
0001
,
0000
0100
0000
0010
0000
1000
0000
0100
,
0000
0010
0000
0001
0000
1000
0000
0001
,
0100
0010
1000
0001
,
1000
0010
0000
0100
0000
0001
0000
0010
,
0000
0100
0000
1000
0000
0100
0000
0010
,
0000
0001
0000
0100
0000
0010
0000
1000
,
0001
0000
1000
0000
0001
1000
0001
1000
,
0010
0110
0100
0110
,
0010
1000
0001
0100
0010
0000
1001
0000
,
1000
0001
0100
0000
0001
1000
0010
0000
,
1000
0010
0100
0001
0010
0000
0001
0000
,
0101
0110
1010
0110
,
0101
0110
1001
0000
,
0001
1000
0010
0100
0001
0000
0010
0000
,
0001
1000
0100
0010
0001
0010
0100
1000
,
0001
1001
1000
1001
,
0001
1000
0010
0100
0001
0000
1001
0000
,
1000
0100
1000
0001
0100
0000
0010
0000
,
0100
0001
1000
0010
,
0100
0000
0001
0000
0100
0000
0001
0000
0000
0000
0000
0000
,
1000
0000
0010
0000
1000
0000
0010
0000
0000
0000
0000
0000
,
2000
3002
0203
0320
,
2030
0100
0010
3001
,
1000
0100
1000
0100
0010
0001
0010
0001
,
1000
0010
1001
0000
,
1010
0000
0000
0000
,
0101
0000
0011
0000
,
1100
0000
0000
0000
,
1010
0110
0101
0000
,
0011
0000
0000
0000
,
1100
0000
1010
0000
,
0101
0000
0000
0000
,
1001
0110
2002
3003
,
1000
0001
0100
0010
0000
0100
0001
1000
,
0000
0001
0010
0100
0000
1000
0010
0000
,
1000
0010
0100
0001
0000
0100
0000
0010
,
0000
1000
0001
0000
0100
0000
0010
0000
,
1000
0010
1000
0000
0001
0100
0001
0000
,
1000
0001
1000
0000
0001
0000
0100
0000
,
0002
1000
0010
0100
,
0010
1000
0100
1003
,
0002
0000
2003
0000
3010
0100
0020
0030
,
2000
3002
2003
3000
,
0002
0000
0203
0000
0301
0100
0002
0003
,
1000
0010
0100
0001
2000
0000
0000
0000
,
3001
0000
0010
0000
0100
0000
1000
0000
0010
0000
0100
0000
,
0001
0000
1000
0000
0100
0000
0010
0000
0001
0000
1000
0000
,
0001
0101
1000
1010
,
0010
0100
0001
1001
,
1000
0010
0100
0010
1000
0000
0001
0000
,
0100
0010
1000
0001
,
1000
0000
0010
0000
0100
0000
0001
0000
0000
0000
0000
0000
,
1000
0000
0100
0000
0010
0000
0001
0000
0000
0000
0000
0000
,
2000
3200
0320
0032
,
2003
0001
0100
3001
,
1000
0010
0100
0000
0001
0100
0010
0000
,
1010
0101
2002
3003
,
0001
1000
0010
0000
0100
0001
1000
0000
,
1100
0011
2002
3003
,
0001
0100
0010
1000
0100
0010
0001
1000
,
1010
0101
0011
1100
,
1001
0100
1001
0100
,
1001
0100
1001
1001
;
