#TITLE:恋愛観測;
#SUBTITLE:;
#ARTIST:NU-KO;
#TITLETRANSLIT:Renaikansoku;
#SUBTITLETRANSLIT:;
#ARTISTTRANSLIT:;
#GENRE:;
#CREDIT:skdn;
#BANNER:[Unenglish] - Renaikansoku.png;
#BACKGROUND:[Unenglish] - Renaikansoku-bg.png;
#LYRICSPATH:;
#CDTITLE:;
#MUSIC:[Unenglish] - Renaikansoku.mp3;
#OFFSET:-1.012000;
#SAMPLESTART:32.357521;
#SAMPLELENGTH:12.000000;
#SELECTABLE:YES;
#BPMS:0.000000=188.000000
;
#STOPS:
;
#BGCHANGES:;
#KEYSOUNDS:;
#ATTACKS:;

//---------------dance-single - ----------------
#NOTES:
     dance-single:
     :
     Hard:
     8:
     0.563466,0.596245,0.435460,0.301472,0.033497,383.000000,52.000000,36.000000,0.000000,0.000000,0.000000,0.563466,0.596245,0.435460,0.301472,0.033497,383.000000,52.000000,36.000000,0.000000,0.000000,0.000000:
// measure 0
0000
0000
0000
0000
,  // measure 1
0000
0000
0000
0000
,  // measure 2
0000
0000
0000
0000
,  // measure 3
0000
0000
0000
0000
,  // measure 4
0001
0000
0101
0000
0001
0100
0001
0100
,  // measure 5
0000
1010
0000
1010
0000
0000
0000
0000
,  // measure 6
1000
0100
0010
0100
1000
0100
0010
0001
,  // measure 7
0000
0010
0100
0010
0000
0001
1000
0100
,  // measure 8
0000
0000
0110
0000
0110
0000
0000
0100
,  // measure 9
0000
0100
1000
0100
0000
1000
0001
0100
,  // measure 10
0000
0000
1001
0000
1001
0000
0000
0001
,  // measure 11
0000
0001
0010
0001
0000
0100
0010
1000
,  // measure 12
0000
0000
1010
0000
1010
0000
0000
0100
,  // measure 13
0020
0000
0130
0200
0000
0000
0300
0010
,  // measure 14
0000
0100
0010
0100
0000
0010
1000
0200
,  // measure 15
0000
0010
0010
0310
,  // measure 16
0001
0010
0100
1000
0001
0010
0100
0010
,  // measure 17
0100
0000
0000
0100
0000
0010
0000
1000
,  // measure 18
0000
1100
0000
2200
0000
0000
3300
0000
,  // measure 19
0010
0000
0000
0010
0000
0100
0000
0001
,  // measure 20
0000
0101
0000
0202
0000
0000
0303
0000
,  // measure 21
1000
0000
0000
0000
0000
0000
0100
0000
0000
0000
0010
0000
0000
0100
0010
0000
,  // measure 22
0000
1000
0000
0001
0000
1001
0000
0200
,  // measure 23
0000
0000
0000
0300
,  // measure 24
0100
0010
0100
0002
0000
1003
0001
1000
,  // measure 25
1001
0000
0101
0000
0001
0100
0010
1000
,  // measure 26
0000
1010
0000
0000
1000
0001
0100
0001
,  // measure 27
1000
0000
1000
2000
0000
0000
3000
0000
,  // measure 28
0100
0000
0101
0000
1010
0000
0010
0100
,  // measure 29
0000
0100
0010
0100
0000
1000
0001
0010
,  // measure 30
0000
0000
0000
0010
0010
0000
0010
0000
,  // measure 31
0001
0000
1000
1002
0000
0000
0000
0000
,  // measure 32
0003
0000
0100
0000
0010
1000
0100
1000
,  // measure 33
1001
0000
1010
0000
1000
0010
0100
0001
,  // measure 34
0000
0101
0000
0000
1000
0100
0001
0000
,  // measure 35
0100
0000
0100
0200
0000
0000
0000
0300
,  // measure 36
0010
0000
1010
0000
0101
0000
0010
0100
,  // measure 37
0000
0100
0010
1000
0000
0001
0100
0020
,  // measure 38
0000
0030
0100
0001
,  // measure 39
0100
0010
0100
1010
,  // measure 40
0200
0000
0000
0300
0020
0000
0030
0000
,  // measure 41
0100
0001
0100
0100
0000
0010
0000
1010
,  // measure 42
0000
0100
0000
0101
0000
1000
0010
0100
,  // measure 43
0010
1000
0010
0010
0000
0100
0000
0101
,  // measure 44
0000
0010
0000
1010
0000
0001
0100
0001
,  // measure 45
0200
0000
0010
0000
0310
0000
1000
0002
,  // measure 46
1000
0100
0103
0100
,  // measure 47
0010
0100
0010
0010
0000
0110
0000
0110
,  // measure 48
0000
0100
0010
0000
0010
1000
0000
0001
,  // measure 49
0010
0001
1000
0002
0000
0000
0003
0000
,  // measure 50
0001
0100
0010
1000
0010
0100
0001
0100
,  // measure 51
0000
0000
0010
0000
0000
0010
0000
0000
0010
0000
1000
0000
0001
0000
1000
0000
,  // measure 52
1000
0010
0100
0001
0100
0010
1000
0010
,  // measure 53
0000
0000
0100
0000
0000
0100
0000
0000
0100
0000
0001
0000
1000
0000
0001
0000
,  // measure 54
0001
0000
0000
0010
0000
0000
0100
0000
1000
0000
0100
0000
0010
0000
0001
0000
,  // measure 55
0010
0100
1000
0010
1000
0100
0010
0001
,  // measure 56
0010
0000
0000
0100
0000
0000
0010
0000
0001
0000
0000
1000
0000
0000
0010
0000
,  // measure 57
0100
0000
0000
0001
0000
0000
0100
0000
0010
0000
0000
1000
0000
0000
0001
0000
,  // measure 58
1000
0000
0000
0101
0000
0000
1001
0000
,  // measure 59
2002
0000
0000
0000
0000
3003
0000
0000
0000
0000
0100
0000
0001
0000
0100
0000
,  // measure 60
0110
0000
0101
0000
0000
0000
0000
0110
,  // measure 61
0000
1010
0000
0000
1000
0010
1000
0000
,  // measure 62
0001
0000
0001
0002
0000
0000
0003
0000
,  // measure 63
0010
1000
0010
0000
0100
0000
0100
0001
,  // measure 64
0000
0001
0100
0001
0000
0010
1000
0200
,  // measure 65
0000
0000
0300
0010
0100
0001
0010
0001
,  // measure 66
2000
0000
0000
3002
0000
0000
0203
0000
,  // measure 67
0000
0320
0000
0000
0030
1000
0100
0010
,  // measure 68
0110
0000
0110
0000
1000
0010
0001
0010
,  // measure 69
0000
0011
0000
0000
0010
0000
1000
0000
,  // measure 70
0001
0000
0100
0200
0000
0000
0000
0300
,  // measure 71
0100
0110
0011
0010
,  // measure 72
0000
0010
0100
0100
0000
0100
0010
0020
,  // measure 73
0000
0000
0000
0030
1000
0000
0100
0000
,  // measure 74
0001
0100
1000
1100
,  // measure 75
0002
0000
0023
0000
,  // measure 76
0031
0011
0000
0100
0000
0101
0000
0100
,  // measure 77
0000
1010
0000
0200
0000
0000
0300
0000
,  // measure 78
0001
0100
0001
0100
0010
1000
0010
1000
,  // measure 79
0200
0000
0302
0000
,  // measure 80
0203
0001
0000
0001
,  // measure 81
0000
0000
0001
0000
0000
0000
0001
0300
,  // measure 82
0001
1000
0001
0001
0000
1100
0000
0110
,  // measure 83
0000
0110
0000
0011
0000
0001
0010
0001
,  // measure 84
0100
0010
1000
0010
0100
0001
0100
0010
,  // measure 85
1000
0001
0100
0001
1000
0100
0010
0001
,  // measure 86
0020
0000
0000
0000
0000
0000
0000
0002
,  // measure 87
0000
0000
0000
0000
,  // measure 88
0000
0000
0000
0000
,  // measure 89
0033
0000
0000
0000
;

//---------------dance-single - ----------------
#NOTES:
     dance-single:
     :
     Medium:
     6:
     0.366073,0.409918,0.083742,0.150736,0.000000,278.000000,10.000000,18.000000,0.000000,0.000000,0.000000,0.366073,0.409918,0.083742,0.150736,0.000000,278.000000,10.000000,18.000000,0.000000,0.000000,0.000000:
0000
0000
0000
0000
,
0000
0000
0000
0000
,
0000
0000
0000
0000
,
0000
0000
0000
0000
,
0001
0100
0010
1000
,
0100
0000
0010
0000
0100
0010
0100
0000
,
1000
0010
0100
0001
,
0010
0000
0100
0000
0010
0100
0010
0100
,
0000
1000
0010
0000
,
0001
0000
0100
0000
0010
0100
0010
0100
,
0000
0001
0100
0000
,
0010
0000
0100
0000
1000
0001
1000
0001
,
0000
0100
0010
0000
,
0001
0100
0001
1000
,
0001
0100
0010
0100
,
0002
0000
0000
0000
,
0103
0000
0010
0000
0100
0001
0100
0001
,
0100
0000
0000
0010
0000
0100
0000
0010
,
0000
0100
0000
1000
0000
0000
0000
0000
,
1000
0000
0000
0001
0000
1000
0000
0001
,
0000
1000
0000
0010
0000
0000
0000
0000
,
0010
0000
0000
0010
0000
1000
0000
0010
,
0000
0100
0000
0100
0000
0100
0000
0020
,
0000
0000
0000
0000
0000
0000
0000
0030
,
0100
0000
0000
0110
0000
0000
1000
0000
,
0100
0000
0100
0000
0001
0000
0010
0100
,
0000
0100
0000
0000
1000
0000
0010
0000
,
0010
0000
0100
0200
0000
0000
0000
0300
,
0010
0000
1000
0000
0001
0000
0100
0001
,
0000
0000
0100
0010
0000
0000
0010
1000
,
0000
0001
0100
0001
,
0100
0000
0010
2000
0000
0000
0000
3000
,
0001
0001
1000
0001
,
0010
0000
0010
0000
1000
0000
0100
0010
,
0000
0010
0000
0000
0100
0000
1000
0000
,
0001
0000
0100
0020
0000
0000
0000
0030
,
0100
0000
0110
0000
1000
0000
0001
0100
,
0000
0000
0010
0100
0000
0000
1000
0020
,
0000
0000
0000
0030
0010
0000
1000
0000
,
0001
0001
1000
0001
,
0100
0000
0010
0000
,
0110
0100
0001
0100
,
0001
0100
0010
1000
,
0010
0100
0001
1000
,
0001
1000
0001
0100
,
0200
0000
0000
0000
0000
0300
0000
0020
,
0000
0000
0000
0000
0000
0030
0000
0000
,
0100
0000
0010
0000
0110
0000
0000
0100
,
0000
0000
0010
0000
0000
0100
0000
0000
,
0001
0100
0001
1000
,
0001
0000
0100
0000
0001
0100
0001
0100
,
0000
1000
0001
0100
,
1000
0000
0010
0000
1000
0010
1000
0010
,
0000
0100
1000
0010
,
0100
0001
0010
0001
,
0100
0000
1000
0001
1000
0001
1000
0000
,
0001
0100
0101
0000
,
1000
0010
1010
0000
,
0001
0000
0000
0100
0000
0000
0010
0000
,
0200
0000
0000
0000
0000
0000
0000
0300
,
0010
0000
0010
0000
0000
0000
0000
0100
,
0000
0100
0000
0000
0001
0000
0010
0000
,
0010
0100
0100
0000
,
0100
1000
0100
0010
,
0100
0000
0001
0000
0100
0000
0010
0200
,
0000
0000
0000
0300
0010
0000
0100
0000
,
0010
0000
0000
1000
0000
0000
0001
0000
,
0000
0100
0000
0000
0100
0000
0010
0000
,
0100
0000
0010
0000
1000
0000
0001
0100
,
0000
0100
0000
0000
0100
0000
0100
0000
,
0001
0000
0100
0020
0000
0000
0030
0000
,
0010
0000
1000
0000
0010
0000
0100
0010
,
0000
0000
0010
0100
0000
0000
0100
0020
,
0000
0000
0000
0030
0100
0000
0001
0000
,
0100
0010
1000
0100
,
0010
0000
0100
0000
,
2000
0000
0000
3000
,
0001
0000
0010
0000
,
0001
0010
0100
0010
,
0002
0000
0000
0003
0020
0000
0000
0030
,
2000
0000
0000
0000
,
0000
0000
0000
0000
0000
0000
0000
3000
,
0001
0010
0100
1000
,
0100
0010
0001
0010
,
0100
0000
0110
0000
,
0110
0000
0101
1001
,
0002
0000
0000
0000
0000
0000
0000
2003
,
0000
0000
0000
0000
,
0000
0000
0000
0000
,
3000
0000
0000
0000
;

//---------------dance-single - ----------------
#NOTES:
     dance-single:
     :
     Easy:
     4:
     0.252423,0.298122,0.066994,0.142362,0.000000,186.000000,8.000000,17.000000,0.000000,0.000000,0.000000,0.252423,0.298122,0.066994,0.142362,0.000000,186.000000,8.000000,17.000000,0.000000,0.000000,0.000000:
0000
0000
0000
0000
,
0000
0000
0000
0000
,
0000
0000
0000
0000
,
0000
0000
0000
0000
,
1000
0000
0001
0000
,
0100
0000
0010
0000
,
0100
0000
0001
0000
,
0100
0000
1000
0000
,
0100
0010
0010
0000
,
1000
0000
0001
0000
,
0010
0100
0100
0000
,
0001
0000
1000
0000
,
0100
0001
0001
0000
,
1000
0000
0010
0000
,
0001
0001
1000
1000
,
0020
0000
0000
0030
,
1001
0000
0001
1000
,
1001
0000
0001
0000
,
0100
0000
0010
0010
,
0110
0000
1000
0000
,
0001
0000
0100
0100
,
0110
0000
0100
0000
,
0010
0000
0001
0100
,
0200
0000
0000
0000
,
0000
0000
0000
0300
,
0010
0000
0010
0000
0000
0000
0000
0100
,
0000
0100
0000
0000
1000
0000
0001
0000
,
1000
0010
0100
0000
,
0100
0100
0001
0001
,
1000
0000
0100
0000
,
0001
0000
0100
0010
,
0100
0001
0200
0000
,
0300
0000
0000
0000
,
0010
0000
0010
0000
0000
0000
0000
0100
,
0000
0100
0000
0000
0001
0000
1000
0000
,
0001
0010
0100
0000
,
0001
0100
0001
0100
,
0010
0000
0000
0000
1000
0000
0000
0020
,
0000
0000
0000
0000
0000
0030
0000
0000
,
0001
0000
0010
0000
,
1000
0000
0001
0000
,
0220
0000
0000
0330
,
0100
0010
0100
0000
,
0001
0010
0001
0000
,
0100
1000
0100
0100
,
0200
0000
0000
0000
0000
0000
0300
0020
,
0000
0000
0000
0000
0000
0000
0000
0030
,
1000
0001
0100
0000
,
0001
1000
0010
0000
,
1000
0010
1000
0010
,
0010
0010
0100
0100
,
0001
0000
0101
0000
,
1000
1000
0001
0001
,
0100
0000
1100
0000
,
1000
0000
0010
0000
,
1000
0001
0100
0010
,
0200
0000
0000
0300
,
0020
0000
0000
0030
,
2000
0000
0000
3000
,
0002
0000
0000
0003
,
1000
0000
1000
0000
0000
0000
0000
0010
,
0000
0010
0000
0000
0000
0000
0000
0000
,
0001
0000
0001
0000
,
1000
0000
1000
0000
,
0010
0000
0010
0000
,
0100
0000
0100
0000
,
0002
0000
0000
0000
,
2003
0000
0000
0000
,
3010
0000
0010
0000
0000
0000
0000
0001
,
0000
0001
0000
0000
0100
0000
0000
0000
,
0010
0001
0100
0000
,
1000
0010
0100
0010
,
0100
0000
0001
0000
,
1001
0000
1000
0001
,
0100
0000
0001
0000
,
1000
0000
0001
0000
,
0200
0000
0000
0000
,
0000
0000
0000
0000
,
0301
0001
0010
0010
,
1000
0000
0001
0000
,
0200
0000
0000
0000
,
0000
0000
0000
0000
,
0300
0010
0000
0010
,
0000
0100
0000
0100
,
0100
0000
0001
0000
,
0100
0000
0010
0000
,
1000
0000
0000
0000
0000
0000
0000
0002
,
0000
0000
0000
0000
,
0000
0000
0000
0000
,
0003
0000
0000
0000
;
