#TITLE:Electric "Sister" Bitch;
#SUBTITLE:;
#ARTIST:t+pazolite;
#TITLETRANSLIT:;
#SUBTITLETRANSLIT:;
#ARTISTTRANSLIT:;
#GENRE:;
#CREDIT:;
#BANNER:Electric Sister Bitch.jpg;
#BACKGROUND:Electric Sister Bitch-bg.jpg;
#LYRICSPATH:;
#CDTITLE:cdtitle.png;
#MUSIC:Electric Sister Bitch.ogg;
#OFFSET:-0.525000;
#SAMPLESTART:35.551998;
#SAMPLELENGTH:12.000000;
#SELECTABLE:YES;
#DISPLAYBPM:185.000000;
#BPMS:0.000000=185.000000
,40.000000=92.500000
,56.000000=185.000000
,125.000000=92.500000
,127.000000=185.000000
,131.000000=92.500000
,133.000000=185.000000
,149.000000=46.250000
,149.500000=92.500000
,150.000000=185.000000
,231.000000=92.500000
,233.000000=185.000000
,265.000000=92.500000
,265.750000=370.000000
,266.500000=92.500000
,267.500000=185.000000
,271.500000=92.500000
,273.000000=185.000000
;
#STOPS:88.000000=0.973000,
149.000000=1.297000
;
#BGCHANGES:;
#KEYSOUNDS:;
#ATTACKS:;

//---------------dance-single - ----------------
#NOTES:
     dance-single:
     :
     Hard:
     10:
     0.727602,0.926118,0.294006,0.077825,0.605306,546.000000,34.000000,9.000000,0.000000,0.000000,0.000000,0.727602,0.926118,0.294006,0.077825,0.605306,546.000000,34.000000,9.000000,0.000000,0.000000,0.000000:
0000
0000
0000
0000
,
0000
0000
0000
0000
,
1000
0010
0001
0010
1000
0010
0001
0010
,
1000
0010
0001
0010
0100
0100
0001
0001
,
0010
0100
0010
0001
0010
0100
0010
0001
,
0010
0100
0010
0001
0100
0100
0010
0010
,
1000
0100
0001
0100
1000
0100
0001
0100
,
1000
0100
0001
0100
1000
1000
0010
0010
,
0100
0001
0100
0010
0100
0001
0100
0010
,
0110
0000
0000
1010
0000
0000
1001
0000
1001
0000
0000
0000
0001
0000
0010
0000
,
0110
0000
0100
0000
0100
0000
0000
0000
1000
0000
0000
0010
0000
0000
0100
0000
0000
0010
0000
0000
1000
0000
0100
0000
0010
0000
0001
0000
0000
0001
0000
0000
,
0100
0000
0010
0000
0010
0000
0000
0000
1000
0000
0000
0001
0000
0000
0010
0000
0000
0100
0000
0000
0010
0000
0001
0000
0100
0000
0010
1000
0000
1000
0100
0000
,
0010
0000
0001
0000
0001
0000
0000
0000
0100
0000
0000
0010
0000
0000
1000
0000
0000
0100
0000
0000
0010
0000
0001
0000
1000
0000
0010
0100
0000
0001
0010
0000
,
0100
0000
1000
0000
1000
0000
0000
0000
0010
0000
0000
0100
0000
0000
0001
0000
0000
0010
0000
0000
0100
0000
0010
0001
0000
1000
0010
0000
0100
0000
0100
0000
,
0101
0000
0000
0001
0000
0000
1000
0000
0000
1000
0000
0000
0010
0000
0001
0000
,
0010
0000
0000
0010
0000
0000
1000
0000
0000
1000
0000
0000
0100
0000
0001
0000
,
0100
0000
0000
0100
0000
0000
0010
0000
0000
0010
0000
0000
0001
0000
0100
0000
,
1000
0000
0000
1000
0000
0000
0100
0000
0000
0100
0000
0000
0001
0000
0010
0000
,
0100
0000
0000
0100
0000
0000
1000
0000
0000
1000
0000
0000
0010
0000
0001
0000
,
0010
0000
0000
0010
0000
0000
0100
0000
0000
0100
0000
0000
0010
0000
1000
0000
,
0001
0000
0000
0001
0000
0000
0010
0000
0000
0010
0000
0000
0100
0000
1000
0000
,
0100
0010
0100
1000
0100
0001
0100
1000
,
0020
0000
0000
0000
0130
0001
0000
0100
0010
0000
0100
0001
0000
0010
0100
0000
,
1000
0000
0001
0000
1000
0010
0000
0100
0010
0000
1000
0010
0000
0100
0001
0000
,
0010
0000
1000
0000
0010
0001
0000
0010
1000
0000
0010
0001
0000
0010
0100
0000
,
1000
0000
0001
0000
0100
0000
0000
0100
0000
0000
0001
0000
0000
0001
0000
0000
,
0010
0000
0100
0000
1000
0001
0000
1000
0010
0000
1000
0001
0000
0010
0100
0000
,
1000
0000
0001
0000
0010
0100
0000
0010
0001
0000
0010
0100
0000
1000
0010
0000
,
0100
0000
0001
0000
0100
0010
0000
0100
0001
0000
0100
0010
0000
1000
0100
0000
,
0010
0000
0001
0000
0010
0000
0000
0010
0000
0000
0100
0000
0000
0100
0000
0000
,
1000
0000
0001
0000
1000
0010
0000
1000
0100
0000
1000
0010
0000
0100
0001
0000
,
0010
0000
0100
0000
2000
0000
0000
0000
0000
0000
0000
0000
3010
0100
0000
0010
,
1000
0000
0010
0100
0000
0001
0010
0000
0100
0000
1000
0000
0200
0000
0000
0000
,
0000
0000
0000
0000
0310
0001
0000
0010
0100
0000
0010
0001
0000
0100
0010
0000
,
1000
0000
0100
0000
1000
0010
0000
1000
0001
0000
1000
0100
0000
0010
0001
0000
,
0100
0010
0100
0100
0001
0001
1000
1000
,
0100
0000
0100
0000
0110
0000
0000
0011
0000
0000
1001
0000
0000
1010
0000
0000
,
0110
0010
2020
0000
0030
0000
3001
0000
,
1000
0001
0000
0100
1000
0100
0010
1000
,
0010
0001
0010
0100
0001
0000
1000
0000
,
0010
1000
0000
0100
0001
0100
1000
0010
,
1000
0001
1000
0100
1000
0000
0001
0000
,
0010
0001
0000
0100
1000
0100
0001
0010
,
0001
1000
0001
0100
0001
0000
0010
0000
,
0100
0010
0000
0001
0100
1000
0000
0000
,
0100
0010
1000
0100
,
1000
0100
0000
0010
0100
0010
0001
0001
,
1000
1000
0100
0100
0010
0010
0001
0000
,
1000
0001
0000
0100
1000
0100
0000
0100
,
0000
0100
0000
0000
0001
0000
0000
0001
0000
0000
0010
0000
0100
0000
0000
0000
,
1000
0100
0000
0010
1000
0010
0001
0100
,
1000
0100
0010
1000
0100
0010
0001
0000
,
1000
0001
0000
0100
0000
0101
0000
0001
,
0010
0110
0100
1001
,
0001
0100
0000
1000
0100
0010
1010
0000
,
1000
0000
0001
0000
0000
0000
0010
0000
0000
0100
0000
0000
0110
0000
0000
0000
,
0100
1000
0010
0100
0001
0010
1000
0010
,
0001
0010
1000
0010
0001
0100
2000
0000
,
0000
0000
0000
0000
3100
0000
0000
0100
0000
0000
0001
0000
0000
0000
0001
0000
,
0010
0000
0000
0000
0100
1000
0000
0100
0010
0000
0100
1000
0000
0010
0100
0000
,
0001
0000
1000
0000
0001
0000
0000
0001
0000
0000
0100
0000
0000
0100
0000
0000
,
0010
0000
1000
0000
0010
0100
0000
0010
1000
0000
0010
0100
0000
0001
0010
0000
,
0100
0000
1000
0000
0001
0010
0000
0001
1000
0000
0001
0010
0000
0100
1000
0000
,
0010
0000
0010
0000
0100
0001
0000
0100
0010
0000
0100
0001
0000
1000
0010
0000
,
0100
0000
0000
0000
0101
0000
0000
0110
0000
0000
1010
0000
0000
1001
0000
0000
,
0001
0000
1000
0000
0010
0100
0000
0010
1000
0000
0010
0100
0000
0001
0010
0000
,
0100
0000
1000
0000
0002
0000
0000
0000
0000
0000
0000
0000
0000
0000
1003
0010
,
0000
1000
0100
0000
1000
0010
0000
0100
0001
0000
0010
0000
0100
0000
2000
0000
,
0000
0000
0000
0000
0000
0000
0000
0000
3010
0100
0000
0001
0010
0000
0100
1000
,
0000
0010
0100
0000
0001
0000
1000
0000
0001
0100
0000
0010
1000
0000
0100
0010
,
0000
0001
0100
0000
0010
1000
0000
0000
1001
0000
0001
0000
0100
0000
0001
0000
,
0010
0000
0100
0000
0010
0000
0100
0000
1100
0000
0000
1010
0000
0000
0110
0000
,
0000
0101
0000
0000
0011
0000
0010
0000
0110
0000
0000
1100
0000
0000
1001
0000
,
0000
0101
0000
0000
0110
0000
0010
0000
1010
0000
1000
0000
0001
0000
0100
0000
,
0110
0010
1000
0001
2000
0000
0000
0000
,
0000
0000
0000
0000
,
0000
0000
3000
0000
;

//---------------dance-single - ----------------
#NOTES:
     dance-single:
     :
     Medium:
     8:
     0.548481,0.793815,0.077825,0.095120,0.441009,424.000000,9.000000,11.000000,0.000000,0.000000,0.000000,0.548481,0.793815,0.077825,0.095120,0.441009,424.000000,9.000000,11.000000,0.000000,0.000000,0.000000:
0000
0000
0000
0000
,
0000
0000
0000
0000
,
1000
0010
0001
0000
0001
0010
0100
0000
,
0100
0001
0010
0100
1000
1000
0001
0001
,
1000
0100
0001
0000
0001
0100
0010
0000
,
0010
0001
1000
0010
0100
0100
0001
0001
,
0010
0100
1000
0000
1000
0100
0001
0000
,
0001
0100
0010
0001
1000
1000
0010
0010
,
0100
0001
0100
0001
1000
0010
1000
0010
,
0110
0000
0000
0101
0000
0000
1001
0000
1001
0000
0000
0000
0110
0000
0000
0000
,
1010
0000
0010
0000
0100
0000
0000
0000
0010
0000
0000
1000
0000
0000
0010
0000
0000
0100
0000
0000
0001
0000
0010
0000
0100
0000
0000
0010
0000
0000
0100
0000
,
0000
0000
1000
0000
0001
0000
0000
0000
0100
0000
0000
0001
0000
0000
1000
0000
0000
0100
0000
0000
0010
0000
0001
0000
0010
0000
0000
0100
0000
0000
1000
0000
,
0000
0000
0001
0000
0100
0000
0000
0010
0000
0000
1000
0000
0000
0100
0000
0000
0010
0000
0000
0000
0001
0000
0100
0000
0010
0000
0000
1000
0000
0000
0010
0000
,
0000
0000
1000
0000
0001
0000
0000
0010
0000
0000
0100
0000
0000
1000
0000
0000
0010
0000
0000
0100
0000
0000
0010
0000
0000
1000
0000
0000
0001
0000
0000
0000
,
0100
0000
0000
0010
0000
0000
0100
0000
0000
0001
0000
0000
1000
0000
0001
0000
,
1000
0000
0000
0100
0000
0000
1000
0000
0000
0010
0000
0000
0100
0000
0001
0000
,
1000
0000
0000
0010
0000
0000
1000
0000
0000
0001
0000
0000
0100
0000
0001
0000
,
0010
0000
0000
0100
0000
0000
0010
0000
0000
0001
0000
0000
0100
0000
0010
0000
,
1000
0000
0000
0001
0000
0000
1000
0000
0000
0100
0000
0000
0010
0000
0001
0000
,
0100
0000
0000
0010
0000
0000
0100
0000
0000
0001
0000
0000
0010
0000
0100
0000
,
1000
0000
0000
0100
0000
0000
1000
0000
0000
0001
0000
0000
1000
0000
0010
0000
,
0200
0000
0000
0000
,
0000
0000
0000
0000
0310
0000
0000
0010
0000
0000
1000
0000
0000
1000
0000
0000
,
0001
0000
0010
0000
0100
0000
0000
0100
0000
0000
1000
0000
0000
1000
0000
0000
,
0010
0000
1000
0000
0010
0000
0000
0010
0000
0000
0100
0000
0000
0100
0000
0000
,
0001
0000
0010
0000
1000
0000
0000
0010
0000
0000
0001
0000
0000
0010
0000
0000
,
0100
0000
1000
0000
0001
0000
0000
0001
0000
0000
0100
0000
0000
0100
0000
0000
,
0010
0000
1000
0000
0001
0000
0000
0001
0000
0000
1000
0000
0000
1000
0000
0000
,
0010
0000
1000
0000
0100
0000
0000
0100
0000
0000
0010
0000
0000
0010
0000
0000
,
0002
0000
0000
0000
0103
0000
0000
0100
0000
0000
0100
0000
0000
0100
0000
0000
,
0100
0000
0001
0000
1000
0000
0000
1000
0000
0000
0010
0000
0000
0010
0000
0000
,
0100
0000
0001
0000
2000
0000
0000
0000
0000
0000
0000
0000
3010
0000
0000
0010
,
0000
0000
0100
0000
0000
0100
0000
0000
0001
0000
0010
0000
0200
0000
0000
0000
,
0000
0000
0000
0000
1300
0000
0000
1000
0000
0000
0001
0000
0000
0001
0000
0000
,
1000
0000
0100
0000
0010
0000
0000
0010
0000
0000
0001
0000
0000
0001
0000
0000
,
1000
0000
0010
0000
0100
0000
0000
0100
0000
0000
0010
0000
0000
0010
0000
0000
,
1000
0000
0001
0000
1000
0000
0000
1000
0000
0000
1000
0000
0000
1000
0000
0000
,
1000
0001
0020
0000
0000
0000
0130
0000
,
1000
0001
0000
0100
0001
0010
0100
0000
,
1000
0001
1000
0010
,
0100
0001
0000
1000
0010
0100
0010
0000
,
1000
0001
0000
0100
,
0010
1000
0000
0100
0010
0001
1000
0000
,
0010
1000
0100
0010
,
0001
1000
0000
0010
1000
0010
0000
0000
,
0100
0001
0000
0010
,
0100
1000
0000
0010
0100
0001
0000
0000
,
1000
0001
0100
0010
,
1000
0001
0000
0010
0100
0010
0000
0010
,
0000
0010
0000
0000
0100
0000
0000
0100
0000
0000
0100
0000
1000
0000
0000
0000
,
0001
0010
0000
0100
1000
0001
1000
0000
,
0010
0100
0001
0010
,
0100
1000
0000
0010
0100
0001
1000
0100
,
0010
1001
0000
0001
,
1000
0010
0000
0100
0000
0100
0101
0000
,
0001
0000
0010
0000
0000
0000
0100
0000
0000
1000
0000
0000
1001
0000
0000
0000
,
0001
0100
0001
0010
0001
1000
0100
0010
,
0001
0100
0010
1000
0100
0010
0002
0000
,
0000
0000
0000
0000
0013
0000
0000
0010
0000
0000
0100
0000
0000
0100
0000
0000
,
2000
0000
0000
0000
3001
0000
0000
0001
0000
0000
0100
0000
0000
0100
0000
0000
,
0010
0000
1000
0000
0001
0000
0000
0001
0000
0000
0010
0000
0000
0010
0000
0000
,
0100
0000
1000
0000
0001
0000
0000
0001
0000
0000
1000
0000
0000
1000
0000
0000
,
0001
0000
0010
0000
0100
0000
0000
0100
0000
0000
1000
0000
0000
1000
0000
0000
,
0010
0000
0100
0000
0001
0000
0000
0001
0000
0000
0010
0000
0000
0010
0000
0000
,
0200
0000
0000
0000
1300
0000
0000
1000
0000
0000
1000
0000
0000
1000
0000
0000
,
1000
0000
0001
0000
0010
0000
0000
0010
0000
0000
0100
0000
0000
0100
0000
0000
,
1000
0001
0200
0000
0000
0000
0000
0310
,
0000
0010
0000
0000
1000
0000
0000
1000
0000
0000
0001
0000
0100
0000
0020
0000
,
0000
0000
0000
0000
0000
0000
0000
0000
1030
0000
0000
1000
0000
0000
0100
0000
,
0000
0100
0000
0000
0010
0000
0001
0000
0010
0000
0000
0010
0000
0000
0100
0000
,
0000
0100
0000
0000
1000
0000
0001
0000
0100
0000
0000
0100
0000
0000
0010
0000
,
0000
0010
0000
0000
1000
0000
0100
0000
0010
0000
0000
0010
0000
0000
0010
0000
,
0000
0010
0000
0000
0010
0000
0001
0000
0100
0000
0000
0100
0000
0000
0100
0000
,
0000
0100
0000
0000
0100
0000
0001
0000
1000
0000
0010
0000
1000
0000
0001
0000
,
0100
0001
0010
0100
2000
0000
0000
0000
,
0000
0000
0000
0000
,
0000
0000
3000
0000
;

//---------------dance-single - ----------------
#NOTES:
     dance-single:
     :
     Easy:
     5:
     0.387890,0.463059,0.008647,0.086472,0.077825,303.000000,1.000000,10.000000,0.000000,0.000000,0.000000,0.387890,0.463059,0.008647,0.086472,0.077825,303.000000,1.000000,10.000000,0.000000,0.000000,0.000000:
// measure 0
0000
0000
0000
0000
,  // measure 1
0000
0000
0000
0000
,  // measure 2
1000
0001
1000
0001
,  // measure 3
1000
0001
0100
0100
,  // measure 4
0010
1000
0010
1000
,  // measure 5
0010
1000
0001
0001
,  // measure 6
0010
0100
0010
0100
,  // measure 7
0010
0100
1000
1000
,  // measure 8
0001
0100
0001
0100
0010
1000
0010
1000
,  // measure 9
0100
0000
0000
0010
0000
0000
0001
0000
0100
0000
0000
0000
0010
0000
0000
0000
,  // measure 10
1010
1000
0100
0010
,  // measure 11
0001
0100
0010
1000
,  // measure 12
0100
0001
0100
1000
,  // measure 13
0010
0100
0010
1000
,  // measure 14
0001
0000
0000
0100
0000
0000
0001
1000
,  // measure 15
0010
0000
0000
0100
0000
0000
0010
1000
,  // measure 16
0001
0000
0000
0010
0000
0000
0100
1000
,  // measure 17
0010
0000
0000
1000
0000
0000
0001
1000
,  // measure 18
0001
0000
0000
0100
0000
0000
0010
1000
,  // measure 19
0100
0000
0000
1000
0000
0000
0100
0010
,  // measure 20
0001
0000
0000
0100
0000
0000
0010
1000
,  // measure 21
0002
0000
0000
0000
,  // measure 22
0000
0000
1003
0000
0000
0010
0000
0000
,  // measure 23
0100
0010
0100
0000
0000
0001
0000
0000
,  // measure 24
0010
0100
0010
0000
0000
0100
0000
0000
,  // measure 25
1000
0001
1000
0000
0000
0010
0000
0000
,  // measure 26
0100
0001
0100
0000
0000
0010
0000
0000
,  // measure 27
1000
0100
1000
0000
0000
0100
0000
0000
,  // measure 28
0010
0001
0010
0000
0000
0100
0000
0000
,  // measure 29
2000
0000
0000
0000
3010
0000
0000
0100
0000
0000
0010
0000
0000
1000
0000
0000
,  // measure 30
0100
0010
0001
0000
0000
1000
0000
0000
,  // measure 31
0100
1000
0020
0000
0000
0000
0130
0000
,  // measure 32
0000
0001
0000
0000
1000
0100
0020
0000
,  // measure 33
0000
0000
0031
0000
0000
1000
0000
0000
,  // measure 34
0010
0100
0010
0000
0000
1000
0000
0000
,  // measure 35
0100
0010
0001
0000
0000
0100
0000
0000
,  // measure 36
0010
0000
1000
0000
0010
0000
0000
0100
0000
0000
0010
0000
0000
1000
0000
0000
,  // measure 37
0001
0010
0200
0000
0000
0000
1300
0000
,  // measure 38
0001
1000
0001
0100
,  // measure 39
0001
0100
0001
0010
,  // measure 40
0100
0010
0100
1000
,  // measure 41
0010
1000
0000
0100
,  // measure 42
0010
0100
0010
0001
,  // measure 43
1000
0001
1000
0010
,  // measure 44
1000
0000
0010
0000
1000
0001
0000
0000
,  // measure 45
0010
0100
0000
1000
,  // measure 46
0010
0000
1000
0000
0010
0100
0000
0000
,  // measure 47
0001
0010
0100
1000
,  // measure 48
0001
0000
1000
0000
0001
0010
0000
0100
,  // measure 49
0000
0010
0000
0000
0100
0000
0000
0010
0000
0000
0100
0000
1000
0000
0000
0000
,  // measure 50
0001
1000
0001
0100
,  // measure 51
0001
0100
0001
0010
,  // measure 52
0000
0100
0000
1000
0000
0001
0000
0000
,  // measure 53
0010
0100
0000
1000
,  // measure 54
0000
0000
0000
1000
0000
0100
0010
0000
,  // measure 55
0000
0000
0000
0000
0000
0000
0001
0000
0000
0100
0000
0000
0010
0000
0000
0000
,  // measure 56
0000
1000
0000
0001
0000
1000
0100
0010
,  // measure 57
0001
0100
0010
1000
0100
0010
0002
0000
,  // measure 58
0000
0000
0000
0000
0013
0000
0000
0100
0000
0000
0010
0000
0000
0000
0100
0000
,  // measure 59
2000
0000
3001
0000
0000
0010
0000
0000
,  // measure 60
0100
1000
0100
0000
0000
0010
0000
0000
,  // measure 61
0001
1000
0001
0000
0000
0100
0000
0000
,  // measure 62
0010
1000
0010
0000
0000
0100
0000
0000
,  // measure 63
0001
0010
0001
0000
0000
0100
0000
0000
,  // measure 64
0010
0000
1000
0000
0001
0000
0000
0100
0000
0000
0001
0000
0000
0100
0000
0000
,  // measure 65
0001
0010
0100
0000
0000
1000
0000
0000
,  // measure 66
0010
1000
0020
0000
0000
0000
0000
0130
,  // measure 67
0000
0000
0001
0000
0000
1000
0100
0020
,  // measure 68
0000
0000
0031
1000
,  // measure 69
0001
0000
1000
0100
0010
0000
0001
0000
,  // measure 70
0010
0000
0000
0001
0000
0000
1000
0000
0100
0000
0010
0000
0100
0000
0010
0000
,  // measure 71
0001
0000
1000
0000
0001
0000
1000
0000
0100
0000
0000
0010
0000
0000
0100
0000
,  // measure 72
0000
0010
0000
0000
0001
0000
1000
0000
0001
0000
0000
0100
0000
0000
0001
0000
,  // measure 73
0000
0100
0000
0000
0010
0000
1000
0000
0010
0000
0000
0100
0000
0000
0010
0000
,  // measure 74
0000
0100
0000
0000
0001
0000
0010
0000
0200
0000
0000
0000
0000
0000
0000
0000
,  // measure 75
0000
0000
0000
0000
,  // measure 76
0000
0000
0300
0000
;
