#TITLE:Fixx;
#SUBTITLE:;
#ARTIST:Fracus;
#TITLETRANSLIT:;
#SUBTITLETRANSLIT:;
#ARTISTTRANSLIT:;
#GENRE:;
#CREDIT:;
#BANNER:Fixx-bn.png;
#BACKGROUND:Fixx-bg.png;
#LYRICSPATH:;
#CDTITLE:darkanine.png;
#MUSIC:Fixx.ogg;
#OFFSET:0.000000;
#SAMPLESTART:11.013597;
#SAMPLELENGTH:15.000000;
#SELECTABLE:YES;
#BPMS:0.000000=175.000000
;
#STOPS:
;
#BGCHANGES:;
#KEYSOUNDS:;
#ATTACKS:;

//---------------dance-single - ----------------
#NOTES:
     dance-single:
     :
     Easy:
     4:
     0.340761,0.342047,0.063009,0.162022,0.000000,240.000000,7.000000,18.000000,0.000000,0.000000,0.000000,0.340761,0.342047,0.063009,0.162022,0.000000,240.000000,7.000000,18.000000,0.000000,0.000000,0.000000:
// measure 0
0000
0000
0000
0000
,  // measure 1
0000
0000
0000
0000
,  // measure 2
0100
0000
0100
0000
,  // measure 3
0100
0000
0100
0000
,  // measure 4
1000
1000
0010
0100
,  // measure 5
0001
0001
0010
0100
,  // measure 6
1000
0001
1000
0001
,  // measure 7
0220
0300
0130
0000
,  // measure 8
1000
0100
1000
1000
,  // measure 9
0001
0100
0001
0001
,  // measure 10
1000
0100
1000
1000
,  // measure 11
0010
0100
0010
0100
,  // measure 12
0001
0010
0001
0001
,  // measure 13
1000
0010
1000
1000
,  // measure 14
0001
0010
0001
0001
,  // measure 15
0100
0010
0100
0000
,  // measure 16
1000
0100
1000
0100
,  // measure 17
1000
0010
1000
0010
,  // measure 18
0100
0001
0100
0001
,  // measure 19
0010
0001
0010
0001
,  // measure 20
1000
1000
0001
0001
,  // measure 21
1000
1000
0001
0001
,  // measure 22
1000
0100
0010
0001
,  // measure 23
1001
0000
0010
0010
,  // measure 24
0200
0000
0000
0000
,  // measure 25
0000
0000
0000
0000
,  // measure 26
0000
0000
0000
0000
,  // measure 27
0000
0000
0000
0000
,  // measure 28
0000
0000
0000
0000
,  // measure 29
0000
0000
0000
0000
,  // measure 30
0000
0000
0000
0000
,  // measure 31
0000
0000
0000
0310
,  // measure 32
2000
0000
0000
0000
,  // measure 33
3002
0000
0000
0000
,  // measure 34
2003
0000
0000
0000
,  // measure 35
3020
0000
0000
0130
,  // measure 36
0001
0100
0001
0001
,  // measure 37
1000
0100
1000
1000
,  // measure 38
0001
0010
0001
0001
,  // measure 39
1000
0010
1000
1000
,  // measure 40
0001
0100
0100
0001
,  // measure 41
1000
0100
0100
1000
,  // measure 42
0001
0010
0010
0100
,  // measure 43
1000
0001
0000
1001
,  // measure 44
1000
0010
1000
0010
,  // measure 45
0100
0001
0100
0001
,  // measure 46
1000
0001
1000
0001
,  // measure 47
0010
0100
0010
0100
,  // measure 48
1000
1000
0001
0001
,  // measure 49
0100
0100
0010
0010
,  // measure 50
1001
0000
0110
0000
,  // measure 51
1001
0000
0200
0300
,  // measure 52
1000
0100
0001
0100
,  // measure 53
1000
0010
0001
0010
,  // measure 54
1000
0100
0001
0100
,  // measure 55
0001
0010
1000
0100
,  // measure 56
0001
0001
0100
0100
,  // measure 57
1000
1000
0100
0100
,  // measure 58
0001
1000
0001
1000
,  // measure 59
0200
0000
0010
0310
,  // measure 60
2000
0100
0010
3100
,  // measure 61
0002
0100
0010
0103
,  // measure 62
2000
0100
0010
3100
,  // measure 63
0002
0100
0010
0103
,  // measure 64
2000
0010
0100
3010
,  // measure 65
0002
0010
0100
0013
,  // measure 66
2000
0010
0100
3010
,  // measure 67
0002
0000
1000
1003
,  // measure 68
0001
0001
0100
0100
,  // measure 69
1000
1000
0010
0010
,  // measure 70
0001
0001
0100
0100
,  // measure 71
1000
1000
0010
0010
,  // measure 72
0001
0100
1000
0100
,  // measure 73
0001
0010
1000
0010
,  // measure 74
0001
1000
0001
1000
,  // measure 75
0200
0000
0010
0310
,  // measure 76
1001
0000
0000
0000
;

//---------------dance-single - ----------------
#NOTES:
     dance-single:
     :
     Hard:
     10:
     0.722670,0.684093,0.198027,0.468064,0.603082,488.000000,22.000000,52.000000,0.000000,0.000000,0.000000,0.722670,0.684093,0.198027,0.468064,0.603082,488.000000,22.000000,52.000000,0.000000,0.000000,0.000000:
0000
0000
0000
0000
,
0000
0000
0000
0000
,
2000
0000
3000
0000
0001
0000
0000
0000
2000
0000
3000
0100
0000
0000
1000
0000
,
0002
0000
0003
0000
1000
0000
0000
0000
0002
0000
0003
0100
0000
0000
0001
0000
,
1000
0000
0100
0000
0010
0001
0000
0010
0001
0000
0100
0000
0010
1000
0000
0010
,
1000
0000
0001
0000
0100
0001
0000
0100
0001
0000
0010
0000
0100
1000
0000
0100
,
1000
0000
0010
1000
0010
0000
0100
0010
0100
0000
0001
0100
0001
0000
0010
0001
,
2000
0000
0100
0000
0100
0000
0000
0000
3002
0000
0000
0010
0000
0000
1003
0000
,
0001
0000
0100
0000
0100
0000
0000
0000
0002
0000
0000
0013
0000
0000
0001
0000
,
1000
0000
0100
0000
0100
0000
0000
0000
2000
0000
0000
3010
0000
0000
0100
0000
,
0001
0000
1000
0000
1000
0000
0000
0000
0002
0000
0000
0013
0000
0000
0100
0000
,
1000
0010
0001
0010
0200
0000
0301
0000
,
1000
0000
0010
0000
0010
0000
0000
0000
2000
0000
0000
3100
0000
0000
1000
0000
,
0001
0000
0010
0000
0010
0000
0000
0000
0002
0000
0000
0103
0000
0000
0010
0000
,
1000
0000
0001
0000
0001
0000
0000
0000
2000
0000
0000
3100
0000
0000
0010
0000
,
0001
0100
1000
0100
0020
0000
1030
0000
,
0001
0000
0100
0000
0010
0000
0100
0000
0002
0000
0000
1003
0000
0000
0010
0000
,
1000
0000
0100
0000
0010
0000
0100
0000
2000
0000
0000
3001
0000
0000
0010
0000
,
0001
0000
0100
0000
1000
0000
0100
0000
0002
0000
0000
1003
0000
0000
0010
0000
,
1000
0100
0001
0100
0020
0000
0031
0000
,
1000
0000
0100
0000
1000
0010
0000
1000
0001
0000
0100
0000
0001
0010
0000
0001
,
1000
0000
0010
0000
1000
0001
0000
0100
0001
0000
0010
0000
0001
1000
0000
0100
,
1000
0000
0001
0100
0010
0000
1000
0010
0100
0000
0001
1000
0100
0000
1000
0001
,
0020
0000
0000
0000
0000
0000
0000
0000
0032
0000
0000
0100
0000
0000
1003
0000
,
1020
0000
0000
0000
,
0000
0000
0000
0000
,
0000
0000
0000
0000
,
0000
0000
0000
0000
,
0000
0000
0000
0000
,
0000
0000
0000
0000
,
0000
0000
0000
0000
,
0000
0000
0000
0000
0000
0000
0130
0100
,
0002
0000
0000
2003
0000
0000
3200
0000
0000
0320
0000
0000
0230
0000
0000
0000
,
2300
0000
0000
3002
0000
0000
0203
0000
0000
0320
0000
0000
1030
0000
0000
0000
,
0002
0000
0000
0203
0000
0000
2300
0000
0000
3200
0000
0000
0302
0000
0003
0000
,
1100
0000
0000
1001
0000
0000
0101
0000
0000
1010
0000
0000
0110
0000
0000
0000
,
1000
0000
0000
1000
0100
0000
1000
0000
0001
0000
0100
0000
0020
0000
0000
0000
,
1030
0000
0000
0001
0100
0000
0001
0000
0010
0000
0100
0000
2000
0000
0000
0000
,
3001
0000
0000
0001
0100
0000
0010
0000
1000
0000
0010
0000
0200
0000
0000
0000
,
0301
0000
0000
1000
0100
0000
0010
0000
0100
0000
1000
0000
0002
0000
0000
0000
,
1003
0000
0000
1000
0010
0000
1000
0000
0001
0000
0010
0000
0200
0000
0000
0000
,
1300
0000
0000
0001
0010
0000
0001
0000
0100
0000
0010
0000
2000
0000
0000
0000
,
3001
0000
0000
0001
0010
0000
0100
0000
1000
0000
0100
0000
0020
0000
0000
0000
,
0031
0000
0000
1000
0010
0000
0010
0000
0000
0000
0000
0000
1000
0000
0100
1000
,
0001
0000
0000
0001
0010
0000
0001
0000
0100
0000
0001
0000
0010
0100
1000
0100
,
1000
0000
0000
1000
0010
0000
1000
0000
0100
0000
1000
0000
0010
0100
0001
0100
,
0001
0000
0000
1000
0100
0000
1000
0000
0001
0000
0010
0000
0100
1000
0001
1000
,
0001
0000
0000
0100
0001
0000
1000
0000
0010
0000
0100
0000
0010
1000
0001
1000
,
0001
0000
0010
0000
0100
1000
0000
0100
1000
0000
0010
0000
0100
0001
0000
0100
,
0001
0000
1000
0000
0100
0010
0000
0100
0010
0000
0001
0000
0100
0010
0000
0100
,
0010
0000
1000
0010
1000
0000
0100
1000
0100
0000
0010
0001
0010
0000
0001
1000
,
0020
0000
0000
0000
0000
0000
0000
0000
2030
0000
0000
0100
0000
0000
3001
0000
,
1000
0010
0001
0010
,
1000
0100
0010
1000
,
0010
0001
0100
1000
,
0100
0010
1000
0001
,
1000
0000
0010
0000
1000
0000
0001
0100
0001
0000
0010
0000
0001
0000
1000
0100
,
1000
0000
0010
0000
1000
0000
0001
0010
0001
0000
0100
0000
0010
0000
0100
0001
,
0010
0010
0100
0100
1000
1000
0001
0001
,
0220
0000
0000
0000
0330
0000
0000
0000
2000
0000
0000
0100
0000
0000
3001
0000
,
1000
0000
0100
0000
0000
1000
0000
0000
1010
0000
0000
0010
0000
1000
0100
1000
,
0001
0000
0100
0000
0000
0001
0000
0000
0011
0000
0000
0010
0000
0001
0100
0001
,
1000
0000
0100
0000
0000
1000
0000
0000
1010
0000
0000
0010
0000
1000
0100
1000
,
0001
0000
0100
0000
0000
0001
0000
0000
0011
0000
0000
0010
0000
0001
0100
0001
,
1000
0000
0010
0000
0000
1000
0000
0000
1100
0000
0000
0100
0000
1000
0010
1000
,
0001
0000
0010
0000
0000
0001
0000
0000
0101
0000
0000
0100
0000
0001
0010
0001
,
1000
0000
0010
0000
0000
1000
0000
0000
1100
0000
0000
0100
0000
1000
0010
1000
,
0001
0000
0010
0000
0000
0001
0000
0000
0101
0000
0110
0000
1001
0000
0000
0000
,
2000
0000
3010
0000
0000
1000
0000
0000
1001
0000
0000
0001
0000
0000
0100
0000
,
0002
0000
0013
0000
0000
0001
0000
0000
1001
0000
0000
1000
0000
0000
0100
0000
,
2000
0000
3010
0000
0000
1000
0000
0000
1001
0000
0000
0001
0000
0000
0100
0000
,
0002
0000
0013
0000
0000
0001
0000
0000
1001
0000
0000
1000
0000
0000
0100
0000
,
1000
0000
0010
0000
1000
0001
0000
1000
0100
0000
0010
0000
0001
1000
0000
0001
,
0100
0000
0010
0000
1000
0100
0000
0010
0001
0000
1000
0000
0001
0100
0000
0010
,
1000
0000
0010
1000
0100
0000
0010
0001
0100
0000
0010
1000
0001
0000
0010
0100
,
1000
0000
1000
0000
1000
0000
1000
0000
0002
0000
0000
0010
0000
0000
1003
0000
,
0110
0000
0000
0000
;

//---------------dance-single - ----------------
#NOTES:
     dance-single:
     :
     Medium:
     6:
     0.488638,0.513070,0.162022,0.324044,0.000000,326.000000,18.000000,36.000000,0.000000,0.000000,0.000000,0.488638,0.513070,0.162022,0.324044,0.000000,326.000000,18.000000,36.000000,0.000000,0.000000,0.000000:
0000
0000
0000
0000
,
0000
0000
0000
0000
,
0200
0300
0000
0000
0200
0300
0000
0000
,
0200
0300
0000
0000
0200
0300
0000
0000
,
1000
0100
1000
0000
0001
0010
0001
0000
,
1000
0010
0100
0000
0001
1000
0100
0000
,
1000
0010
0100
0001
1000
0100
0010
0001
,
0100
0010
0200
0000
0010
0000
0310
0000
,
1000
0100
1000
0000
0020
0000
2030
0000
,
3001
0100
0001
0000
0020
0000
0032
0000
,
1003
0100
1000
0000
0002
0000
2003
0000
,
3010
0000
1000
0100
0010
0000
0100
0000
,
1000
0010
1000
0000
0002
0000
0203
0000
,
0301
0010
0001
0000
2000
0000
3200
0000
,
1300
0001
1000
0000
0020
0000
0230
0000
,
0301
0000
1000
0010
0100
0000
0010
0000
,
1000
0000
0100
0000
1000
0010
1000
0000
,
0001
0000
0100
0000
0001
0010
0001
0000
,
1000
0000
0010
0000
0100
0001
1000
0000
,
0001
0000
0010
0000
0100
1000
0001
0000
,
1000
0100
1000
0000
1000
0001
1000
0000
,
0001
0100
0001
0000
0001
1000
0001
0000
,
1000
0010
0001
0010
1000
0010
0001
0010
,
0200
0000
0001
0301
,
0020
0000
0000
0000
,
0000
0000
0000
0000
,
0000
0000
0000
0000
,
0000
0000
0000
0000
,
0000
0000
0000
0000
,
0000
0000
0000
0000
,
0000
0000
0000
0000
,
0000
0000
0000
0130
,
2000
0000
0000
3000
0000
0000
2000
0000
0000
3000
0000
0000
0010
0000
0000
0000
,
0002
0000
0000
0003
0000
0000
0002
0000
0000
0003
0000
0000
0100
0000
0000
0000
,
2000
0000
0000
3000
0000
0000
2000
0000
0000
3000
0000
0000
0001
0000
0000
0000
,
0220
0000
0000
0330
0000
0000
2002
0000
0000
3003
0000
0000
0110
0000
0000
0000
,
1000
0000
0001
0100
0001
0000
0010
0000
,
0100
0000
1000
0001
0010
0000
0100
0000
,
1000
0000
0010
0100
0010
0000
1000
0000
,
0001
0000
0100
0001
0010
0000
0100
0000
,
1000
0000
0001
0010
0001
0000
1000
0000
,
0010
0000
0100
0010
1000
0000
0001
0000
,
1000
0000
0100
0010
0100
0000
1000
0000
,
0001
0011
0000
1100
,
0001
0000
1000
0000
0100
0010
0001
0000
,
1000
0000
0010
0000
0100
0001
1000
0000
,
0100
0000
0010
0000
0100
1000
0001
0000
,
0010
0000
0001
0000
1000
0010
0100
0000
,
0001
1000
0001
0000
0001
0100
0001
0000
,
1000
0001
1000
0000
1000
0100
1000
0000
,
0022
0033
2200
3300
,
0120
0000
0100
0130
,
0001
0001
1000
1000
,
0100
1000
0001
0100
,
0010
0010
0100
0100
,
0001
0010
1000
0010
,
0001
0100
0010
0000
0010
0100
0001
0000
,
1000
0100
0010
0000
0010
0100
1000
0000
,
0001
0100
0010
1000
0001
0010
0100
1000
,
1001
0000
0002
0000
,
1003
0000
1000
0000
0100
1000
0010
1000
,
0001
0000
0001
0000
1000
0001
0010
0001
,
0100
0000
0100
0000
0010
0100
0010
1000
,
0100
0000
0100
0000
1000
0100
0010
0100
,
1000
0000
1000
0000
0001
0100
0010
0100
,
0001
0000
0001
0000
0010
0100
1000
0100
,
0010
0000
0010
0000
0001
0010
1000
0010
,
0001
0000
1000
0000
0100
0100
0100
0000
,
1010
0100
0011
1000
,
0101
0010
1100
0001
,
1010
0001
1100
0010
,
0101
1000
0011
0100
,
1000
0010
1000
0000
1000
0100
1000
0000
,
0001
0010
0001
0000
0001
0100
0001
0000
,
1000
0100
0001
0100
1000
0100
0001
0100
,
0020
0000
0100
0130
,
1001
0000
0000
0000
;
