#TITLE:Tomorrow;
#SUBTITLE:;
#ARTIST:Gianluca Bezzina;
#TITLETRANSLIT:;
#SUBTITLETRANSLIT:;
#ARTISTTRANSLIT:;
#GENRE:;
#CREDIT:;
#BANNER:[Right on Time] - Tomorrow.png;
#BACKGROUND:[Right on Time] - Tomorrow-bg.png;
#LYRICSPATH:[Right on Time] - Tomorrow.lrc;
#CDTITLE:cdtitle.png;
#MUSIC:[Right on Time] - Tomorrow.ogg;
#OFFSET:0.000000;
#SAMPLESTART:54.180000;
#SAMPLELENGTH:16.800003;
#SELECTABLE:YES;
#BPMS:0.000000=100.000000
;
#STOPS:
;
#BGCHANGES:0.000=[Right on Time] - Tomorrow-bg.png=1.000=0=0=1=====,
99999=-nosongbg-=1.000=0=0=0 // don't automatically add -songbackground-
;
#KEYSOUNDS:;
#ATTACKS:;

//---------------dance-single - ----------------
#NOTES:
     dance-single:
     C 01 - X 01:
     Beginner:
     1:
     0.081578,0.120128,0.020892,0.076603,0.000000,82.000000,79.000000,3.000000,11.000000,0.000000,0.000000,0.081578,0.120128,0.020892,0.076603,0.000000,82.000000,79.000000,3.000000,11.000000,0.000000,0.000000:
// measure 0
0000
0000
0000
0000
,  // measure 1
0000
0000
0000
0000
,  // measure 2
0000
0000
0000
0000
,  // measure 3
0000
0000
0000
0000
,  // measure 4
1000
0000
0000
0000
,  // measure 5
1000
0000
0000
0000
,  // measure 6
0010
0000
0000
0000
,  // measure 7
0010
0000
0000
0000
,  // measure 8
0100
0000
0000
0000
,  // measure 9
0100
0000
0000
0000
,  // measure 10
0001
0000
0000
0000
,  // measure 11
0001
0000
0000
0000
,  // measure 12
2000
0000
3000
0000
,  // measure 13
0001
0000
0001
0000
,  // measure 14
1000
0000
0000
0000
,  // measure 15
0100
0000
0100
0000
,  // measure 16
0020
0000
0030
0000
,  // measure 17
0001
0000
0001
0000
,  // measure 18
0100
0000
0000
0000
,  // measure 19
0010
0000
0010
0000
,  // measure 20
1000
0000
0000
0000
,  // measure 21
0001
0000
0000
0000
,  // measure 22
2000
0000
3000
0000
,  // measure 23
1001
0000
0001
0000
,  // measure 24
0020
0000
0030
0000
,  // measure 25
0100
0000
0100
0000
,  // measure 26
2000
0000
3000
0000
,  // measure 27
0010
0000
0100
0000
,  // measure 28
0020
0000
0030
0000
,  // measure 29
1000
0000
0001
0000
,  // measure 30
1001
0000
0000
0000
,  // measure 31
1000
0000
0000
0000
,  // measure 32
0010
0000
0000
0000
,  // measure 33
0100
0000
0000
0000
,  // measure 34
0001
0000
0100
0000
,  // measure 35
0001
0000
0000
0000
,  // measure 36
0010
0000
0100
0000
,  // measure 37
0010
0000
0000
0000
,  // measure 38
0200
0000
0300
0000
,  // measure 39
2000
0000
3000
0000
,  // measure 40
0010
0000
1000
0000
,  // measure 41
0010
0000
2000
0000
,  // measure 42
3000
0000
0001
0000
,  // measure 43
1000
0000
0001
0000
,  // measure 44
0010
0000
0100
0000
,  // measure 45
0010
0000
0100
0000
,  // measure 46
2000
0000
3000
0000
,  // measure 47
1000
0000
1000
0000
,  // measure 48
0002
0000
0003
0000
,  // measure 49
0001
0000
0001
0000
,  // measure 50
0100
0000
0100
0000
,  // measure 51
0010
0000
0010
0000
,  // measure 52
1000
0000
0100
0000
,  // measure 53
0010
0000
0001
0000
,  // measure 54
1000
0000
0010
0000
,  // measure 55
0100
0000
0001
0000
,  // measure 56
0010
0000
0001
0000
,  // measure 57
1000
0000
1001
0000
;

//---------------dance-single - ----------------
#NOTES:
     dance-single:
     C 02 - X 03:
     Easy:
     2:
     0.139279,0.180192,0.013928,0.118387,0.000000,140.000000,138.000000,2.000000,17.000000,0.000000,0.000000,0.139279,0.180192,0.013928,0.118387,0.000000,140.000000,138.000000,2.000000,17.000000,0.000000,0.000000:
// measure 0
0000
0000
0000
0000
,  // measure 1
0000
0000
0000
0000
,  // measure 2
0000
0000
0000
0000
,  // measure 3
0000
0000
0000
0000
,  // measure 4
0001
0000
0100
0000
,  // measure 5
0010
0000
0000
0000
,  // measure 6
0010
0000
0100
0000
,  // measure 7
0001
0000
0000
0000
,  // measure 8
1000
0000
0100
0000
,  // measure 9
0010
0000
0000
0000
,  // measure 10
0010
0000
0100
0000
,  // measure 11
1000
0000
0001
0000
,  // measure 12
0200
0000
0310
0000
,  // measure 13
1000
1000
1000
0000
,  // measure 14
0001
0001
0001
0000
,  // measure 15
0010
0010
0010
0000
,  // measure 16
0100
0100
0100
0000
,  // measure 17
1000
0000
1000
0000
,  // measure 18
0001
0000
0001
0000
,  // measure 19
1000
0000
0010
0000
,  // measure 20
1000
0000
0001
0010
,  // measure 21
0001
0000
2000
0000
,  // measure 22
3002
0000
2003
0000
,  // measure 23
3010
0000
0100
0000
,  // measure 24
0001
1000
0001
0000
,  // measure 25
0010
0000
0100
0000
,  // measure 26
1000
0001
1000
0000
,  // measure 27
0001
0000
0010
0000
,  // measure 28
0100
0010
0001
0000
,  // measure 29
0100
0000
0010
0000
,  // measure 30
0110
0200
0300
0002
,  // measure 31
0003
1000
0010
0100
,  // measure 32
0001
2000
3000
0002
,  // measure 33
0003
0000
1000
0100
,  // measure 34
1000
0000
0010
0100
,  // measure 35
0010
0000
0100
0001
,  // measure 36
0100
0000
0001
0010
,  // measure 37
0001
0000
1000
0010
,  // measure 38
0100
0000
0100
0010
,  // measure 39
1000
0000
0001
0010
,  // measure 40
0100
0000
0100
0010
,  // measure 41
0001
0000
1000
0000
,  // measure 42
0001
0100
0010
0000
,  // measure 43
0100
0010
2000
3000
,  // measure 44
1000
0010
0100
0000
,  // measure 45
0010
0100
0002
0003
,  // measure 46
2000
0000
3002
0100
,  // measure 47
2003
0000
3010
0010
,  // measure 48
2000
0000
3002
0010
,  // measure 49
2003
0000
3100
0100
,  // measure 50
1000
0000
0100
0000
,  // measure 51
0010
0001
0010
0000
,  // measure 52
0001
0000
0100
0000
,  // measure 53
0010
1000
0010
0010
,  // measure 54
1000
0000
0001
0000
,  // measure 55
0100
0010
0100
0100
,  // measure 56
0001
0010
0100
1000
,  // measure 57
0002
0000
0000
0003
1001
0000
0000
0000
;

//---------------dance-single - ----------------
#NOTES:
     dance-single:
     C 04 - X 06:
     Medium:
     4:
     0.218866,0.300320,0.132315,0.194990,0.010446,220.000000,201.000000,19.000000,28.000000,0.000000,0.000000,0.218866,0.300320,0.132315,0.194990,0.010446,220.000000,201.000000,19.000000,28.000000,0.000000,0.000000:
// measure 0
0000
0000
0000
0000
,  // measure 1
0000
0000
0000
0000
,  // measure 2
0000
0000
0000
0000
,  // measure 3
0000
0000
0000
0000
,  // measure 4
1000
0000
0010
0000
,  // measure 5
0100
0000
0001
0000
,  // measure 6
1000
0000
0100
0000
,  // measure 7
0010
0000
0001
0010
,  // measure 8
0001
0000
0010
0100
,  // measure 9
0010
0000
0100
1000
,  // measure 10
0100
0000
1000
0010
,  // measure 11
1000
0000
0001
0100
,  // measure 12
0002
0000
2003
0000
,  // measure 13
3001
1000
0001
1000
,  // measure 14
0100
0010
0100
0010
,  // measure 15
0001
0010
0001
0010
,  // measure 16
0100
1000
0100
1000
,  // measure 17
0001
0100
0001
0100
,  // measure 18
0010
1000
0010
1000
,  // measure 19
0001
0010
0100
1000
,  // measure 20
0001
0000
1000
0010
,  // measure 21
1000
0000
0020
0230
,  // measure 22
0302
0000
1003
0000
,  // measure 23
2001
0000
0000
3000
0000
0000
0000
0000
0002
0000
0000
0003
0000
0000
0000
0000
,  // measure 24
0020
0000
0130
0100
,  // measure 25
2000
0000
0000
3000
0000
0000
0000
0000
0020
0000
0000
0030
0000
0000
0000
0000
,  // measure 26
0200
0000
0301
0001
,  // measure 27
1000
0100
0001
0100
,  // measure 28
2000
0000
0000
0000
3020
0000
0000
0000
0032
0000
0000
0003
0000
0000
0000
0000
,  // measure 29
0001
0010
1000
0100
,  // measure 30
1100
0000
0000
0000
2000
0000
0000
0000
3000
0000
0000
0000
0002
0000
0000
0003
,  // measure 31
0000
0100
0100
0001
,  // measure 32
0001
0000
0000
0000
0020
0000
0000
0030
0000
0000
0000
0000
0200
0000
0000
0300
,  // measure 33
0000
0000
0000
1000
0001
0000
0010
0000
,  // measure 34
0001
0000
0001
0010
0001
0000
0100
0001
,  // measure 35
0100
0000
0010
1000
0010
0000
1000
0100
,  // measure 36
1000
0000
0001
1000
0001
0000
0100
0010
,  // measure 37
0100
0001
1000
0010
,  // measure 38
1000
0001
0001
0000
0100
0000
0100
0000
,  // measure 39
0001
1000
2000
0000
3100
0000
0100
0000
,  // measure 40
1000
0001
0010
0001
,  // measure 41
1000
0000
0010
0000
0100
0001
0100
0001
,  // measure 42
0100
0000
0001
0100
0010
0000
0010
0100
,  // measure 43
0001
1000
1001
0110
,  // measure 44
1001
0000
0001
0100
0001
0000
1000
0010
,  // measure 45
1000
0010
1010
0101
,  // measure 46
2002
3000
0010
0103
,  // measure 47
0001
0010
0011
1100
,  // measure 48
2002
0003
0010
3100
,  // measure 49
1000
0001
0110
1001
,  // measure 50
1000
0000
0000
1000
0000
0000
0000
0000
0001
0000
0000
0001
0000
0000
0000
0000
,  // measure 51
2000
3020
0230
0301
,  // measure 52
1000
0000
0100
0000
0001
0100
1000
0000
,  // measure 53
0001
0100
0101
0011
,  // measure 54
1000
0000
0010
0000
0001
0010
1000
0000
,  // measure 55
0010
1000
1010
1100
,  // measure 56
0001
0000
0000
0000
0010
0000
0000
0001
0000
0000
0100
0000
0010
0000
0000
0000
,  // measure 57
0220
0000
0000
0330
1001
0000
0000
0000
;

//---------------dance-single - ----------------
#NOTES:
     dance-single:
     C 07 - X 10:
     Hard:
     7:
     0.342228,0.420447,0.111423,0.181062,0.170616,344.000000,328.000000,16.000000,26.000000,0.000000,0.000000,0.342228,0.420447,0.111423,0.181062,0.170616,344.000000,328.000000,16.000000,26.000000,0.000000,0.000000:
// measure 0
0000
0000
0000
0000
,  // measure 1
0000
0000
0000
0000
,  // measure 2
0000
0000
0000
0000
,  // measure 3
0000
0000
0000
0000
,  // measure 4
1000
0000
0010
0000
,  // measure 5
0001
0000
0100
0000
,  // measure 6
1000
0000
0100
0000
,  // measure 7
0001
0000
0010
0000
,  // measure 8
1000
1000
0001
0001
,  // measure 9
0100
0100
0010
0010
,  // measure 10
1000
0010
0001
0010
,  // measure 11
1000
0100
0001
0100
,  // measure 12
2000
0000
0002
3003
,  // measure 13
1000
0010
1000
0000
0001
0100
0001
0000
,  // measure 14
1000
0100
1000
0000
0001
0010
0001
0000
,  // measure 15
0100
0010
0100
0000
0001
1000
0001
0000
,  // measure 16
1000
0100
0010
0000
0001
0100
0010
0000
,  // measure 17
1000
0000
0000
0010
0000
0000
0100
0000
0001
0000
0100
0000
0010
0000
1000
0000
,  // measure 18
0001
0000
0000
0010
0000
0000
0100
0000
1000
0000
0100
0000
0010
0000
0001
0000
,  // measure 19
1000
0000
0000
0001
0000
0000
0010
0000
0001
0000
1000
0000
0010
0000
0100
0000
,  // measure 20
0001
0000
0000
1000
0000
0000
0001
0000
0100
0000
1000
0000
0100
0000
0001
0000
,  // measure 21
1000
0000
0000
0001
0000
0000
1000
0000
0020
0000
0000
0032
0000
0000
0023
0000
,  // measure 22
1030
0100
0010
0100
2000
0000
0000
3000
,  // measure 23
1001
0000
0000
0002
0000
0000
0003
0000
0100
0000
0000
0020
0000
0000
0030
0000
,  // measure 24
1000
0010
0100
0001
1000
0000
0001
0000
,  // measure 25
1000
0000
0000
0020
0000
0000
0030
0000
0100
0000
0000
0002
0000
0000
0003
0000
,  // measure 26
1000
0100
0010
0001
0100
0000
0010
0000
,  // measure 27
1000
0000
0000
0100
0000
0000
1000
0000
0001
0000
0000
0010
0000
0000
0001
0000
,  // measure 28
1000
0000
0000
1000
0200
0000
0000
0000
0301
0000
0000
0001
0200
0000
0000
0000
,  // measure 29
1300
0000
0000
1000
0000
0020
0000
0000
0031
0000
0000
0001
0000
0020
0000
0000
,  // measure 30
1030
0001
0000
0001
0000
0100
0000
0100
,  // measure 31
0000
0010
0000
0010
0000
1000
0000
1000
,  // measure 32
0000
0001
0010
0001
0000
0100
0001
0100
,  // measure 33
0000
0010
1000
0010
0000
1000
0100
1000
,  // measure 34
0001
0000
0010
0002
0000
0000
0013
0000
1000
0000
0010
0000
2000
0000
3020
0000
,  // measure 35
0031
0000
0100
0002
0000
0000
0103
0000
1000
0000
0100
0000
2000
0000
3200
0000
,  // measure 36
0310
0000
1000
0002
0000
0000
1003
0000
0100
0000
0010
0000
0002
0000
0203
0000
,  // measure 37
1300
0000
1000
0002
0000
0000
0013
0000
1000
0000
0010
0000
0100
0000
0001
0000
,  // measure 38
1000
0000
0000
0010
0000
0000
1000
0000
0100
0000
0010
0001
0010
0000
0100
0000
,  // measure 39
1000
0000
0000
0100
0000
0000
1000
0000
0010
0000
0100
0001
0100
0000
0010
0000
,  // measure 40
1000
0000
0000
0100
0000
0000
0001
0000
0100
0000
1000
0010
0000
0010
1000
0000
,  // measure 41
0001
0000
0010
0000
0100
0000
1000
0000
0001
0100
0010
0000
0100
0010
1000
0000
,  // measure 42
1010
0000
0010
0100
0000
0000
0001
0000
1000
0000
0100
0010
0000
0000
0001
0000
,  // measure 43
0100
0000
0001
0010
0000
0000
0100
0000
0110
0000
0000
0000
1001
0000
0000
0000
,  // measure 44
1000
0000
0010
0001
0000
0000
0010
0000
1000
0000
0100
0001
0000
0000
0100
0000
,  // measure 45
1000
0000
0001
0010
0000
0000
0001
0000
0011
0000
0000
0000
1100
0000
0000
0000
,  // measure 46
1000
0010
0100
0001
0010
0100
1000
1000
,  // measure 47
0010
0100
0010
1000
1010
0000
0101
0000
,  // measure 48
0001
0100
0010
1000
0100
0010
0001
0001
,  // measure 49
0010
0100
0010
0001
0011
0000
1001
0000
,  // measure 50
1000
0000
0010
0100
0010
0000
1000
0000
0001
0000
0010
0100
0010
0000
0001
0000
,  // measure 51
0010
0000
0000
0010
1000
0000
1000
0000
0100
0000
0000
0100
0001
0000
0001
0000
,  // measure 52
1000
0000
0000
0010
1000
0000
0010
0000
0100
0000
0000
0001
0100
0000
0001
0000
,  // measure 53
1000
0100
0001
0100
1100
0000
1010
0000
,  // measure 54
0001
0000
0000
0010
0001
0000
0010
0000
0100
0000
0000
1000
0100
0000
1000
0000
,  // measure 55
0001
0100
1000
0100
0101
0000
0011
0000
,  // measure 56
1000
0000
0001
0010
0000
0010
0001
0000
1000
0000
0001
0100
0000
0100
0001
0000
,  // measure 57
2002
0000
0000
3003
1001
0000
0000
0000
;

//---------------dance-single - ----------------
#NOTES:
     dance-single:
     C 09 - X 13:
     Challenge:
     9:
     0.515331,0.520554,0.167134,0.194990,0.682465,518.000000,494.000000,24.000000,28.000000,2.000000,0.000000,0.515331,0.520554,0.167134,0.194990,0.682465,518.000000,494.000000,24.000000,28.000000,2.000000,0.000000:
// measure 0
0000
0000
0000
0000
,  // measure 1
0000
0000
0000
0000
,  // measure 2
0000
0000
0000
0000
2000
0000
0000
3001
0000
0000
0000
0000
0200
0000
0000
0310
,  // measure 3
0000
0000
0000
0000
0000
0000
1000
0000
0010
0000
1000
0000
0001
0100
0000
0001
,  // measure 4
0000
0000
0000
0000
0000
0000
0000
0000
0010
0000
0001
0010
0000
0100
0000
0000
,  // measure 5
1000
0000
0000
0000
0000
0000
0000
0000
0000
0000
0000
0000
0000
0000
0000
0000
0010
0000
0100
0000
0000
0000
0001
0000
0000
0000
0000
0100
0000
0000
0000
0000
,  // measure 6
0010
0000
0000
0000
0000
0000
0000
0000
1000
0100
0000
0001
0000
0100
0000
0000
,  // measure 7
1000
0000
0000
0000
0000
0000
0000
0010
0100
0000
0001
0010
0000
0000
0100
0000
,  // measure 8
1000
0000
0000
0001
0000
0000
1000
0000
0100
0000
0100
1000
0000
1000
0001
0000
,  // measure 9
0001
0000
0000
1000
0000
0000
0001
0000
1000
0000
1000
0010
0000
0010
0000
0000
,  // measure 10
1000
0100
0000
1000
0000
0001
0100
0010
1000
0000
0001
0000
0010
0000
0100
1000
,  // measure 11
0010
0000
0000
0100
0000
0000
0010
1000
0010
0000
1000
0000
1000
0001
0000
0000
,  // measure 12
0020
0001
0100
1000
0200
0000
0330
0000
,  // measure 13
1000
0000
0001
0010
0000
0000
0001
0000
1000
0000
1000
0010
0000
0000
1000
0000
,  // measure 14
0001
0000
0000
0000
0100
0000
0001
0000
0000
0000
0000
0000
0100
0000
0000
0000
0010
0000
1000
0000
0000
0000
0001
0000
0000
0000
0000
1000
0000
0000
0000
0000
,  // measure 15
0100
0000
1000
0010
0000
0000
0100
0000
0010
0100
0000
0001
0000
0100
0000
0000
,  // measure 16
0010
0000
0100
1000
0000
1000
0100
0000
0001
0000
0010
0100
0000
1000
0000
0001
,  // measure 17
1000
0000
0001
0100
0001
0000
0010
0000
0100
0000
1000
0001
0000
0001
0010
0000
,  // measure 18
0001
0000
1000
0100
1000
0000
0010
0000
0100
0010
0000
1000
0000
0001
0000
0010
,  // measure 19
0100
0000
0010
0001
0000
1000
0001
0100
0001
0000
0010
0100
0000
0100
1000
0000
,  // measure 20
0001
0000
0000
0000
0001
0000
0100
0000
0000
0000
0100
0000
0010
0000
0000
0000
0001
0000
0000
0000
0010
0000
1000
0000
0000
0000
0000
0001
0000
0000
0000
0000
,  // measure 21
1000
0000
0010
0100
0000
0100
0010
0000
2000
0000
0000
3200
0000
0000
0302
0000
,  // measure 22
0013
0000
1000
0100
0010
0000
1000
0000
0002
0000
0100
0000
0100
0000
0203
0000
,  // measure 23
1300
0001
0000
0100
0000
0100
0000
0001
0000
0001
0010
0100
0000
0000
1000
0000
,  // measure 24
0020
0001
0000
0100
0000
1000
0000
0130
0010
0000
1000
0000
0100
0000
1000
0000
,  // measure 25
0001
1000
0000
0010
0000
0010
0000
1000
0000
1000
0100
0010
0000
0000
0001
0000
,  // measure 26
0200
0000
0000
0010
0000
1000
0000
0310
0100
0000
0001
0000
0010
0000
0001
0000
,  // measure 27
1000
0000
1000
0010
0000
0010
0001
0000
1000
0000
1000
0100
0000
0100
0001
0000
,  // measure 28
0001
0000
0010
0100
0000
1000
0010
0100
0001
0000
0010
0001
0100
0000
1000
0000
,  // measure 29
0200
0000
0000
0310
1000
0010
0000
2000
0000
0000
0001
0000
3001
0010
0100
0000
,  // measure 30
0110
0000
0010
0000
0002
0000
0000
0103
0001
0000
0010
0000
2000
0000
0000
3010
,  // measure 31
0001
0000
0001
0010
0100
0000
0001
0000
1000
0010
0000
0100
0000
0000
1000
0001
,  // measure 32
0100
0000
0001
0000
0020
0000
0000
0130
0010
0000
0001
0000
0200
0000
0000
0310
,  // measure 33
1000
0000
0001
0100
0010
0000
0001
0000
1000
0000
0100
0010
1000
0000
0001
0000
,  // measure 34
0100
0000
0001
0000
1000
0010
1000
0000
0001
0000
0010
0000
0100
1000
0100
0000
,  // measure 35
1000
0000
0001
0010
0000
0001
0100
0000
0010
1000
00M0
0000
1000
0100
M000
0000
,  // measure 36
0100
0000
1000
0001
0010
0000
0001
0000
0100
0010
0000
1000
0000
0100
1000
0000
,  // measure 37
0010
0000
0100
0001
0010
0000
0001
1000
0001
0000
0100
0000
0010
0000
1000
0001
,  // measure 38
0010
0000
0011
0000
1010
0000
0001
0000
0100
0001
0010
1000
0000
0001
0100
1000
,  // measure 39
0100
0000
1100
0000
0102
0000
0200
0003
0301
0000
0010
0001
0010
0000
0001
0100
,  // measure 40
0010
1000
0000
0100
0000
0010
0001
0000
0010
0001
0100
1000
0000
0001
0010
1000
,  // measure 41
0100
0000
1000
0000
0001
0000
0010
0000
0100
0010
1000
0010
0001
1000
0010
1000
,  // measure 42
0100
0010
0000
0001
0000
0100
0000
0010
0000
0010
1000
0001
0000
0010
0001
0000
,  // measure 43
1000
0100
0000
0001
0000
0100
0000
1000
1100
0000
0100
0000
0110
0000
0010
0000
,  // measure 44
0001
0100
0000
0010
0000
1000
0000
0100
0000
1000
0001
0010
0000
0100
1000
0000
,  // measure 45
0020
0000
0000
0031
0000
0010
0000
1000
1010
0000
0001
0000
1001
0000
1000
0000
,  // measure 46
0101
0000
0001
1000
0000
1000
0001
0000
0010
0100
0010
0000
0100
1000
0100
0000
,  // measure 47
2000
0001
0000
0001
0000
0010
0000
3100
1100
0000
0100
0000
0101
0000
0100
0000
,  // measure 48
1100
0000
1000
0010
0000
0010
1000
0000
0001
0100
0001
0000
0010
0001
0010
0000
,  // measure 49
0002
0100
0000
0100
0000
1000
0000
0013
0011
0000
0010
0000
1010
0000
0010
0000
,  // measure 50
0011
0000
0001
1000
0000
1000
0010
0000
0010
0000
0100
0001
0000
0001
0010
0000
,  // measure 51
0010
0000
0100
1000
0100
0000
0010
0001
0010
0000
0001
0100
0001
0000
1000
0010
,  // measure 52
2000
0000
0000
3001
0010
0100
0000
2000
0000
0000
3010
0000
0100
0001
0100
0000
,  // measure 53
0001
0000
1000
1000
0010
0000
0100
0000
0110
0000
0001
0000
1001
0000
1000
0000
,  // measure 54
1020
0000
0000
0130
0001
0100
0000
0002
0000
0000
0013
0000
0001
0100
0010
0000
,  // measure 55
1000
0000
0100
0100
0010
0000
0001
0000
0011
0000
0001
0000
1100
0000
1000
0000
,  // measure 56
0101
0000
0001
0100
0010
1000
0000
0100
0000
0001
1000
0010
0000
0001
1000
0000
,  // measure 57
2002
0000
0000
3003
1001
0000
0000
0000
;
