#TITLE:THE NEXT DOOR;
#SUBTITLE:-INDESTRUCTIBLE-;
#ARTIST:EXILE;
#TITLETRANSLIT:;
#SUBTITLETRANSLIT:;
#ARTISTTRANSLIT:;
#CREDIT:Lisek;
#BANNER:[Not Rhythm Games] - THE NEXT DOOR -INDESTRUCTIBLE-.png;
#BACKGROUND:[Not Rhythm Games] - THE NEXT DOOR -INDESTRUCTIBLE--bg.png;
#LYRICSPATH:;
#CDTITLE:cdtitle.png;
#MUSIC:[Not Rhythm Games] - THE NEXT DOOR -INDESTRUCTIBLE-.ogg;
#OFFSET:-2.542;
#SAMPLESTART:41.405;
#SAMPLELENGTH:17.800;
#SELECTABLE:YES;
#BPMS:0.000=105.000;
#STOPS:;
#BGCHANGES:;

//---------------dance-single - ----------------
#NOTES:
     dance-single:
     Lisek:
     Hard:
     7:
     0.437,0.463,0.372,0.117,0.143: // measure 1
1000
0010
0000
0100
0010
0000
1000
0010
0000
0100
0010
0000
1000
0000
0001
0000
,  // measure 2
0100
0001
0000
0100
0010
0000
0100
0001
0000
0100
0010
0000
1000
0000
0001
0000
,  // measure 3
1000
0100
0000
1000
0010
0000
1000
0100
0000
1000
0010
0000
1000
0000
0001
0000
,  // measure 4
1000
0000
0001
0000
1000
0000
0001
0000
0000
0000
0000
0000
1000
0000
0000
0000
0000
0000
0100
0000
0000
0010
0000
0000
0000
0000
0000
0000
0000
0000
0001
0000
0000
0000
0000
0000
0001
0000
0000
0000
0000
0000
0001
0000
0000
0000
0000
0000
,  // measure 5
1001
0000
0000
1010
0000
0000
1001
0000
0000
0000
0202
0000
0000
0000
0303
0000
,  // measure 6
1001
0000
0000
0011
0000
0000
1001
0000
0000
0000
2200
0000
0000
0000
3300
0000
,  // measure 7
1001
0000
0000
0110
0000
0000
1001
0000
0000
0000
0220
0000
0000
0000
0330
0000
,  // measure 8
0101
0000
0000
1010
0000
0000
2002
0000
0000
0000
0000
0000
0000
0000
3003
0000
,  // measure 9
0000
0000
0000
0000
,  // measure 10
1000
0100
0010
0100
1000
0001
0100
0000
,  // measure 11
0101
1010
1100
0011
,  // measure 12
0001
0010
0100
1000
0010
0100
0010
1000
,  // measure 13
0100
0100
0010
0010
0001
0001
1000
1000
,  // measure 14
0001
0010
0100
0010
0001
0100
0010
0000
,  // measure 15
0110
1010
1001
0101
,  // measure 16
0000
0001
0100
0001
0010
0000
0000
0100
1000
0000
0010
0100
0000
0000
0001
0000
,  // measure 17
0010
0010
0100
0100
1000
1000
0001
0001
,  // measure 18
1000
0100
0001
0100
1000
0100
0010
0001
,  // measure 19
0000
0001
0100
1000
0100
0001
1000
0100
,  // measure 20
0000
0010
0001
0100
0001
1000
0010
0100
,  // measure 21
0001
0001
1000
1000
0200
0000
0310
0000
,  // measure 22
0001
0000
0000
0000
1000
0000
0000
0000
0001
0000
1000
0100
0000
0000
0010
0000
,  // measure 23
0001
1000
0100
1000
0001
0010
0001
0000
,  // measure 24
1000
0000
0000
0000
0001
0000
0000
0000
0100
0000
0010
0100
0000
0000
0000
0000
,  // measure 25
0001
0001
1000
1000
0100
0100
0010
0010
,  // measure 26
0001
0000
0000
0000
1000
0000
0000
0000
0010
0000
0100
0001
0000
0000
1000
0000
,  // measure 27
0000
1000
0001
0010
0001
1000
0100
0000
,  // measure 28
0010
0000
0000
0000
0100
0000
0000
0000
1000
0000
0001
0100
0000
0000
0000
0000
,  // measure 29
0110
1001
0011
1100
,  // measure 30
1000
0100
0010
0001
0010
0100
0010
0001
,  // measure 31
0000
0100
0010
1000
0100
0010
0100
0000
,  // measure 32
0000
1000
0001
0100
0010
0100
0001
1000
,  // measure 33
0001
0001
0010
0010
0100
0000
1000
0000
,  // measure 34
1001
1001
0110
0110
1001
1001
0110
0110
,  // measure 35
1000
0001
0200
0000
0310
1000
0000
0000
,  // measure 36
0010
0100
0000
0000
0001
1000
0000
0000
,  // measure 37
0100
0010
0002
0000
1003
0010
0000
0000
,  // measure 38
1000
1000
0001
0001
0100
0100
0010
0010
;

//---------------dance-single - ----------------
#NOTES:
     dance-single:
     Lisek:
     Medium:
     4:
     0.272,0.301,0.064,0.393,0.021:
2000
0000
0000
3000
,
0002
0000
0000
0003
,
0200
0000
0000
0300
,
0020
0000
0030
0000
,
1000
0000
0000
1000
0000
0000
2000
0000
0000
0000
0000
0000
0000
0000
3000
0000
,
0001
0000
0000
0001
0000
0000
0002
0000
0000
0000
0000
0000
0000
0000
0003
0000
,
0100
0000
0000
0100
0000
0000
0200
0000
0000
0000
0000
0000
0000
0000
0300
0000
,
0010
0000
0000
0010
0000
0000
0020
0000
0000
0000
0000
0000
0000
0000
0030
0000
,
0000
0000
0000
0000
,
1000
0100
0010
0001
,
1000
0001
1001
1001
,
0001
0010
0001
1000
,
0002
0203
0320
2030
,
3001
0010
0001
1000
,
0010
0100
0110
0110
,
0100
0001
1000
0100
,
0020
0032
2003
3020
,
1030
0000
0100
0000
1000
0010
1000
0000
,
0001
0000
0100
0000
0001
0010
0001
0000
,
1000
0000
0001
0000
0100
0010
0100
0000
,
0002
2003
3002
2003
,
3001
0010
0100
1000
,
0001
0100
0010
1000
,
0001
0010
0100
1000
,
0002
2003
3020
0230
,
0301
1000
0010
0100
,
0010
1000
0010
0100
,
0001
0010
0001
1000
,
0002
2003
3020
0230
,
0301
0000
1000
0000
0001
0100
0001
0000
,
1000
0000
0010
0000
1000
0001
1000
0000
,
0010
0000
0100
0000
0001
0100
0001
0000
,
1000
0001
1001
1001
,
2000
3002
0203
0320
,
1030
0100
2000
0000
3000
0000
0000
0000
,
0100
0100
0000
0000
1000
1000
0000
0000
,
0001
1000
0002
0000
0003
0000
0000
0000
,
2000
3020
0230
0301
;

//---------------dance-single - ----------------
#NOTES:
     dance-single:
     Lisek:
     Easy:
     2:
     0.093,0.101,0.000,0.096,0.000:
0000
0000
0000
0000
,
0000
0000
0000
0000
,
0000
0000
0000
0000
,
0000
0000
0000
0000
,
2000
0000
0000
0000
0000
0000
0000
3000
,
0002
0000
0000
0000
0000
0000
0000
0003
,
0200
0000
0000
0000
0000
0000
0000
0300
,
0020
0000
0000
0000
0000
0000
0000
0030
,
0000
0000
0000
0000
,
1000
0000
0100
0000
,
1000
0000
0010
0000
,
0100
0000
0001
0000
,
0100
0000
0010
0000
,
1000
0000
0100
0000
,
1000
0000
0010
0000
,
0100
0000
0001
0000
,
0100
0000
0010
0000
,
1000
0000
0100
0000
,
0010
0000
0001
0000
,
1000
0000
0100
0000
,
0020
0000
0000
0030
,
0001
0000
0100
0000
,
0010
0000
0100
0000
,
0001
0000
1000
0000
,
0200
0000
0000
0300
,
1000
0000
0010
0000
,
0100
0000
0001
0000
,
0100
0000
0010
0000
,
0200
0000
0000
0300
,
0001
0000
1000
0000
,
0100
0000
0010
0000
,
0001
0000
0010
0000
,
0200
0000
0000
0000
,
0300
0000
0000
0000
,
1000
0000
0000
0000
,
0001
0000
0000
0000
,
0100
0000
0000
0000
,
0020
0000
0000
0000
0000
0000
0000
0030
;

//---------------dance-single - Copied from----------------
#NOTES:
     dance-single:
     Lisek:
     Beginner:
     1:
     0.049,0.059,0.000,0.000,0.000:
0000
0000
0000
0000
,
0000
0000
0000
0000
,
0000
0000
0000
0000
,
0000
0000
0000
0000
,
1000
0000
0000
0000
,
0001
0000
0000
0000
,
0100
0000
0000
0000
,
0010
0000
0000
0000
,
0000
0000
0000
0000
,
1000
0000
0000
0000
,
0100
0000
0000
0000
,
1000
0000
0000
0000
,
0001
0000
0000
0000
,
0100
0000
0000
0000
,
0010
0000
0000
0000
,
0100
0000
0000
0000
,
0001
0000
0000
0000
,
1000
0000
0000
0000
,
0100
0000
0000
0000
,
0010
0000
0000
0000
,
0001
0000
0000
0000
,
1000
0000
0000
0000
,
0001
0000
0000
0000
,
1000
0000
0000
0000
,
0001
0000
0000
0000
,
0100
0000
0000
0000
,
0010
0000
0000
0000
,
0100
0000
0000
0000
,
0010
0000
0000
0000
,
1000
0000
0000
0000
,
0100
0000
0000
0000
,
1000
0000
0000
0000
,
0001
0000
0000
0000
,
0000
0000
0000
0000
,
1000
0000
0000
0000
,
0001
0000
0000
0000
,
0100
0000
0000
0000
,
0010
0000
0000
0000
;
