#TITLE:Northern Desert;
#SUBTITLE:;
#ARTIST:Arata Iiyoshi, Hideki Sakamoto, Keisuke Ito, Ryoma Nakamura, Kenichi Saito;
#TITLETRANSLIT:;
#SUBTITLETRANSLIT:;
#ARTISTTRANSLIT:;
#GENRE:;
#CREDIT:Silverhawke;
#MENUCOLOR:;
#METERTYPE:DDR;
#BANNER:[Not Rhythm Games] - Northern Desert.png;
#BACKGROUND:[Not Rhythm Games] - Northern Desert-bg.png;
#LYRICSPATH:;
#CDTITLE:cdtitle.png;
#MUSIC:[Not Rhythm Games] - Northern Desert.mp3;
#OFFSET:-0.028;
#SAMPLESTART:9.000;
#SAMPLELENGTH:15.000;
#SELECTABLE:NO;
#LISTSORT:;
#BPMS:0.000=160.061,156.000=150.778,157.000=148.610,158.000=140.528,159.000=135.021,160.000=133.280,164.000=142.434,165.000=150.743,166.000=152.975,167.000=155.273,168.000=160.061;
#STOPS:;
#BGCHANGES:;
#ATTACKS:;

//---------------dance-single - ----------------
#NOTES:
     dance-single:
     :
     Hard:
     7:
     0.475,0.458,0.047,0.559,0.000:
0000
0000
0000
0000
,
0000
0000
0000
0000
,
0000
0000
0000
0000
,
0001
0010
0100
0010
,
0001
1000
0010
0100
,
0001
1000
0100
0010
,
0001
1000
0100
0000
0010
0000
0100
1000
,
0001
0100
0010
1000
,
1000
0002
0010
0013
,
0100
1000
0001
0000
0010
0000
0001
1000
,
0100
0000
0010
0000
0100
1000
0010
0100
,
0001
0010
0200
0000
1000
0000
1300
0000
,
0002
0000
0100
0000
1003
0100
0020
0000
,
0031
0000
1000
0010
0200
0000
0301
0000
,
0010
0100
2000
0000
3001
0000
0100
0010
,
2000
3001
0010
0020
,
0130
1000
0102
0003
,
1000
0102
0003
0010
,
1000
0001
0100
0000
0010
0000
0100
0001
,
1000
0100
0010
0001
,
0001
2000
0010
3010
,
0100
0001
1000
0000
0010
0000
1000
0001
,
0100
0000
0010
0000
0100
0001
0010
0100
,
1000
0010
0200
0000
0001
0000
0301
0000
,
2000
0000
0100
0000
3001
0100
0020
0000
,
1030
0000
0001
0010
0200
0000
1300
0000
,
0010
0100
0002
0000
1003
0000
0100
0010
,
0002
1003
0010
0020
,
0130
0001
2100
3000
,
0001
2100
3000
0000
,
0200
0000
2300
0000
,
3020
0000
2030
0000
,
3000
0001
0010
0100
,
2000
0000
3002
0000
,
0023
0000
0032
0000
,
0003
0100
0000
0010
,
1000
0001
0010
0100
,
1000
0010
0100
0001
,
1000
0001
0000
0000
,
0020
0230
2300
3200
,
0300
0000
0020
0001
,
0031
2000
3020
0230
,
0302
1000
1003
0001
,
0200
0000
0320
0000
2030
0000
3001
0010
,
0100
1000
0001
0000
0000
1000
0010
0100
,
0001
1000
0002
0000
0000
0000
1003
0000
,
0000
0100
0020
0001
,
0031
2000
3020
0230
,
0302
1000
1003
0100
,
0020
0000
0032
0000
2003
0000
3010
0100
,
0001
1000
0200
0000
0000
0310
0001
1000
,
0020
0000
0000
0130
0001
1000
0200
0000
,
0010
0000
0310
0000
0002
0000
0000
0103
,
0010
1000
0002
0000
0010
0000
0013
0000
,
0100
0000
1000
0010
0100
0001
2000
0000
,
0000
3001
0010
0100
1000
0000
0001
0100
,
0010
0000
0001
0000
0010
0100
0001
0000
,
1000
0100
0010
0001
1000
0100
0001
0100
,
1000
0000
0100
0000
0020
0000
0000
0031
,
0100
0000
0020
0000
0000
1030
0100
0000
,
0002
0000
0000
0103
1000
0000
0020
0000
,
0000
0130
0001
0000
1000
0100
0010
0001
,
0100
0010
0100
0001
1000
0000
0000
0000
,
0002
0000
0000
0013
0100
1000
0100
0000
,
0010
0001
1000
0100
,
0100
0010
0001
0001
,
1000
0010
0010
0100
,
0001
1000
0001
0010
,
0010
0100
1000
1000
,
0001
0100
0100
0010
,
1000
1001
0000
0000
;

//---------------dance-single - ----------------
#NOTES:
     dance-single:
     :
     Medium:
     4:
     0.276,0.293,0.000,0.280,0.000: // measure 1
0000
0000
0000
0000
,  // measure 2
0000
0000
0000
0000
,  // measure 3
0000
0000
0000
0000
,  // measure 4
0001
0010
0010
0100
,  // measure 5
0000
0000
1000
0010
,  // measure 6
0010
0100
0000
0000
,  // measure 7
0001
0010
0100
1000
,  // measure 8
0100
0010
0001
1000
,  // measure 9
1000
0002
0000
0003
,  // measure 10
1000
0010
0100
0001
,  // measure 11
0100
0010
1000
0100
,  // measure 12
0010
0002
0000
0003
,  // measure 13
2000
0000
3010
0100
,  // measure 14
0001
0010
0100
0000
,  // measure 15
0100
1000
0000
1000
,  // measure 16
0001
0000
0001
0001
,  // measure 17
1000
0100
0010
0000
,  // measure 18
0100
0010
0000
0001
,  // measure 19
1000
0100
0010
0001
,  // measure 20
0010
0100
1000
0001
,  // measure 21
0001
2000
0000
3000
,  // measure 22
0001
0100
0010
1000
,  // measure 23
0010
0100
0001
0010
,  // measure 24
0100
2000
0000
3000
,  // measure 25
0002
0000
0103
0010
,  // measure 26
1000
0100
0010
0000
,  // measure 27
0010
0001
0000
0001
,  // measure 28
1000
0000
1000
1000
,  // measure 29
0001
0010
0100
0000
,  // measure 30
0010
0100
0000
0000
,  // measure 31
2000
0000
3020
0000
,  // measure 32
0230
0000
0302
0000
,  // measure 33
0003
1000
0100
0010
,  // measure 34
0002
0000
0203
0000
,  // measure 35
0320
0000
2030
0000
,  // measure 36
3000
0001
0000
0010
,  // measure 37
0100
1000
0010
0100
,  // measure 38
0001
1000
0100
1000
,  // measure 39
0001
0200
0000
0300
,  // measure 40
0010
1000
0001
0020
,  // measure 41
0000
0030
0200
0000
,  // measure 42
0300
1000
0010
0100
,  // measure 43
0002
0000
0003
0000
,  // measure 44
0010
0100
1000
0000
,  // measure 45
1000
0001
0000
0001
,  // measure 46
0100
0020
0000
1030
,  // measure 47
0000
0000
0002
0000
,  // measure 48
0003
0010
0100
1000
,  // measure 49
0002
0000
0003
0000
,  // measure 50
0100
0010
1000
0000
,  // measure 51
1000
0001
0000
0001
,  // measure 52
0010
0000
0010
0200
,  // measure 53
0000
0300
1000
0000
,  // measure 54
0001
0200
0000
0300
,  // measure 55
0000
0000
0010
2000
,  // measure 56
0000
3001
0020
0000
,  // measure 57
0130
1000
0000
1000
,  // measure 58
0001
0100
0010
1000
,  // measure 59
0001
0000
0020
0000
,  // measure 60
0130
2000
0000
3010
,  // measure 61
0200
0000
0301
2000
,  // measure 62
0000
3100
0020
0000
,  // measure 63
0000
0000
0000
0000
,  // measure 64
0031
0000
0000
0000
,  // measure 65
0000
0000
1000
0000
,  // measure 66
1000
0010
0000
0010
,  // measure 67
0100
0000
0100
0001
,  // measure 68
0000
0000
0001
0000
,  // measure 69
0001
0010
0000
0010
,  // measure 70
0100
0000
0100
1000
;

//---------------dance-single - ----------------
#NOTES:
     dance-single:
     :
     Easy:
     3:
     0.180,0.195,0.000,0.000,0.000: // measure 1
0000
0000
0000
0000
,  // measure 2
0000
0000
0000
0000
,  // measure 3
0000
0000
0000
0000
,  // measure 4
0001
0000
0000
0100
,  // measure 5
0000
0000
0010
0000
,  // measure 6
0000
1000
0000
0000
,  // measure 7
0001
0000
0000
0010
,  // measure 8
0000
0000
0100
1000
,  // measure 9
1000
0001
0000
0000
,  // measure 10
1000
0000
0000
0010
,  // measure 11
0000
0000
0100
0001
,  // measure 12
0001
1000
0000
0000
,  // measure 13
0001
0000
0000
0010
,  // measure 14
0000
0100
0100
0000
,  // measure 15
0000
1000
0000
0000
,  // measure 16
0001
0000
0100
0100
,  // measure 17
0000
0010
0010
0000
,  // measure 18
0010
0010
0000
0000
,  // measure 19
1000
0000
0000
0010
,  // measure 20
0000
0000
0100
0001
,  // measure 21
0001
1000
0000
0000
,  // measure 22
0001
0000
0000
0010
,  // measure 23
0000
0000
0100
1000
,  // measure 24
1000
0001
0000
0000
,  // measure 25
1000
0000
0000
0010
,  // measure 26
0000
0100
0100
0000
,  // measure 27
0000
0001
0000
0000
,  // measure 28
1000
0000
0100
0100
,  // measure 29
0000
0010
0010
0000
,  // measure 30
0010
0010
0000
0000
,  // measure 31
0001
0000
0100
0000
,  // measure 32
0010
0000
0100
0000
,  // measure 33
0000
0001
0000
1000
,  // measure 34
1000
0000
0100
0000
,  // measure 35
0010
0000
0100
0000
,  // measure 36
0000
1000
0000
0001
,  // measure 37
0001
0000
0000
0100
,  // measure 38
0000
0000
0010
0010
,  // measure 39
0010
0010
0000
0000
,  // measure 40
1000
1000
1000
1000
,  // measure 41
0000
0000
0001
0000
,  // measure 42
0000
1000
1000
0000
,  // measure 43
0001
0000
0000
0000
,  // measure 44
0100
0100
0010
0000
,  // measure 45
1000
1000
0000
0001
,  // measure 46
0001
0100
0000
0010
,  // measure 47
0000
0000
1000
0000
,  // measure 48
0000
0100
0100
0000
,  // measure 49
0010
0000
0000
0000
,  // measure 50
0001
0100
0010
0000
,  // measure 51
0000
1000
0000
1000
,  // measure 52
0001
0000
0001
0100
,  // measure 53
0000
0000
0010
0000
,  // measure 54
1000
1000
0000
0000
,  // measure 55
0000
0000
0001
0001
,  // measure 56
0000
0010
0100
0000
,  // measure 57
1000
0001
0000
0100
,  // measure 58
0100
0010
0000
1000
,  // measure 59
0000
0000
0001
0000
,  // measure 60
0010
0010
0000
0100
,  // measure 61
0100
0000
1000
1000
,  // measure 62
0000
0001
0001
0000
,  // measure 63
0000
0000
0000
0000
,  // measure 64
0100
0000
0000
0010
,  // measure 65
0000
0000
1000
0000
,  // measure 66
1000
0100
0000
0000
,  // measure 67
0010
0000
0010
0001
,  // measure 68
0000
0000
0001
0000
,  // measure 69
0001
0100
0000
0000
,  // measure 70
0010
0000
0010
1000
;
