#TITLE:A Stranger I Remain;
#SUBTITLE:;
#ARTIST:Jamie Christopherson, Logan Mader;
#TITLETRANSLIT:;
#SUBTITLETRANSLIT:;
#ARTISTTRANSLIT:;
#GENRE:;
#CREDIT:mf32892;
#BANNER:A Stranger I Remain-bn.png;
#BACKGROUND:A Stranger I Remain-bg.png;
#LYRICSPATH:;
#CDTITLE:;
#MUSIC:A Stranger I Remain.ogg;
#OFFSET:-1.614569;
#SAMPLESTART:35.259609;
#SAMPLELENGTH:12.000000;
#SELECTABLE:YES;
#BPMS:0.000000=164.988998
;
#STOPS:
;
#BGCHANGES:0.000=A Stranger I Remain.mp4=1.000=0=0=0=StretchNoLoop====,
99999=-nosongbg-=1.000=0=0=0 // don't automatically add -songbackground-
;
#KEYSOUNDS:;
#ATTACKS:;

//---------------dance-single - ----------------
#NOTES:
     dance-single:
     :
     Hard:
     9:
     0.617635,0.655688,0.266373,0.020490,0.058056,591.000000,39.000000,3.000000,0.000000,0.000000,0.000000,0.617635,0.655688,0.266373,0.020490,0.058056,591.000000,39.000000,3.000000,0.000000,0.000000,0.000000:
// measure 0
0000
0000
0000
0000
,  // measure 1
0000
0000
0000
0000
,  // measure 2
0000
0000
0000
0000
,  // measure 3
0000
0000
0000
0000
,  // measure 4
0000
0000
0000
0000
,  // measure 5
0000
0000
0000
0000
,  // measure 6
1100
0000
0000
0010
0001
0010
0100
1000
,  // measure 7
0101
0000
0000
0010
1000
0010
0100
0001
,  // measure 8
1100
0000
0000
0001
0100
0001
1000
0100
,  // measure 9
0001
0100
1000
0010
0100
0001
0010
0100
,  // measure 10
1100
0000
0010
0001
1000
0001
0100
0010
,  // measure 11
1010
0000
0001
0010
0100
0010
0001
0100
,  // measure 12
0101
0000
1000
0010
0100
0010
1000
0100
,  // measure 13
0001
0100
1000
0010
0001
0010
0100
0001
,  // measure 14
1000
0000
0001
0000
0100
0010
1000
0000
,  // measure 15
0001
0000
0010
0000
0001
0010
0100
1000
,  // measure 16
0001
0000
0001
0000
0100
0010
1000
1000
,  // measure 17
0001
0000
0010
0100
0000
1100
0000
0101
,  // measure 18
0100
0000
0001
0000
1000
0001
0100
0000
,  // measure 19
0010
0000
1000
0000
0100
1000
0001
0010
,  // measure 20
1000
0000
0010
0000
0001
0100
0010
0100
,  // measure 21
0001
0001
0000
0011
0000
1010
0000
1100
,  // measure 22
1000
0100
0001
0100
0010
0001
1000
0010
,  // measure 23
0100
0000
0101
0000
1000
0100
0011
0000
,  // measure 24
0001
0100
1000
0100
0010
1000
0100
0010
,  // measure 25
0001
0000
1001
0000
0100
0010
1001
0000
,  // measure 26
0001
0010
1000
0010
0100
1000
0001
0100
,  // measure 27
1000
0000
0110
0000
0001
0010
1100
0000
,  // measure 28
1000
0010
0001
0010
0100
0001
1000
0100
,  // measure 29
0001
0000
0100
0000
1000
0010
0101
0000
,  // measure 30
0002
0000
1000
0000
0000
0000
1003
0001
,  // measure 31
0100
0010
1000
0001
,  // measure 32
1000
0100
1000
0100
0010
0001
0100
0010
,  // measure 33
0000
0010
0100
0001
0100
0001
0010
0100
,  // measure 34
0000
0100
1000
0001
1000
0001
0100
0010
,  // measure 35
1010
0000
1001
0000
0011
0100
1000
0000
,  // measure 36
0001
0100
0001
0100
0010
1000
0100
0010
,  // measure 37
0000
0010
0100
1000
0100
1000
0001
0100
,  // measure 38
0000
0100
0001
1000
0001
1000
0100
0010
,  // measure 39
0011
0000
1001
0000
1010
0100
0001
0000
,  // measure 40
1010
0000
1100
0000
0001
0010
0100
0000
,  // measure 41
0011
0000
0101
0000
1000
0010
0100
0000
,  // measure 42
1010
0000
0110
0000
0001
0010
0100
0000
,  // measure 43
1000
0001
0100
0010
1000
0100
0010
0000
,  // measure 44
0001
0010
0001
0010
0100
1000
0001
0100
,  // measure 45
0000
0100
0010
1000
0010
1000
0100
0010
,  // measure 46
0000
0010
0100
1000
0001
0100
0010
1000
,  // measure 47
0001
0010
0001
0010
0100
1000
0001
0000
,  // measure 48
0100
0100
0000
0000
0001
0001
0010
0010
,  // measure 49
1000
1000
0000
0000
0010
0010
0100
0100
,  // measure 50
1000
0000
1000
0000
0000
0001
0100
0000
0010
0000
0000
0000
1000
0000
1000
0000
,  // measure 51
0100
0000
0100
0000
0000
0010
0001
0000
0100
0000
0000
0000
0001
0000
0010
0000
,  // measure 52
0100
0000
0000
1000
0001
1000
0010
0100
,  // measure 53
0001
0000
0000
0010
0001
0010
0100
1000
,  // measure 54
0001
0100
1000
0100
0010
0100
1000
0100
,  // measure 55
0001
0000
0010
0000
0100
0000
0010
0000
1000
0000
0000
0010
0000
0000
0001
0000
,  // measure 56
1000
0000
0000
0010
1000
0010
0100
0001
,  // measure 57
1000
0000
0000
0100
0010
0001
1000
0010
,  // measure 58
0100
0010
0000
0010
1000
0001
1000
0100
,  // measure 59
0010
0000
0001
0000
0000
0000
1001
0000
0000
0001
0100
0001
0100
0000
0010
1000
,  // measure 60
0010
0100
0000
0001
0000
1000
0001
0000
,  // measure 61
0010
0000
0100
0000
0000
0000
1100
0000
0000
0000
1000
0000
0001
0000
1000
0010
,  // measure 62
0100
0010
0110
0000
0001
0100
0101
0000
,  // measure 63
1000
0000
0001
0000
1000
0100
1000
0100
1000
0000
0000
1000
0000
0000
1000
0000
,  // measure 64
0001
0100
0100
1000
0100
0100
0010
1000
,  // measure 65
0001
0010
0100
1000
0001
0010
0100
0000
,  // measure 66
1000
0100
0100
0001
0100
0100
0010
0001
,  // measure 67
1000
0010
0100
0001
1000
0010
0100
0000
,  // measure 68
0001
0010
0010
1000
0010
0010
0001
1000
,  // measure 69
0001
0100
0010
1000
0001
0010
0100
0000
,  // measure 70
1000
0010
0010
0001
0010
0010
1000
0001
,  // measure 71
1000
0100
0010
0001
1000
0010
0100
0000
,  // measure 72
0001
0010
0001
1000
0001
1000
0010
0100
,  // measure 73
0001
0000
0100
0000
0001
0000
1000
0000
0100
0000
1000
0000
0001
0000
1000
0001
,  // measure 74
0100
0001
0100
0010
0100
0010
1000
0001
,  // measure 75
1000
0100
1000
0100
0001
0100
1000
0000
,  // measure 76
1000
0010
1000
0001
0010
0100
1000
0001
,  // measure 77
1000
0000
0100
0000
1000
0000
0001
0000
0100
0000
0001
0000
1000
0000
0001
1000
,  // measure 78
0010
1000
0010
0100
0001
0100
0010
1000
,  // measure 79
0011
0000
0000
0000
0110
0000
0110
0000
0000
0000
1100
0000
0001
1000
0001
1000
,  // measure 80
0100
0010
0001
0010
0100
1000
0001
1000
,  // measure 81
0010
0100
0001
0100
0010
1000
0001
1000
,  // measure 82
0100
0001
0100
1000
0100
0010
0001
1000
,  // measure 83
0001
0100
1000
0100
0010
0100
0001
0000
,  // measure 84
0010
0100
1000
0100
0010
0001
1000
0001
,  // measure 85
0100
0010
1000
0010
0100
0001
1000
0001
,  // measure 86
0010
1000
0010
0001
0010
0100
1000
0001
,  // measure 87
1000
0010
0001
0010
0100
0010
1000
0000
,  // measure 88
0001
0100
0001
0000
0000
0000
1000
0000
0010
0000
0100
0000
0001
0000
1000
0000
,  // measure 89
0100
1000
0100
0000
0000
0000
0010
0000
0001
0000
1000
0000
0010
0000
0100
0000
,  // measure 90
0001
0010
1000
0010
0001
0100
1000
0100
,  // measure 91
0001
0000
0010
0000
0100
0000
1000
0000
0010
0000
0000
0100
0000
0000
0001
0000
,  // measure 92
2002
0000
0000
0000
,  // measure 93
0000
0000
0000
0000
,  // measure 94
0000
0000
0000
0000
,  // measure 95
0000
0000
0000
0000
,  // measure 96
3003
0000
0000
0000
;

//---------------dance-single - ----------------
#NOTES:
     dance-single:
     :
     Medium:
     7:
     0.493718,0.458982,0.245883,0.204903,0.013660,440.000000,36.000000,30.000000,0.000000,0.000000,0.000000,0.493718,0.458982,0.245883,0.204903,0.013660,440.000000,36.000000,30.000000,0.000000,0.000000,0.000000:
// measure 0
0000
0000
0000
0000
,  // measure 1
0000
0000
0000
0000
,  // measure 2
0000
0000
0000
0000
,  // measure 3
0000
0000
0000
0000
,  // measure 4
0000
0000
0000
0000
,  // measure 5
0000
0000
0000
0000
,  // measure 6
1100
0000
0000
1000
0001
1000
0001
0000
,  // measure 7
0101
0000
0000
0001
1000
0001
1000
0000
,  // measure 8
1010
0000
0000
1000
0010
1000
0010
0000
,  // measure 9
2000
0000
3002
0000
0013
0100
0010
0000
,  // measure 10
0110
0000
0000
1000
0100
0010
0001
0000
,  // measure 11
0011
0000
0000
0001
0100
0010
1000
0000
,  // measure 12
1010
0000
0000
1000
0010
0100
0001
0000
,  // measure 13
0020
0000
0230
0000
1300
0001
1000
0001
,  // measure 14
0100
0000
0010
0000
1000
0001
0010
0000
,  // measure 15
0100
0000
1000
0000
0001
0100
0010
0000
,  // measure 16
1000
0000
0001
0000
0010
0100
1000
0000
,  // measure 17
0100
0000
0010
0001
0000
0001
0000
1000
,  // measure 18
0001
0000
1000
0000
0010
1000
0100
0000
,  // measure 19
0010
0000
0001
0000
1000
0001
0100
0000
,  // measure 20
0010
0000
1000
0000
0001
0010
0100
0000
,  // measure 21
0010
0100
0000
0100
0000
1000
0000
0001
,  // measure 22
1000
0000
0100
0000
0010
0001
0100
0000
,  // measure 23
0010
1200
0310
0201
,  // measure 24
0310
0000
1000
0000
0001
0010
0100
0000
,  // measure 25
1000
0201
0310
1200
,  // measure 26
0310
0000
0001
0000
1000
0001
0100
0000
,  // measure 27
0010
1020
0130
0021
,  // measure 28
0130
0000
1000
0000
0001
0100
0010
0000
,  // measure 29
1000
0201
0310
1200
,  // measure 30
0310
0000
0001
0000
0000
1000
0001
0000
,  // measure 31
0100
0000
0010
0000
1000
0001
0100
0000
,  // measure 32
0020
0000
1000
0000
1000
0000
1030
0002
,  // measure 33
0000
0000
0010
0000
0010
0000
0013
0200
,  // measure 34
0000
0000
1000
0000
1300
0000
0001
0100
,  // measure 35
0010
1000
1010
1001
,  // measure 36
0012
0000
0010
0000
0010
0000
0013
0200
,  // measure 37
0000
0000
1000
0000
1000
0000
1300
0002
,  // measure 38
0000
0000
0100
0000
0103
0000
0010
1000
,  // measure 39
0001
0010
0110
1100
,  // measure 40
0002
0010
2003
0010
,  // measure 41
3002
0000
0100
0000
1003
0100
0010
0000
,  // measure 42
0200
0010
2300
0010
,  // measure 43
3002
0000
0100
0000
1003
0001
0010
0000
,  // measure 44
0200
0000
1000
0000
1000
0000
1300
0002
,  // measure 45
0000
0000
0100
0000
0100
0000
0103
0020
,  // measure 46
0000
1030
0001
1000
0000
0001
0100
0001
,  // measure 47
0000
1000
0100
1000
0000
0001
0200
0000
,  // measure 48
0310
0000
1000
0100
,  // measure 49
0010
0000
0001
0100
,  // measure 50
0010
0100
0000
0010
0100
0000
0010
1000
,  // measure 51
0001
0010
0000
0001
0010
0000
0100
1000
,  // measure 52
0001
0000
0000
0100
0010
1000
0100
0000
,  // measure 53
0010
0000
0000
0001
0100
0001
1000
0000
,  // measure 54
0001
0100
0001
0000
1000
0100
1000
0000
,  // measure 55
0001
0000
0100
0000
0010
0000
1000
0000
0001
0000
0000
0001
0000
0000
0001
0000
,  // measure 56
1000
0000
0000
0001
0010
0001
1000
0000
,  // measure 57
0100
0000
0000
1000
0100
1000
0001
0000
,  // measure 58
0100
0010
0000
1000
0001
1000
0100
0000
,  // measure 59
0010
0001
0000
1000
0001
1000
0010
0000
,  // measure 60
0100
0010
0000
0010
1000
0001
0010
0000
,  // measure 61
0100
1000
0000
1000
0001
0100
0010
0000
,  // measure 62
0100
0001
1000
0000
0100
1000
0001
0000
,  // measure 63
0100
0000
0010
0000
1000
0000
0001
0000
0010
0000
0000
0010
0000
0000
0010
0000
,  // measure 64
0100
0000
1000
0100
0000
0010
0100
0000
,  // measure 65
1000
0100
0010
0001
1000
0100
0010
0000
,  // measure 66
0001
0000
0100
0010
0000
0100
0001
0000
,  // measure 67
0010
0100
1000
0001
0010
0100
1000
0000
,  // measure 68
1000
0000
0001
0100
0000
0010
1000
0000
,  // measure 69
0001
0100
0010
1000
0001
0100
0010
0000
,  // measure 70
1000
0000
0100
0010
0000
0001
1000
0000
,  // measure 71
0010
0100
0001
1000
0100
0010
0001
0000
,  // measure 72
1000
0000
0100
0010
0000
0010
0001
0000
,  // measure 73
1000
0010
0100
0001
0010
0100
1000
0000
,  // measure 74
0001
0000
0010
0100
0000
0100
1000
0000
,  // measure 75
0001
0000
0100
0010
0000
1000
0000
0001
,  // measure 76
1000
0000
0100
0010
0000
0010
0001
0000
,  // measure 77
1000
0001
0100
0010
1000
0001
0010
0000
,  // measure 78
0001
0000
1000
0100
0000
0100
0010
0000
,  // measure 79
0001
0000
0010
0100
0000
1000
0000
0001
,  // measure 80
0100
0010
1010
1001
,  // measure 81
0001
0010
0110
0011
,  // measure 82
1000
0001
0101
0110
,  // measure 83
1000
0001
0011
0110
,  // measure 84
1100
0000
0101
0000
1000
0001
0100
0000
,  // measure 85
1010
0000
1100
0000
0001
0010
0100
0000
,  // measure 86
0110
0000
0011
0000
1000
0001
0100
0000
,  // measure 87
0110
0000
1010
0000
0001
0010
0100
0000
,  // measure 88
1000
1000
0000
0001
0100
0001
0010
0100
,  // measure 89
0010
0010
0000
0001
0100
0001
1000
0010
,  // measure 90
0100
0000
0100
0000
0000
0000
0001
0000
0000
0010
0000
0000
0100
0000
0000
0000
,  // measure 91
1000
0000
0010
0000
0000
0000
0100
0000
0001
0000
0000
0010
0000
0000
0100
0000
,  // measure 92
2200
0000
0000
0000
,  // measure 93
0000
0000
0000
0000
,  // measure 94
0000
0000
0000
0000
,  // measure 95
0000
0000
0000
0000
,  // measure 96
3300
0000
0000
0000
;

//---------------dance-single - ----------------
#NOTES:
     dance-single:
     :
     Easy:
     4:
     0.344432,0.393413,0.211733,0.204903,0.000000,292.000000,31.000000,30.000000,0.000000,0.000000,0.000000,0.344432,0.393413,0.211733,0.204903,0.000000,292.000000,31.000000,30.000000,0.000000,0.000000,0.000000:
// measure 0
0000
0000
0000
0000
,  // measure 1
0000
0000
0000
0000
,  // measure 2
0000
0000
0000
0000
,  // measure 3
0000
0000
0000
0000
,  // measure 4
0000
0000
0000
0000
,  // measure 5
0000
0000
0000
0000
,  // measure 6
0011
0000
0001
1000
,  // measure 7
1100
0000
1000
0001
,  // measure 8
0101
0000
0001
1000
,  // measure 9
0010
0010
0100
0100
,  // measure 10
0101
0000
0010
1000
,  // measure 11
1100
0000
0010
0001
,  // measure 12
0101
0000
0010
1000
,  // measure 13
0001
0001
1000
1000
,  // measure 14
0100
0010
0001
0000
,  // measure 15
1000
0001
0100
0000
,  // measure 16
0010
1000
0001
0000
,  // measure 17
0010
0100
1000
1001
,  // measure 18
0001
1000
0100
0000
,  // measure 19
1000
0001
0100
0000
,  // measure 20
0010
0100
0001
0000
,  // measure 21
0010
0100
1000
1001
,  // measure 22
0001
0100
0010
1000
,  // measure 23
0001
0201
0300
1200
,  // measure 24
1300
0001
0100
0010
,  // measure 25
1000
2010
3000
0012
,  // measure 26
1003
0001
0100
0001
,  // measure 27
0010
0210
0300
2001
,  // measure 28
3010
0210
0300
0102
,  // measure 29
1003
0100
0010
0001
,  // measure 30
2000
0000
0000
0000
,  // measure 31
3001
0100
0010
1000
,  // measure 32
0001
0001
0001
1000
,  // measure 33
0100
0100
0100
0010
,  // measure 34
0100
0000
1000
0000
,  // measure 35
0001
0100
0010
0000
,  // measure 36
1000
1000
1000
0100
,  // measure 37
0010
0010
0010
0001
,  // measure 38
1000
0000
0010
0000
,  // measure 39
0100
0001
1000
0000
,  // measure 40
0001
0010
0100
1000
,  // measure 41
0001
0100
0010
1000
,  // measure 42
0001
0010
0200
0300
,  // measure 43
1000
1000
0001
1000
,  // measure 44
0010
0010
0010
1000
,  // measure 45
0100
0100
0100
0010
,  // measure 46
0001
1000
0000
0001
,  // measure 47
0000
1000
0000
0001
,  // measure 48
0101
0000
0001
0010
,  // measure 49
0100
0000
1000
0001
,  // measure 50
0100
0000
0100
0010
,  // measure 51
1000
0000
1000
0100
,  // measure 52
0110
0000
0001
1000
,  // measure 53
0100
0000
1000
0001
,  // measure 54
0100
0000
0010
0000
,  // measure 55
1000
0000
1001
0000
,  // measure 56
0101
0000
0010
1000
,  // measure 57
1100
0000
0010
0001
,  // measure 58
0101
0000
0001
1000
,  // measure 59
1100
0000
1000
0001
,  // measure 60
0100
0000
0010
1000
,  // measure 61
0100
0000
0010
0001
,  // measure 62
1000
1010
0001
0011
,  // measure 63
1000
0001
2002
3003
,  // measure 64
0001
0001
0100
0010
,  // measure 65
1000
0001
0010
0100
,  // measure 66
1000
1000
0001
1000
,  // measure 67
0010
0100
0001
0000
,  // measure 68
1000
0100
0010
0001
,  // measure 69
1000
0001
0100
0100
,  // measure 70
0010
1000
0001
1000
,  // measure 71
0100
0010
0001
0000
,  // measure 72
2000
3001
0200
0310
,  // measure 73
2000
3001
0020
0130
,  // measure 74
0200
1300
0002
0103
,  // measure 75
0020
1030
0002
0013
,  // measure 76
0020
0130
2000
3001
,  // measure 77
0200
0310
2000
3100
,  // measure 78
0200
0310
0002
1003
,  // measure 79
0020
0130
0002
1003
,  // measure 80
0001
0001
0001
0010
,  // measure 81
0100
0100
0100
1000
,  // measure 82
0001
0001
0001
0100
,  // measure 83
0010
0010
1000
0100
,  // measure 84
0010
0010
0010
0001
,  // measure 85
1000
1000
1000
0010
,  // measure 86
0100
0100
0100
0001
,  // measure 87
1000
1000
0100
0010
,  // measure 88
0001
0000
1000
0100
,  // measure 89
1100
0000
0001
0100
,  // measure 90
0101
0000
1001
0000
,  // measure 91
1100
0000
0001
1000
,  // measure 92
2002
0000
0000
0000
,  // measure 93
0000
0000
0000
0000
,  // measure 94
0000
0000
0000
0000
,  // measure 95
0000
0000
0000
0000
,  // measure 96
3003
0000
0000
0000
;
