#TITLE:ЁVOLUTIФN;
#SUBTITLE:;
#ARTIST:TЁЯRA;
#TITLETRANSLIT:EVOLUTION;
#SUBTITLETRANSLIT:;
#ARTISTTRANSLIT:TERRA;
#GENRE:;
#CREDIT:;
#MENUCOLOR:;
#METERTYPE:DDR;
#BANNER:[Last Song] - EVOLUTION.png;
#BACKGROUND:[Last Song] - EVOLUTION-bg.png;
#LYRICSPATH:;
#CDTITLE:./CDTITLES/BEATMANIA IIDX.PNG;
#MUSIC:[Last Song] - EVOLUTION.ogg;
#OFFSET:-1.455;
#SAMPLESTART:37.091;
#SAMPLELENGTH:15.000;
#SELECTABLE:YES;
#LISTSORT:;
#BPMS:0.000=165.000,164.000=82.500,180.000=165.000,212.000=82.500,228.000=165.000;
#STOPS:;
#BGCHANGES:-4.000=[Last Song] - EVOLUTION.avi=1.000=0=0=0,
99999=-nosongbg-=1.000=0=0=0 // don't automatically add -songbackground-
;
#ATTACKS:;

//---------------dance-single - ----------------
#NOTES:
     dance-single:
     :
     Beginner:
     1:
     0.112,0.178,0.024,0.032,0.000:
0000
0000
0000
0000
,
0000
0000
0000
0000
,
0000
0000
0000
0000
,
0000
0000
0000
0000
,
0010
0000
0000
0000
,
0000
0000
0000
0000
,
0100
0000
0000
0000
,
0000
0000
0000
0000
,
0000
0001
0000
0000
,
0000
1000
0000
0000
,
0000
0001
0000
0000
,
0000
0010
0000
0000
,
0000
0100
0000
0000
,
0000
1000
0000
0000
,
0000
0001
0000
0000
,
0000
0100
0000
0100
,
0100
0000
0000
0000
,
0010
0000
0000
0000
,
1000
0000
0000
0000
,
0001
0000
0000
0000
,
1000
0000
0000
0000
,
0100
0000
0000
0000
,
0010
0000
0000
0000
,
0001
0000
0000
0000
,
1000
1000
0000
0000
,
0001
0000
0000
0000
,
0100
0000
0000
0000
,
0010
0000
0000
0000
,
1000
0000
0000
0000
,
0100
0000
0000
0000
,
0010
0000
0000
0000
,
0001
0000
0000
0000
,
0100
0000
0000
0000
,
0010
0000
0010
0000
,
0010
0000
0000
0000
,
0100
0000
0100
0000
,
0100
0000
0000
0000
,
0001
0000
0001
0000
,
0001
0000
0000
0000
,
1000
0000
1000
0000
,
1000
0000
0000
0000
,
0002
0000
0000
0003
,
2000
0000
0000
3000
,
0020
0000
0000
0030
,
0200
0000
0000
0300
,
0001
0000
0000
0000
,
0001
0000
0000
0000
,
1000
0000
0000
0000
,
1000
0000
0000
0000
,
0000
0010
0000
0010
,
0000
0010
0000
0000
,
0000
0100
0000
0100
,
0000
0100
0100
0000
,
0010
0000
1000
0000
,
0001
0000
1000
0000
,
0100
0000
0010
0000
,
1001
0000
0110
0000
,
0000
0010
0000
0010
,
0000
0010
0000
0000
,
0000
0100
0000
0100
,
0000
0100
0000
0000
,
0000
0001
0000
0001
,
0000
0001
0000
0000
,
0000
1000
0000
1000
,
0000
1000
0000
0000
,
0100
0000
0100
0000
,
0100
0000
0000
0000
,
0010
0000
0010
0000
,
0010
0000
0000
0000
,
0001
0000
1000
0000
,
0001
0000
0000
0000
,
1000
0000
0001
0000
,
1000
0000
0000
0000
,
0010
0000
0100
0000
,
0010
0000
0000
0000
,
0110
0000
0000
0000
;

//---------------dance-single - ----------------
#NOTES:
     dance-single:
     :
     Easy:
     4:
     0.272,0.394,0.182,0.182,0.000: // measure 1
0000
0000
0000
0000
,  // measure 2
0000
0000
0000
0000
,  // measure 3
0000
0000
0000
0000
,  // measure 4
0000
0000
0000
0000
,  // measure 5
0110
0000
0000
0000
,  // measure 6
0100
0000
0000
0000
,  // measure 7
0001
0000
1000
0000
,  // measure 8
2002
0000
0000
3003
,  // measure 9
0000
0010
0000
0010
,  // measure 10
0000
0100
0000
0100
,  // measure 11
0000
0010
0000
0010
,  // measure 12
0100
0000
0100
0000
,  // measure 13
0001
0000
0001
0000
,  // measure 14
1000
0000
1000
0000
,  // measure 15
0001
0000
1000
0010
,  // measure 16
0200
0000
0000
0300
,  // measure 17
0010
1000
0010
0000
,  // measure 18
0100
0001
0100
0000
,  // measure 19
0001
0010
0001
0010
,  // measure 20
0100
1000
0200
0300
,  // measure 21
1000
0010
0000
1000
,  // measure 22
0001
1000
0000
0001
,  // measure 23
0010
0000
1001
0000
,  // measure 24
0100
0100
0010
0010
,  // measure 25
0110
0220
0000
0330
,  // measure 26
0001
1000
0000
0010
,  // measure 27
0100
0001
0000
1000
,  // measure 28
0100
0000
0100
0000
,  // measure 29
1000
0010
0100
0001
,  // measure 30
1000
0010
0000
1000
,  // measure 31
0100
1000
0000
0000
,  // measure 32
0010
1001
0100
1001
,  // measure 33
0220
0000
0000
0330
,  // measure 34
0010
0010
0100
0100
,  // measure 35
0001
0001
1000
1000
,  // measure 36
0100
0000
1000
0000
,  // measure 37
0010
0000
0000
0000
,  // measure 38
1000
1000
0100
0100
,  // measure 39
0010
0010
0001
0001
,  // measure 40
1000
0000
0001
0000
,  // measure 41
1000
0001
1000
0001
,  // measure 42
0020
0030
0200
0300
,  // measure 43
2000
0001
3010
0000
,  // measure 44
0200
0300
0002
0003
,  // measure 45
0020
0001
1000
0130
,  // measure 46
1100
0000
0000
0000
,  // measure 47
0010
0000
0000
0000
,  // measure 48
0101
0000
0000
0000
,  // measure 49
0010
0000
0000
0000
,  // measure 50
0100
0010
0000
0010
,  // measure 51
0100
0001
0000
0001
,  // measure 52
1000
0000
1001
0000
,  // measure 53
0010
0110
0100
0110
,  // measure 54
0002
0013
2000
3100
,  // measure 55
0020
0100
0001
1030
,  // measure 56
0200
1300
0020
0031
,  // measure 57
1001
0000
0110
0000
1000
1000
0001
0001
,  // measure 58
1000
0100
1000
0100
,  // measure 59
0010
0010
0001
0001
,  // measure 60
0100
0001
0100
0001
,  // measure 61
1000
1000
0010
0010
,  // measure 62
0100
0000
0010
0000
,  // measure 63
1000
0000
0001
0000
,  // measure 64
0010
1001
0100
1001
,  // measure 65
0220
0000
0000
0330
,  // measure 66
1000
1000
0100
0100
,  // measure 67
0001
0001
0100
0100
,  // measure 68
1000
0000
0010
0000
,  // measure 69
0100
0000
0000
0000
,  // measure 70
0001
0001
0010
0010
,  // measure 71
1000
1000
0010
0010
,  // measure 72
0001
0000
1000
0000
,  // measure 73
1001
0000
0010
0000
,  // measure 74
0110
0000
0100
0000
,  // measure 75
0010
0100
1001
0110
,  // measure 76
2002
0000
0000
0000
,  // measure 77
0000
0000
0000
3003
;

//---------------dance-single - ----------------
#NOTES:
     dance-single:
     :
     Medium:
     6:
     0.434,0.485,0.300,0.261,0.059: // measure 1
0000
0000
0000
0000
,  // measure 2
0000
0000
0000
0000
,  // measure 3
0000
0000
0000
0000
,  // measure 4
0000
0000
0000
0000
,  // measure 5
0100
0100
0100
0100
,  // measure 6
0010
0010
0010
0010
,  // measure 7
1000
0001
1000
0001
,  // measure 8
2002
0000
0000
3003
,  // measure 9
0000
0100
0000
0100
0000
0001
0001
0000
,  // measure 10
0000
1000
0000
1000
0000
0001
0001
0000
,  // measure 11
0000
0010
0000
0010
0000
0001
0001
0000
,  // measure 12
0011
1001
1010
1001
,  // measure 13
0010
0000
0010
0100
0001
0000
1000
0000
,  // measure 14
0001
0000
0010
0100
1000
0000
0100
0000
,  // measure 15
1000
0000
0010
0000
,  // measure 16
0220
0000
0000
0330
,  // measure 17
0010
0000
0000
1000
0000
0000
0010
0000
0000
0000
0000
0000
0101
0000
0000
0000
,  // measure 18
0010
0000
0000
0001
0000
0000
0010
0000
0000
0000
0000
0000
1100
0000
0000
0000
,  // measure 19
0010
0000
0000
0001
0000
0000
0000
0000
1000
0000
0000
0000
0100
0000
0000
0000
,  // measure 20
1000
0010
1000
0010
2000
0000
3000
0000
,  // measure 21
0010
0000
0000
0100
0000
0000
0001
0000
0000
0000
1000
0000
0100
0000
0000
0000
,  // measure 22
1000
0000
0000
1000
0000
0000
0001
0000
1000
0000
0000
0000
0001
0000
0000
0000
,  // measure 23
1001
0000
0110
0000
,  // measure 24
1100
1100
0101
0101
,  // measure 25
1001
2002
0000
3003
,  // measure 26
1000
0010
1000
0000
0100
0000
0100
0000
,  // measure 27
0010
0001
0010
0000
0001
0000
0001
0000
,  // measure 28
1000
0010
1000
0000
0010
0000
0100
0000
,  // measure 29
0001
0010
0100
0000
1000
0000
1000
0000
,  // measure 30
0001
1000
0100
0000
0010
0000
0100
0000
,  // measure 31
1000
0001
0010
0000
0001
0000
0001
0000
,  // measure 32
1001
0010
1001
0100
,  // measure 33
2001
0000
0000
3010
,  // measure 34
0110
0000
0000
0001
0000
0000
0001
0000
0010
0000
0000
1000
0000
0000
1000
0000
,  // measure 35
0010
0000
0000
0100
0000
0000
0001
0000
0010
0000
0000
0100
0000
0000
1000
0000
,  // measure 36
0100
0000
0100
0010
0001
0000
1000
0000
,  // measure 37
0010
0000
0010
0100
0001
0000
1000
0000
,  // measure 38
0110
0000
0000
1000
0000
0000
1000
0000
0100
0000
0000
0001
0000
0000
0001
0000
,  // measure 39
0100
0000
0000
0010
0000
0000
1000
0000
0100
0000
0000
0010
0000
0000
0001
0000
,  // measure 40
2000
3001
0002
1003
,  // measure 41
0100
0000
0110
0000
0010
0100
0010
0100
,  // measure 42
0002
0013
2000
3100
,  // measure 43
2000
3020
0200
0330
,  // measure 44
0002
1003
2000
3010
,  // measure 45
2000
0000
3200
0000
0320
0000
0002
0033
,  // measure 46
1001
0010
0000
0010
,  // measure 47
0000
0010
0000
0010
,  // measure 48
0110
0001
0000
0001
,  // measure 49
1000
0000
0001
0000
,  // measure 50
1000
0000
1000
0100
1000
0000
1000
0000
,  // measure 51
0001
0000
0001
0100
0001
0000
0001
0000
,  // measure 52
1001
0010
1001
0100
,  // measure 53
1001
1001
0220
0330
,  // measure 54
0010
0100
0001
0000
0010
0100
1000
0000
,  // measure 55
1001
0000
1010
0000
0001
0100
0001
0000
,  // measure 56
1000
0100
0010
0000
0001
0010
0100
0000
,  // measure 57
1001
0000
0011
0000
1000
1000
0001
0001
,  // measure 58
1000
0100
1000
0000
0100
0000
0100
0000
,  // measure 59
0010
0001
0010
0000
0001
0000
0001
0000
,  // measure 60
1000
0010
1000
0000
0001
0100
0001
0000
,  // measure 61
1000
0100
1000
0001
1000
0000
1000
0000
,  // measure 62
0001
0010
0100
0000
0010
0000
0010
0000
,  // measure 63
0001
0010
0001
0000
1000
0000
1000
0000
,  // measure 64
0010
0000
0100
0001
1000
0000
0010
1000
,  // measure 65
0001
0000
1000
0000
0001
0010
0100
0000
,  // measure 66
0012
1003
2000
3100
,  // measure 67
0020
0031
2000
3010
,  // measure 68
0100
0001
0100
0000
0001
0010
0001
0000
,  // measure 69
1000
0100
0010
0100
2000
0000
3001
0000
,  // measure 70
2010
3100
0020
0130
,  // measure 71
0002
0013
2000
3100
,  // measure 72
0010
0000
0000
0000
0100
0000
0001
0000
0100
0000
0000
0010
0000
0000
1000
0000
,  // measure 73
0100
0000
0000
0000
0010
0000
0100
0000
0010
0000
0000
0100
0000
0000
1000
0000
,  // measure 74
0010
0000
0101
0000
,  // measure 75
0010
0000
1100
0000
0101
0000
1000
0001
,  // measure 76
2000
0000
0000
0000
,  // measure 77
0000
0000
0000
3000
;

//---------------dance-single - ----------------
#NOTES:
     dance-single:
     :
     Hard:
     9:
     0.654,0.849,0.308,0.182,0.304: // measure 1
0000
0000
0000
0000
,  // measure 2
0000
0000
0000
0000
,  // measure 3
0000
0000
0000
0000
,  // measure 4
0000
0000
0000
0000
,  // measure 5
1000
0100
0010
0100
,  // measure 6
1000
0100
0010
0001
,  // measure 7
1000
0001
0100
0010
,  // measure 8
1000
0000
0000
0001
0000
0000
1000
0000
0002
0000
0000
0000
0003
0000
0000
0000
,  // measure 9
0000
0100
0001
0001
0100
0001
0001
0000
,  // measure 10
0000
1000
0001
0001
1000
0001
0001
0000
,  // measure 11
0000
0010
0001
0001
0010
0001
0100
0001
,  // measure 12
0010
0100
0100
1000
0001
0001
0100
0001
,  // measure 13
0010
0000
0000
0010
0100
0000
1000
0000
0100
0000
0000
0000
0011
0000
0000
0000
,  // measure 14
0100
0000
0000
0100
0001
0000
0100
0000
0010
0000
0000
0000
1010
0000
0000
0000
,  // measure 15
1100
0000
0000
0100
1000
0000
0100
0000
1000
0000
0000
1000
0001
0000
0100
0000
,  // measure 16
0010
0100
0001
1000
0200
0000
0300
0000
,  // measure 17
0010
0000
0001
0100
0000
0000
1010
0000
0000
0000
0100
0000
0001
0000
1000
0000
,  // measure 18
0001
0000
0010
0001
0000
0000
1100
0000
0000
0000
0001
0000
0010
0000
0100
0000
,  // measure 19
0010
0000
0001
1000
0000
0000
0010
0000
0100
0000
0001
0000
1000
0000
0010
0000
,  // measure 20
1000
0100
0001
0100
1000
0000
0010
0100
,  // measure 21
0001
0000
1000
0100
0000
0000
1010
0000
0000
0000
0001
0000
0100
0000
0010
0000
,  // measure 22
0100
0000
0001
0010
0000
0000
0001
0000
1000
0000
1000
0000
0010
0000
0100
0000
,  // measure 23
0002
0000
0013
0100
1000
0010
0100
0001
,  // measure 24
2000
3100
0002
0103
,  // measure 25
1001
0120
0000
1030
,  // measure 26
0010
1000
0010
0100
0001
0001
0010
0010
,  // measure 27
0001
0010
0100
0010
0001
0001
1000
1000
,  // measure 28
0010
1000
0100
0010
0100
0100
1000
1000
,  // measure 29
0010
0100
0001
1000
0100
0000
0110
0000
,  // measure 30
1000
0010
0100
0001
1000
1000
0100
0100
,  // measure 31
0010
0100
1000
0010
0100
0100
0001
0001
,  // measure 32
1000
1001
0010
0110
,  // measure 33
0200
0000
0000
0310
,  // measure 34
1000
0000
0000
1000
0100
0000
0001
0000
0100
0000
0000
0100
1000
0000
0010
0000
,  // measure 35
0001
0000
0000
0001
0010
0000
1000
0000
0010
0000
0000
0010
0100
0000
0001
0000
,  // measure 36
1000
0100
0010
0001
0100
0010
0001
0010
,  // measure 37
2000
0000
3001
1000
0200
0000
1300
0000
,  // measure 38
0001
0000
0000
0001
0010
0000
1000
0000
0010
0000
0000
0010
0001
0000
1000
0000
,  // measure 39
0100
0000
0000
0100
1000
0000
0010
0000
1000
0000
0001
0000
0100
0000
0010
0000
,  // measure 40
2000
0000
0000
0000
3100
0000
0010
0000
0001
0000
0000
0001
0100
0000
0010
0000
,  // measure 41
0100
0000
0000
0000
0100
0000
0000
0100
0010
0000
0010
0000
0100
0000
0100
0000
,  // measure 42
0002
0000
0013
0100
1000
0000
0010
0000
0210
0000
0301
1000
0100
0000
0000
0000
,  // measure 43
2100
0000
3100
0010
0001
0000
0010
0000
0012
0000
0013
0001
0100
0000
0000
0000
,  // measure 44
2010
0000
3001
1000
0100
0000
1000
0000
0120
0000
0130
0001
1000
0000
0000
0000
,  // measure 45
0210
0000
0310
0100
0001
0000
1000
0000
0102
0000
0000
0000
2000
0000
3003
0000
,  // measure 46
1100
0100
0010
0001
1000
0100
0001
0100
,  // measure 47
1000
0010
0001
0010
2000
0000
3001
0000
,  // measure 48
0101
0100
0001
0100
0001
0010
1000
0010
,  // measure 49
0001
0100
1000
0100
0001
0001
1000
1000
,  // measure 50
0001
0000
0010
0000
0001
0000
0000
0001
0010
0000
0010
0000
0001
0000
0000
0000
,  // measure 51
1000
0000
0010
0000
1000
0000
0000
1000
0010
0000
0010
0000
1000
0000
0001
0000
,  // measure 52
1001
0000
0010
0100
1001
0000
0100
0010
,  // measure 53
0110
0000
1001
0000
0001
1000
1000
0001
,  // measure 54
1000
0100
0100
0010
0000
0000
0100
0000
1000
0010
0010
0100
0000
0000
0001
0000
,  // measure 55
1001
0000
0000
0010
0100
0010
0010
0001
0000
1000
0100
1000
0001
0100
0010
0100
,  // measure 56
0001
0010
0010
0100
0000
0000
1000
0000
0010
0100
0100
0001
0000
1000
0001
1001
,  // measure 57
0000
0010
0100
0110
0000
1000
0010
0101
0000
0001
0100
0001
1000
0100
0010
0001
,  // measure 58
1000
0100
0010
0100
1000
0010
0100
0001
,  // measure 59
1000
0000
0010
0000
1000
0000
0001
0000
0100
0001
0100
0000
0001
0000
0010
0000
,  // measure 60
0100
1000
0010
0001
0010
1000
0100
0001
,  // measure 61
0100
0000
1000
0000
0010
0000
0100
0000
0001
1000
0001
1000
0001
0000
0010
0000
,  // measure 62
0001
0000
0011
0000
1000
0100
0010
0100
,  // measure 63
1000
0000
0010
0000
0100
0000
0001
0000
1000
0001
1000
0001
1000
0000
0100
0000
,  // measure 64
0010
0000
1100
0001
0010
0000
0101
1000
,  // measure 65
0010
0000
0000
0000
0100
0000
0000
0100
0010
0000
0010
0000
1000
0001
1000
0001
,  // measure 66
1000
0000
0000
1000
0010
0000
0100
0000
0001
0000
0000
0001
0010
0000
0100
0000
,  // measure 67
1000
0000
0000
0010
0100
0000
0001
0000
0010
0000
0000
0100
0010
0000
0001
0000
,  // measure 68
1000
0100
0001
0100
1000
0010
0001
0010
,  // measure 69
2000
0000
0000
0000
3100
0000
0010
0000
0200
0000
0000
0000
0310
0000
0001
0100
,  // measure 70
0010
0000
0000
0010
0100
0000
0001
0000
1000
0000
0000
1000
0100
0000
0010
0000
,  // measure 71
0100
0000
0000
1000
0010
0000
0100
0000
0001
0000
0010
0000
0100
0000
1000
0000
,  // measure 72
1100
0000
0000
0100
0010
0000
0100
0000
0101
0000
0000
0100
0010
0000
0100
0000
,  // measure 73
1001
0000
0000
0010
0100
0000
0010
0000
1010
0000
0000
0010
1000
0001
1000
0001
,  // measure 74
0010
0000
0011
0000
,  // measure 75
1100
0000
0000
0000
0101
0000
0000
0000
1010
0000
0000
0000
0001
1000
0001
1000
,  // measure 76
0200
0000
0000
0000
,  // measure 77
0000
0000
0000
0300
;
