#TITLE:ロストワンの号哭;
#SUBTITLE:;
#ARTIST:Neru / 周平;
#TITLETRANSLIT:The Lamentations of the Lost Ones;
#SUBTITLETRANSLIT:;
#ARTISTTRANSLIT:Neru / Shoohey;
#GENRE:;
#CREDIT:;
#BANNER:[Falling Apart] - The Lamentations of the Lost Ones-bn.png;
#BACKGROUND:[Falling Apart] - The Lamentations of the Lost Ones-bg.png;
#LYRICSPATH:;
#CDTITLE:;
#MUSIC:[Falling Apart] - The Lamentations of the Lost Ones.mp3;
#OFFSET:-1.666000;
#SAMPLESTART:62.222000;
#SAMPLELENGTH:23.500000;
#SELECTABLE:YES;
#BPMS:0.000000=162.000000
;
#STOPS:
;
#BGCHANGES:;
#KEYSOUNDS:;
#ATTACKS:;

//---------------dance-single - ----------------
#NOTES:
     dance-single:
     :
     Hard:
     9:
     0.715716,0.722693,0.435653,0.267013,0.242420,613.000000,62.000000,38.000000,0.000000,0.000000,0.000000,0.715716,0.722693,0.435653,0.267013,0.242420,613.000000,62.000000,38.000000,0.000000,0.000000,0.000000:
0000
0000
0000
0000
,
0010
1000
0100
0100
0010
0001
1000
1000
,
0010
1000
0001
0001
0100
0010
1000
1000
,
0100
0010
0001
0001
1000
0100
0010
0010
,
0100
1000
0001
0001
1000
1000
1000
1000
,
0010
0100
0001
0001
1000
0010
0100
0100
,
0010
0100
0001
0001
0010
0100
1000
1000
,
0010
0100
0001
0001
0100
0010
1000
1000
,
0001
1000
0100
0100
0010
0001
1000
1000
,
0001
0000
0000
0001
0000
0000
0001
0000
0000
0000
0100
0000
0010
0000
0100
0000
,
0100
0000
0000
0010
0000
0000
2000
0000
0000
0000
0001
0000
3001
0000
0000
0000
,
1000
0000
0000
1000
0000
0000
1000
0000
0000
0000
0010
0000
0100
0000
0010
0000
,
0010
0000
0000
0100
0000
0000
0002
0000
0000
0000
1000
0000
1003
0000
0000
0000
,
0100
0000
0000
0100
0000
0000
0100
0000
0000
0000
0010
0000
0001
0000
0010
0000
,
0001
0000
0000
1000
0000
0000
0020
0000
0000
0000
1000
0000
1030
0000
0000
0000
,
0010
0000
0000
0010
0000
0000
0010
0000
0000
0000
0100
0000
0001
0000
1000
0000
,
0010
0000
0000
1000
0000
0000
0002
0000
0000
0000
1000
0000
1003
0000
1000
0000
,
0010
0100
0001
0001
0100
0010
1000
1000
,
0010
0100
0001
0001
0100
0010
1000
1000
,
0001
0010
0001
0001
1000
0100
1000
1000
,
0001
0000
0100
0000
0010
0000
0010
0000
1000
0000
0000
1000
0000
0000
1000
0000
,
0010
0100
0001
0001
1000
0010
0100
0100
,
0001
0100
0010
0010
1000
0010
0100
0100
,
0001
0010
0100
0100
0010
0100
1000
1000
,
0010
1000
0100
0100
0010
0100
2000
0000
,
3001
0000
0000
0001
0000
0000
0001
0000
0000
0000
0100
0000
0010
0000
0100
0000
,
0010
0000
0000
1000
0000
0000
0002
0000
0000
0000
0100
0000
1003
0000
0000
0000
,
0001
0000
0000
0001
0000
0000
0001
0000
0000
0000
0100
0000
0010
0000
0100
0000
,
0010
0000
0000
1000
0000
0000
0002
0000
0000
0000
0010
0000
1003
0000
0000
0000
,
0100
0000
0000
0100
0000
0000
0100
0000
0000
0000
0010
0000
0001
0000
0010
0000
,
0010
0000
0000
0100
0000
0000
2000
0000
0000
0000
0010
0000
3001
0000
0000
0000
,
1000
0000
0000
1000
0000
0000
1000
0000
0000
0000
0001
0000
0100
0000
0010
0000
,
1000
0000
0000
0100
0000
0000
0010
0000
0200
0000
0000
0000
1300
0000
0000
0000
,
1000
0000
0000
1100
0000
0000
0010
0000
0001
0000
0000
0101
0000
0000
0010
0000
,
1000
0000
0000
1100
0000
0000
0010
0000
0001
0000
0000
0011
0000
0000
1000
0000
,
0010
0000
0000
0101
0000
0000
0001
0000
0100
0000
0000
1010
0000
0000
1000
0000
,
0100
0000
0000
0011
0000
0000
0010
0000
0100
0000
0000
0110
0000
0000
0100
0000
,
1000
0000
0000
1100
0000
0000
0010
0000
0100
0000
0000
0110
0000
0000
0001
0000
,
0100
0000
0000
0101
0000
0000
0001
0000
1000
0000
0000
1001
0000
0000
0001
0000
,
1000
0000
1000
1010
0000
1010
0000
0001
,
0100
0000
0100
0101
0000
0101
0000
0001
,
1000
0000
0010
1000
0000
0000
0002
0000
0100
0000
0010
0000
1003
0000
1000
0000
,
0001
0000
0000
0100
0000
0000
0010
0000
1000
0000
0000
0000
1001
0000
0000
0000
,
0001
0000
1000
0001
0000
0000
2000
0000
0010
0000
0100
0000
3001
0000
0001
0000
,
1000
0000
0000
0100
0000
0000
0010
0000
0001
0000
0000
0000
1001
0000
0000
0000
,
0001
0000
1000
0001
0000
0000
0200
0000
0010
0000
1000
0000
0301
0000
0001
0000
,
1000
0000
0000
0001
0000
0000
0100
0000
0010
0000
0000
0000
0110
0000
0000
0000
,
0001
0000
1000
0001
0000
0000
1000
0000
2000
0000
0000
0000
3001
0000
0000
0000
,
0001
0000
1000
0001
0000
0000
0100
0000
0200
0000
0000
0000
0310
0000
0000
0000
,
0010
0000
1000
0001
0000
0000
2000
0000
0001
0000
0100
0000
3010
0000
0010
0000
,
1000
0000
0000
0010
0000
0000
0100
0000
0001
0000
0000
0000
0101
0000
0000
0000
,
0100
0000
0001
1000
0000
0000
0002
0000
1000
0000
0010
0000
0103
0000
0100
0000
,
0001
0000
0000
0100
0000
0000
0010
0000
1000
0000
0000
0000
1010
0000
0000
0000
,
1000
0000
0001
1000
0000
0000
0020
0000
0100
0000
0001
0000
1030
0000
1000
0000
,
0010
0000
0000
0100
0000
0000
0001
0000
1000
0000
0000
0000
1001
0000
0000
0000
,
1000
0001
0010
0100
0001
0100
1000
0100
,
0110
1001
0110
1010
,
0101
0102
0000
0003
0000
1000
1010
2010
,
0000
3000
0000
0001
0011
0011
0001
1000
,
1100
2100
0000
3000
0000
0001
1001
1002
,
0000
0000
0003
0000
0000
0000
1000
0000
1010
0000
0000
0110
0000
0000
0101
0000
,
0001
0100
0010
0010
1000
1000
0001
0001
,
0100
0010
1000
1000
0001
0001
0100
0100
,
0010
0100
0001
0001
1000
1000
0010
0010
,
1000
0001
1000
1000
1001
1001
1001
1001
,
0001
0000
1000
0001
0000
0001
2000
0000
0010
0000
0100
0000
3001
0000
0001
0000
,
1000
0000
0000
0010
0000
0000
0100
0000
0001
0000
0000
0000
0100
0000
0100
0000
,
0001
0000
0001
0100
0000
0100
0002
0000
0010
0000
0100
0000
1003
0000
1000
0000
,
0010
0000
0000
1000
0000
0000
0001
0000
0100
0000
0000
0000
0110
0000
0000
0000
,
1000
0000
0010
1000
0000
1000
0020
0000
0001
0000
0100
0000
1030
0000
1000
0000
,
0001
0000
0000
0100
0000
0000
0010
0000
1000
0000
0000
0000
1001
0000
0001
0000
,
1000
0000
0010
1000
0000
0000
1000
0000
0002
0000
0000
0000
1003
0000
1000
0000
,
0002
0000
0000
0203
0000
0000
0301
0000
2000
0000
0000
0000
3001
0000
0000
0000
,
0001
0100
0000
0101
0000
0000
0010
1000
0000
1010
0000
0000
1000
0000
0000
0000
,
0011
0000
0012
0000
1003
0010
1000
1000
,
0001
0100
1000
0100
0002
0000
1003
0000
,
1000
0010
0100
0100
0001
0100
0010
0010
,
1000
0100
0001
0100
2000
0000
3001
0000
,
0101
0000
0120
0000
1030
0001
0100
0100
,
0001
1000
0100
0010
0002
0000
1003
1000
,
0001
0000
1000
0000
0001
0010
0000
0001
0100
0000
0010
0000
1000
0000
1000
0000
,
0001
0010
1000
0010
0001
0001
0001
0001
,
1001
0000
2100
0000
3001
0100
0010
0010
,
1000
0010
0001
0010
2000
0000
3001
0000
,
0001
0100
0010
0010
1000
0010
0100
0100
,
0001
0100
1000
0100
0002
0000
1003
0000
,
0001
0000
1000
0000
0010
0000
0000
0010
0000
0000
0100
0000
0001
0000
0100
0000
,
0010
0000
1000
0000
0100
0000
0000
0100
0000
0000
0010
0000
0010
0000
0000
0000
,
0011
1100
0101
1010
,
1002
1003
2001
3001
,
1000
0000
0001
0000
1000
0010
1000
0000
0001
0000
1000
0000
0001
0100
0001
0000
,
1000
0000
0001
0000
1000
0010
1000
0000
1001
0000
0000
0000
1001
0000
0000
0000
,
0001
0000
1000
0000
0001
0100
0001
0000
1000
0000
0001
0000
1000
0010
1000
0000
,
0001
0000
1000
0000
0001
0100
0001
0000
1001
0000
0000
0000
0000
0000
0000
0000
;

//---------------dance-single - ----------------
#NOTES:
     dance-single:
     :
     Medium:
     7:
     0.587228,0.525595,0.527000,0.217827,0.063240,479.000000,75.000000,31.000000,0.000000,0.000000,0.000000,0.587228,0.525595,0.527000,0.217827,0.063240,479.000000,75.000000,31.000000,0.000000,0.000000,0.000000:
0000
0000
0000
0000
,
0010
1000
0100
0000
0010
0001
0100
0000
,
0010
0100
0001
0000
1000
0010
0100
0000
,
0001
0100
0010
0000
0100
0010
1000
0000
,
0001
1000
0010
0000
1000
0001
1000
0001
,
0010
0100
1000
0000
0001
0010
0100
0000
,
1000
0001
0100
0000
0010
1000
0001
0000
,
1000
0010
0100
0000
0001
0100
0010
0000
,
1000
0100
0010
0010
0001
1000
0100
0000
,
1000
1010
0001
0101
,
0001
0100
0001
2000
0010
0000
3010
0000
,
0010
0110
0001
0101
,
1000
0001
0010
0002
0100
0000
0103
0000
,
1000
1100
0001
0101
,
1000
0010
1000
0002
0100
0000
0103
0000
,
0001
0000
0100
0000
0001
0100
0010
1000
,
0010
0110
1001
0101
,
0001
0100
0010
0000
0100
0010
1000
0000
,
0010
0100
0001
0000
0100
0010
1000
0000
,
0001
0010
0001
0000
1000
0100
1000
0000
,
0001
0000
0100
0000
0001
0000
0000
0000
1000
0000
0000
1000
0000
0000
2000
0000
,
0001
0100
0001
0100
,
0010
0100
0010
3100
,
0001
0010
0001
0000
1000
0100
1000
0000
,
0001
0010
0100
1000
0002
0000
1003
0000
,
0001
0101
1000
1100
,
0010
1000
0010
0200
0001
0000
0301
0000
,
0010
0110
0001
1001
,
1000
0001
0010
0002
0100
0000
0103
0000
,
1000
1010
0001
0101
,
0001
0010
0100
2000
0001
0000
3001
0000
,
1000
1100
0001
0101
,
0001
0000
0000
0100
0000
0000
0010
0000
0200
0000
0000
0000
0310
0000
0000
0000
,
0001
0011
1000
1010
,
0001
0011
1000
1100
,
0110
0011
0001
0101
,
0010
1100
0010
0110
,
0101
1010
1000
1010
,
0001
0101
1000
1001
,
0001
0000
0001
0100
0000
0101
0000
1000
,
0010
0000
0010
1000
0000
1010
0000
1000
,
0001
0000
0000
0001
0000
0000
2000
0000
0000
0000
0001
0000
3001
0000
0000
0000
,
1000
0001
0010
0100
1000
0000
1001
0000
,
1000
0000
0000
1000
0000
0000
0002
0000
0000
0000
1000
0000
1003
0000
0000
0000
,
0001
1000
0100
0010
0001
0000
1001
0000
,
1000
0000
0000
1000
0000
0000
0020
0000
0000
0000
0100
0000
0130
0000
0000
0000
,
0010
1000
0001
0100
0010
0000
0110
0000
,
1000
0000
0000
1000
0000
0000
1000
0000
2000
0000
0000
0000
3001
0000
0000
0000
,
0001
0000
0000
0001
0000
0000
0001
0000
0002
0000
0000
0000
1003
0000
0000
0000
,
0001
0000
0000
1000
0000
0000
0002
0000
0000
0000
0100
0000
0103
0000
0000
0000
,
0010
0100
0001
0010
0100
0000
0110
0000
,
1000
0000
0000
0001
0000
0000
2000
0000
0000
0000
0010
0000
3010
0000
0000
0000
,
0100
0010
1000
0100
0010
0000
0110
0000
,
0001
0000
1000
0001
0000
0000
0200
0000
0000
0000
0010
0000
0310
0000
0000
0000
,
0100
0010
1000
0001
0100
0000
1001
0000
,
0001
1000
0100
0010
0001
0010
0100
0000
,
0110
1001
0110
0101
,
1000
1010
0000
0000
0000
0001
0100
0101
,
0000
0000
0000
0001
0100
0101
0000
0000
,
1000
1100
0000
0000
0000
1000
0100
1100
,
0000
0000
0000
0000
0000
0000
0001
0000
0100
0000
0000
0100
0000
0000
0001
0000
,
1000
1000
0001
0001
,
0100
0100
0010
0010
,
1000
0100
0001
0010
,
1000
0001
1000
0001
1000
0001
1000
0001
,
1000
0000
0000
0010
0000
0000
2000
0000
0000
0000
0001
0000
3001
0000
0000
0000
,
0001
0100
0010
1000
0001
0000
1001
0000
,
0001
0000
0000
0100
0000
0000
0002
0000
0000
0000
1000
0000
1003
0000
0000
0000
,
1000
0010
0100
0001
1000
0000
1001
0000
,
1000
0000
0000
0010
0000
0000
0200
0000
0000
0000
0001
0000
0301
0000
0000
0000
,
0001
0100
0010
1000
0100
0000
0110
0000
,
0001
1000
0120
0031
,
0001
0110
2010
3002
,
1003
0000
0000
1000
0000
0000
0010
0000
0000
0010
0000
0000
1000
0000
0000
0000
,
0011
0012
1003
0100
,
0001
1010
0102
1003
,
1000
0010
0100
0000
0001
0100
0010
0000
,
1000
0100
0001
0000
0001
0100
1000
0000
,
0101
0120
1030
0010
,
0001
1100
0012
1003
,
0001
1000
0001
0000
1000
0001
1000
0000
,
0001
0010
0100
0000
1000
1000
1000
0000
,
1001
2100
3001
0010
,
1000
0011
2100
3001
,
0001
0100
0010
0000
1000
0010
0100
0000
,
0001
0100
1000
0000
1000
0100
0001
0000
,
0001
0000
1000
0000
0010
0000
0000
0010
0000
0000
0100
0000
0001
0000
0000
0000
,
0010
0000
1000
0000
0100
0000
0000
0100
0000
0000
0010
0000
0010
0000
0000
0000
,
0011
1100
0101
1010
,
1002
1003
2001
3001
,
1000
0001
1000
0000
0001
1000
0001
0000
,
1000
0001
1000
0000
1001
0000
1001
0000
,
0010
0100
0010
0000
0100
0010
0100
0000
,
0010
0100
0010
0000
1001
0000
0000
0000
;

//---------------dance-single - ----------------
#NOTES:
     dance-single:
     :
     Easy:
     5:
     0.438665,0.525595,0.653480,0.252960,0.000000,308.000000,93.000000,36.000000,0.000000,0.000000,0.000000,0.438665,0.525595,0.653480,0.252960,0.000000,308.000000,93.000000,36.000000,0.000000,0.000000,0.000000:
0000
0000
0000
0000
,
0010
0100
0001
0100
,
0010
0100
0001
0100
,
0010
1000
0100
1000
,
0010
0000
1000
0000
0001
0001
0001
0000
,
0010
0100
0001
1000
,
0010
0100
0001
1000
,
0010
0100
1000
0100
,
0010
0100
0001
1000
,
0001
0101
0000
0101
,
1000
1010
0000
1010
,
0001
0011
0000
0011
,
1000
1100
0000
1100
,
1000
0110
0000
0110
,
0100
0101
0000
0101
,
0001
1001
0000
1001
,
1001
0000
1001
0000
0001
1000
0001
0000
,
1000
0010
0100
0010
,
1000
0000
0001
0000
0100
0001
0100
0000
,
0001
0100
0010
0100
,
0001
0000
0100
0000
0010
1000
0010
0000
,
1000
0010
0100
0010
,
1000
0000
0010
0000
0100
0010
0100
0000
,
0001
0010
0001
1000
,
0001
0010
0001
0000
1000
0100
2000
0000
,
3001
0101
0000
0101
,
0100
1010
0000
1010
,
0100
1001
0000
1001
,
0010
0101
0000
0101
,
0010
1100
0000
1100
,
0010
0101
0000
0101
,
1000
1100
0000
1100
,
1000
0100
0010
0001
,
1000
1000
0001
0001
,
0100
0100
0010
0010
,
1000
1000
0001
0001
,
0100
0100
0010
0010
,
0100
0110
0100
0110
,
0001
1001
0001
1001
,
0001
1000
1001
1001
,
1000
0001
1001
1001
,
0002
0003
2000
3000
,
0001
0100
0101
0000
,
2000
3000
0002
0003
,
1000
0010
1010
0000
,
0020
0030
0200
0300
,
0001
1000
1001
0000
,
0101
0010
0101
0000
,
1010
0100
1010
0000
,
0200
0300
0020
0030
,
0100
0001
0101
0000
,
0200
0300
0020
0030
,
1000
0010
1010
0000
,
0002
0003
2000
3000
,
0100
0010
0110
0000
,
0001
1000
0100
0010
,
1001
0010
1001
0000
,
1100
0000
0000
0110
,
0000
0000
0101
0000
,
1100
0000
0000
1100
,
0000
0000
0101
0101
,
2000
0000
0000
3000
,
0002
0000
0000
0003
,
2000
0000
0000
3000
,
0001
0000
1000
0000
0001
1000
0001
0000
,
2000
3010
0002
0103
,
1000
0010
1001
0000
,
0002
0103
2000
3010
,
0001
0100
1001
0000
,
0200
0301
2000
3010
,
0100
0001
1001
0000
,
0001
1000
1001
0000
,
0001
1000
1010
2010
,
0000
0000
3000
0001
,
1001
2000
3001
0000
,
0101
0101
0202
0303
,
0001
0100
0010
1000
,
0001
0100
0010
0000
,
1010
1000
0002
0003
,
0011
0011
0022
0033
,
1000
0100
0001
0010
,
1000
0000
0100
0000
0001
0001
0001
0000
,
1001
0002
1003
0000
,
0110
0110
0220
0330
,
1000
0010
0100
0001
,
1000
0010
0100
0000
,
1010
0100
1010
0100
,
0101
0010
0101
0000
,
0101
0101
1010
1010
,
2002
3003
0220
0330
,
0001
1001
1000
1001
,
0001
1001
0110
0000
,
0100
0110
0010
0110
,
0100
0110
1001
0000
;

//---------------dance-single - ----------------
#NOTES:
     dance-single:
     :
     Beginner:
     3:
     0.253964,0.262797,0.133507,0.168640,0.000000,210.000000,19.000000,24.000000,0.000000,0.000000,0.000000,0.253964,0.262797,0.133507,0.168640,0.000000,210.000000,19.000000,24.000000,0.000000,0.000000,0.000000:
// measure 0
0000
0000
0000
0000
,  // measure 1
0010
0000
0100
0000
,  // measure 2
0001
0000
0100
0000
,  // measure 3
0010
0000
1000
0000
,  // measure 4
0100
0000
1000
1000
,  // measure 5
0010
0000
0100
0000
,  // measure 6
0001
0000
1000
0000
,  // measure 7
0010
0000
1000
0000
,  // measure 8
0001
0000
0100
0000
,  // measure 9
0001
0100
0000
0100
,  // measure 10
0000
0010
0000
0010
,  // measure 11
0000
1000
0000
1000
,  // measure 12
0000
0001
0000
0001
,  // measure 13
0000
0100
0000
0100
,  // measure 14
0000
0010
0000
0010
,  // measure 15
0000
1000
0000
1000
,  // measure 16
0001
0001
1001
0000
,  // measure 17
1000
0000
0010
0000
,  // measure 18
0100
0000
0010
0000
,  // measure 19
1000
0000
0001
0000
,  // measure 20
0100
0000
0001
0000
,  // measure 21
1000
0000
0010
0000
,  // measure 22
0100
0000
0001
0000
,  // measure 23
1000
0000
0010
0000
,  // measure 24
0100
0000
0002
0003
,  // measure 25
1000
0001
0000
0001
,  // measure 26
0000
1000
0000
1000
,  // measure 27
0000
0100
0000
0100
,  // measure 28
0000
0010
0000
0010
,  // measure 29
0000
0001
0000
0001
,  // measure 30
0000
1000
0000
1000
,  // measure 31
0000
0100
0000
0100
,  // measure 32
0001
0100
0001
0000
,  // measure 33
1000
0000
0001
0000
,  // measure 34
0010
0000
0100
0000
,  // measure 35
1000
0000
0001
0000
,  // measure 36
1000
0000
0010
0000
,  // measure 37
0110
0000
1010
0000
,  // measure 38
0101
0000
0110
0000
,  // measure 39
0001
1000
0001
0000
,  // measure 40
1000
0001
1000
0000
,  // measure 41
0001
0000
1000
0000
,  // measure 42
0001
0100
0001
0000
,  // measure 43
2000
3000
0002
0003
,  // measure 44
1000
0010
1000
0000
,  // measure 45
0020
0030
0200
0300
,  // measure 46
0001
1000
0001
0000
,  // measure 47
0001
0010
0100
0000
,  // measure 48
1000
0100
0010
0000
,  // measure 49
0200
0300
0020
0030
,  // measure 50
0100
0001
0100
0000
,  // measure 51
0200
0300
0020
0030
,  // measure 52
1000
0010
1000
0000
,  // measure 53
0002
0003
2000
3000
,  // measure 54
0100
0010
0100
0000
,  // measure 55
0001
1000
0100
0000
,  // measure 56
1000
0010
0100
0000
,  // measure 57
0011
0000
0000
0100
,  // measure 58
0000
0000
1000
0000
,  // measure 59
0011
0000
0000
0010
,  // measure 60
0000
0000
1000
1000
,  // measure 61
0002
0000
0003
0000
,  // measure 62
2000
0000
3000
0000
,  // measure 63
0002
0000
0003
0000
,  // measure 64
1000
0001
1000
0000
,  // measure 65
0002
0003
2000
3000
,  // measure 66
0001
0100
0001
0000
,  // measure 67
2000
3000
0002
0003
,  // measure 68
1000
0010
1000
0000
,  // measure 69
0020
0030
0002
0003
,  // measure 70
0010
1000
0001
0000
,  // measure 71
1000
0001
0001
0000
,  // measure 72
1000
0001
0100
0100
,  // measure 73
1001
0000
0000
1000
,  // measure 74
0001
0000
1000
0000
,  // measure 75
0010
0010
0010
0000
,  // measure 76
1000
0000
0010
0000
,  // measure 77
0100
0100
0100
0000
,  // measure 78
0101
0000
1000
0000
,  // measure 79
0010
0010
0020
0030
,  // measure 80
1000
0000
0100
0000
,  // measure 81
0010
0000
0001
0001
,  // measure 82
1001
0000
0100
0000
,  // measure 83
0010
0010
0020
0030
,  // measure 84
1000
0000
0010
0000
,  // measure 85
0100
0000
0001
0000
,  // measure 86
0001
0010
0100
0000
,  // measure 87
0010
0100
1000
0000
,  // measure 88
0101
0000
1010
0000
,  // measure 89
0101
0000
1010
0000
,  // measure 90
2002
0000
0000
0000
,  // measure 91
0000
0000
3003
0000
,  // measure 92
0110
0000
1001
0000
,  // measure 93
0110
0000
1001
0000
;
