#TITLE:Alarma Caramba!;
#SUBTITLE:(Somebody Stole My Seniorita);
#ARTIST:Carlito;
#TITLETRANSLIT:;
#SUBTITLETRANSLIT:;
#ARTISTTRANSLIT:;
#CREDIT:Lisek;
#BANNER:[Falling Apart] - Alarma Caramba! (Somebody Stole My Seniorita).png;
#BACKGROUND:[Falling Apart] - Alarma Caramba! (Somebody Stole My Seniorita)-bg.png;
#LYRICSPATH:;
#CDTITLE:cdtitle.png;
#MUSIC:[Falling Apart] - Alarma Caramba! (Somebody Stole My Seniorita).ogg;
#OFFSET:-16.862;
#SAMPLESTART:73.915;
#SAMPLELENGTH:10.560;
#SELECTABLE:YES;
#BPMS:0.000=185.000;
#STOPS:;
#BGCHANGES:;

//---------------dance-single - ----------------
#NOTES:
     dance-single:
     Lisek:
     Hard:
     8:
     0.471,0.554,0.209,0.317,0.054: // measure 1
1000
0100
0010
0001
1000
0010
0100
0001
,  // measure 2
1000
0100
0010
0100
1000
0001
0100
0010
,  // measure 3
1000
0001
1000
0100
1000
0000
0010
0000
,  // measure 4
0100
0110
1001
1000
,  // measure 5
0001
0010
0100
1000
0001
0100
0010
1000
,  // measure 6
0001
0010
0100
0010
0001
1000
0010
0100
,  // measure 7
0001
0000
1000
0100
0000
0000
0010
0000
,  // measure 8
0001
0010
0100
1000
0001
0000
0000
0000
,  // measure 9
1000
0010
0100
0010
1000
0001
0100
0001
,  // measure 10
1000
0001
0010
0100
1000
0100
0010
0001
,  // measure 11
1000
0010
0100
0001
0010
0001
1000
0000
,  // measure 12
0010
0110
1001
1000
,  // measure 13
0001
0010
0100
0010
0001
0100
0010
0100
,  // measure 14
0001
1000
0100
0010
0001
0010
0100
1000
,  // measure 15
0000
1000
0000
0100
0000
0000
0010
0000
,  // measure 16
0001
0000
0010
0000
0100
0000
1000
0000
0001
0000
0000
0000
0000
0000
1000
0010
,  // measure 17
1000
0000
0100
0010
0100
0000
1000
0000
,  // measure 18
0000
0000
0001
0100
0000
0100
0010
0100
,  // measure 19
0001
0000
1000
0100
0010
0000
0001
0000
,  // measure 20
1000
0000
0100
0000
0010
0000
0100
0000
1000
0000
0000
0000
0000
0000
0001
0100
,  // measure 21
0001
0000
0100
1000
0100
0000
0001
0000
,  // measure 22
0000
1000
0100
0001
,  // measure 23
1100
0000
0000
1001
0000
0000
0000
0220
,  // measure 24
0000
0000
0000
0000
0000
0330
0000
0000
,  // measure 25
MMM1
0000
M1MM
0000
MM1M
0000
0000
0100
,  // measure 26
0001
0100
1000
0100
0000
0110
0000
0000
,  // measure 27
1000
0100
0010
0001
0000
0000
1000
0000
,  // measure 28
0100
0000
0001
0100
0000
1000
0000
0000
,  // measure 29
MM1M
0000
M1MM
0000
MMM1
0000
0000
0100
,  // measure 30
1000
0100
0010
0100
0000
0101
0000
0000
,  // measure 31
2000
0000
0000
3200
0000
0000
0302
0000
,  // measure 32
0203
0000
0000
0302
0000
0000
0203
0000
,  // measure 33
1300
0000
0000
1100
0000
0000
0000
2002
,  // measure 34
0000
0000
0000
0000
0000
3003
0000
0000
,  // measure 35
1000
0000
0000
0000
0000
0000
0100
0000
0010
0000
0001
0000
,  // measure 36
1000
0000
0010
0000
0000
0000
0000
0000
0000
0000
0000
1000
,  // measure 37
0001
1000
0000
0000
0000
0000
0000
0001
0100
0001
0000
0000
,  // measure 38
0000
0000
0001
1000
0000
0000
0000
0000
0000
0000
0000
0000
,  // measure 39
0001
0000
0000
0000
0000
0100
0000
0000
0000
0000
0010
0000
,  // measure 40
0000
0000
1000
0000
,  // measure 41
0001
1000
0000
0000
0000
0000
0000
0000
0000
0000
0000
0000
,  // measure 42
0000
0000
0000
0000
,  // measure 43
1001
0000
0000
0110
0000
0000
0000
2002
,  // measure 44
0000
0000
0000
0000
0000
3003
0000
0000
,  // measure 45
MMM1
0000
1MMM
0000
M1MM
0000
0000
1000
,  // measure 46
0100
0001
0100
1000
0000
1010
0000
0000
,  // measure 47
0100
0001
0100
0010
0000
0000
1000
0000
,  // measure 48
0001
0000
0010
0100
0000
1000
0000
0000
,  // measure 49
MMM1
0000
M1MM
0000
MM1M
0000
0000
0100
,  // measure 50
0001
0100
1000
0100
0000
0110
0000
0000
,  // measure 51
2000
0000
0000
3002
0000
0000
0203
0000
,  // measure 52
0320
0000
0000
0230
0000
0000
0302
0000
,  // measure 53
1MM3
0000
M1MM
0000
MM1M
0000
0000
0001
,  // measure 54
0100
1000
0100
0010
0000
0110
0000
0000
,  // measure 55
0001
1000
0100
0010
0000
0000
0100
0000
,  // measure 56
0010
0000
0001
1000
0000
0010
0000
0000
,  // measure 57
M1MM
0000
MMM1
0000
1MMM
0000
0000
0001
,  // measure 58
1000
0100
0010
0100
0000
1100
0000
0000
,  // measure 59
0002
0000
0000
0203
0000
0000
2300
0000
,  // measure 60
3200
0000
0000
0302
0000
0000
2003
0000
,  // measure 61
3M1M
0000
M1MM
0000
MMM1
0000
0000
1000
,  // measure 62
0100
0001
0100
1000
0000
1010
0000
0000
,  // measure 63
0100
0001
0100
0010
0000
0000
1000
0000
,  // measure 64
0001
0000
0100
0001
0000
1000
0000
0000
,  // measure 65
MM1M
0000
1MMM
0000
MMM1
0000
0000
1000
,  // measure 66
0001
0100
1000
0100
0000
0110
0000
0000
,  // measure 67
2000
0000
0000
3002
0000
0000
0203
0000
,  // measure 68
0320
0000
0000
2030
0000
0000
3200
0000
,  // measure 69
M31M
0000
M1MM
0000
1MMM
0000
0000
0001
,  // measure 70
0100
1000
0100
0001
0000
1001
0000
0000
,  // measure 71
0001
0010
0100
1000
0000
0000
0001
0000
,  // measure 72
0100
0000
0010
1000
0000
0001
0000
0000
,  // measure 73
MM1M
0000
M1MM
0000
1MMM
0000
0000
0100
,  // measure 74
0001
0100
1000
0100
0000
0110
0000
0000
,  // measure 75
2000
0000
0000
3002
0000
0000
0203
0000
,  // measure 76
2300
0000
0000
3200
0000
0000
0302
0000
,  // measure 77
1003
0000
0000
0101
0000
0000
0000
2020
,  // measure 78
0000
0000
0000
0000
0000
3030
0000
0000
,  // measure 79
0000
1001
0000
0000
0000
0000
0000
0000
;

//---------------dance-single - ----------------
#NOTES:
     dance-single:
     Lisek:
     Medium:
     5:
     0.278,0.359,0.125,0.134,0.000: // measure 1
1000
0010
0100
0000
0010
0000
1000
0000
,  // measure 2
0001
0100
0001
0000
0100
0000
0010
0000
,  // measure 3
0100
0010
1000
0000
0001
0000
1000
0000
,  // measure 4
0001
0100
0100
0000
,  // measure 5
0001
0100
0010
0000
0100
0000
0001
0000
,  // measure 6
1000
0100
1000
0000
0010
0000
0100
0000
,  // measure 7
0001
1000
0010
0000
0100
0000
0000
0000
,  // measure 8
0220
0000
0330
0000
,  // measure 9
0001
1000
0010
0000
0100
0000
0001
0000
,  // measure 10
1000
0100
1000
0000
0010
0000
0100
0000
,  // measure 11
0001
1000
0010
0000
0100
0000
0001
0000
,  // measure 12
1000
0010
0010
0000
,  // measure 13
1000
0100
0010
0000
0001
0000
0100
0000
,  // measure 14
0001
0010
0001
0000
1000
0000
0010
0000
,  // measure 15
0000
0100
0000
0100
0000
0000
0000
0000
,  // measure 16
0001
1000
0001
1000
0001
0000
0000
0000
,  // measure 17
1000
1000
0100
0100
,  // measure 18
0000
0010
0001
0010
,  // measure 19
0100
0100
1000
1000
,  // measure 20
0020
0000
0030
0000
,  // measure 21
0100
0100
0010
0010
,  // measure 22
0000
0100
0001
1000
,  // measure 23
1001
0000
0000
1001
0000
0000
0000
2002
,  // measure 24
0000
0000
0000
0000
0000
3003
0000
0000
,  // measure 25
0001
1000
0001
0000
,  // measure 26
0000
0000
0000
0000
,  // measure 27
1000
0010
0100
0001
,  // measure 28
0010
0100
1000
0001
,  // measure 29
1000
0100
0010
0000
,  // measure 30
0000
0000
0000
0000
,  // measure 31
0001
0000
0000
1000
0000
0000
0001
0000
,  // measure 32
1000
0000
0000
0010
0000
0000
0100
0000
,  // measure 33
0110
0000
0000
0110
0000
0000
0000
2002
,  // measure 34
0000
0000
0000
0000
0000
3003
0000
0000
,  // measure 35
0002
0000
0000
0000
,  // measure 36
0000
0000
0000
0000
,  // measure 37
0023
0000
0000
0000
,  // measure 38
0000
0000
0000
0000
,  // measure 39
0230
0000
0000
0000
,  // measure 40
0000
0000
0000
0000
,  // measure 41
0300
0000
0000
0000
,  // measure 42
0000
0000
0000
0000
,  // measure 43
1001
0000
0000
1001
0000
0000
0000
0220
,  // measure 44
0000
0000
0000
0000
0000
0330
0000
0000
,  // measure 45
1000
0001
0100
0000
,  // measure 46
0000
0000
0000
0000
,  // measure 47
0001
1000
0010
0100
,  // measure 48
0010
1000
0100
0010
,  // measure 49
0001
1000
0001
0000
,  // measure 50
0000
0000
0000
0000
,  // measure 51
0100
0001
1000
0010
,  // measure 52
2002
0000
3003
0000
,  // measure 53
1000
0001
0100
0000
,  // measure 54
0000
0000
0000
0000
,  // measure 55
0001
1000
0010
1000
,  // measure 56
0100
0010
0001
1000
,  // measure 57
0001
0010
0100
0000
,  // measure 58
0000
0000
0000
0000
,  // measure 59
1000
0000
0000
0001
0000
0000
1000
0000
,  // measure 60
0010
0000
0000
0100
0000
0000
0010
0000
,  // measure 61
1000
0100
0010
0000
,  // measure 62
0000
0000
0000
0000
,  // measure 63
0001
1000
0010
0100
,  // measure 64
0001
1000
0100
0010
,  // measure 65
0001
1000
0001
0000
,  // measure 66
0000
0000
0000
0000
,  // measure 67
1000
0000
0000
0100
0000
0000
1000
0000
,  // measure 68
0001
0000
0000
0100
0000
0000
0001
0000
,  // measure 69
1000
0010
0100
0000
,  // measure 70
0000
0000
0000
0000
,  // measure 71
0001
0010
0100
1000
,  // measure 72
0001
0100
0010
1000
,  // measure 73
0001
0010
0100
0000
,  // measure 74
0000
0000
0000
0000
,  // measure 75
1000
0000
0000
0010
0000
0000
1000
0000
,  // measure 76
0001
0000
0000
0100
0000
0000
0001
0000
,  // measure 77
1001
0000
0000
1001
0000
0000
0000
0220
,  // measure 78
0000
0000
0000
0000
0000
0330
0000
0000
,  // measure 79
0000
1001
0000
0000
0000
0000
0000
0000
;

//---------------dance-single - ----------------
#NOTES:
     dance-single:
     Lisek:
     Beginner:
     1:
     0.076,0.127,0.008,0.025,0.000: // measure 1
1000
0000
0000
0000
,  // measure 2
0001
0000
0000
0000
,  // measure 3
1000
0000
0000
0000
,  // measure 4
0000
0000
0000
0000
,  // measure 5
0001
0000
0000
0000
,  // measure 6
0100
0000
0000
0000
,  // measure 7
0001
0000
0000
0000
,  // measure 8
0000
0000
0000
0000
,  // measure 9
1000
0000
0000
0000
,  // measure 10
0100
0000
0000
0000
,  // measure 11
1000
0000
0000
0000
,  // measure 12
0000
0000
0000
0000
,  // measure 13
0001
0000
0000
0000
,  // measure 14
1000
0000
0000
0000
,  // measure 15
0001
0000
0000
0000
,  // measure 16
0000
0000
0000
0000
,  // measure 17
1000
0000
0000
0000
,  // measure 18
0000
0000
0000
0000
,  // measure 19
0010
0000
0000
0000
,  // measure 20
0000
0000
0000
0000
,  // measure 21
0100
0000
0000
0000
,  // measure 22
0000
0000
0000
0000
,  // measure 23
0001
0000
0000
0000
,  // measure 24
0000
0000
0000
0000
,  // measure 25
1000
0000
0000
0000
,  // measure 26
0001
0000
0000
0000
,  // measure 27
1000
0000
0000
0000
,  // measure 28
0001
0000
0000
0000
,  // measure 29
0100
0000
0000
0000
,  // measure 30
0010
0000
0000
0000
,  // measure 31
0100
0000
0000
0000
,  // measure 32
0010
0000
0000
0000
,  // measure 33
0000
0000
0000
0000
,  // measure 34
0000
0000
0000
0000
,  // measure 35
2000
0000
0000
0000
,  // measure 36
0000
0000
0000
0000
,  // measure 37
3002
0000
0000
0000
,  // measure 38
0000
0000
0000
0000
,  // measure 39
2003
0000
0000
0000
,  // measure 40
0000
0000
0000
0000
,  // measure 41
3000
0000
0000
0000
,  // measure 42
0000
0000
0000
0000
,  // measure 43
0000
0000
0000
0000
,  // measure 44
0000
0000
0000
0000
,  // measure 45
0001
0000
0000
0000
,  // measure 46
1000
0000
0000
0000
,  // measure 47
0001
0000
0000
0000
,  // measure 48
1000
0000
0000
0000
,  // measure 49
0010
0000
0000
0000
,  // measure 50
0100
0000
0000
0000
,  // measure 51
0010
0000
0000
0000
,  // measure 52
0100
0000
0000
0000
,  // measure 53
0001
0000
0000
0000
,  // measure 54
0010
0000
0000
0000
,  // measure 55
0100
0000
0000
0000
,  // measure 56
1000
0000
0000
0000
,  // measure 57
0001
0000
0000
0000
,  // measure 58
1000
0000
0000
0000
,  // measure 59
0010
0000
0000
0000
,  // measure 60
0100
0000
0000
0000
,  // measure 61
0001
0000
0000
0000
,  // measure 62
1000
0000
0000
0000
,  // measure 63
0001
0000
0000
0000
,  // measure 64
1000
0000
0000
0000
,  // measure 65
0010
0000
0000
0000
,  // measure 66
0100
0000
0000
0000
,  // measure 67
0010
0000
0000
0000
,  // measure 68
0100
0000
0000
0000
,  // measure 69
0001
0000
0000
0000
,  // measure 70
0010
0000
0000
0000
,  // measure 71
0100
0000
0000
0000
,  // measure 72
1000
0000
0000
0000
,  // measure 73
0001
0000
0000
0000
,  // measure 74
1000
0000
0000
0000
,  // measure 75
0010
0000
0000
0000
,  // measure 76
0100
0000
0000
0000
,  // measure 77
1001
0000
0000
0000
;

//---------------dance-single - ----------------
#NOTES:
     dance-single:
     Lisek:
     Easy:
     3:
     0.192,0.225,0.025,0.075,0.000: // measure 1
1000
0010
0100
0000
,  // measure 2
0001
1000
0001
0000
,  // measure 3
1000
0100
0010
0001
,  // measure 4
1000
0000
0000
0000
,  // measure 5
0001
0100
0010
0000
,  // measure 6
1000
0100
0010
0000
,  // measure 7
0001
0000
1000
0000
,  // measure 8
0000
0000
0000
0000
,  // measure 9
1000
0100
0010
0000
,  // measure 10
0001
0010
0100
0000
,  // measure 11
1000
0001
0100
0010
,  // measure 12
1000
0000
0000
0000
,  // measure 13
0001
1000
0010
0000
,  // measure 14
1000
0100
0010
0000
,  // measure 15
0001
0000
1000
0000
,  // measure 16
0001
1000
0001
0000
,  // measure 17
1000
0000
0100
0000
,  // measure 18
1000
0000
0001
0000
,  // measure 19
0100
0000
0010
0000
,  // measure 20
0100
0000
0001
0000
,  // measure 21
1000
0000
0100
0000
,  // measure 22
0010
0000
0001
0000
,  // measure 23
2002
0000
0000
0000
0000
0000
0000
3003
,  // measure 24
0000
0000
0000
0000
,  // measure 25
1000
0001
1000
0000
,  // measure 26
0001
0000
1000
0000
,  // measure 27
0001
0000
0100
0000
,  // measure 28
0010
0000
1000
0000
,  // measure 29
0001
1000
0001
0000
,  // measure 30
1000
0000
0010
0000
,  // measure 31
0100
0000
0001
0000
,  // measure 32
1000
0000
0001
0000
,  // measure 33
2002
0000
0000
0000
0000
0000
0000
3003
,  // measure 34
0000
0000
0000
0000
,  // measure 35
0002
0000
0000
0000
,  // measure 36
0000
0000
0000
0000
,  // measure 37
2003
0000
0000
0000
,  // measure 38
0000
0000
0000
0000
,  // measure 39
3002
0000
0000
0000
,  // measure 40
0000
0000
0000
0000
,  // measure 41
0003
0000
0000
0000
,  // measure 42
0000
0000
0000
0000
,  // measure 43
0000
0000
0000
0000
,  // measure 44
0000
0000
0000
0000
,  // measure 45
1000
0010
1000
0000
,  // measure 46
0001
0000
0100
0000
,  // measure 47
0001
0000
1000
0000
,  // measure 48
0010
0000
0100
0000
,  // measure 49
0001
0100
0001
0000
,  // measure 50
1000
0000
0010
0000
,  // measure 51
1000
0000
0001
0000
,  // measure 52
0100
0000
0001
0000
,  // measure 53
1000
0001
1000
0000
,  // measure 54
0010
0000
0100
0000
,  // measure 55
0001
0000
1000
0000
,  // measure 56
0100
0000
0010
0000
,  // measure 57
0001
1000
0001
0000
,  // measure 58
0100
0000
0010
0000
,  // measure 59
1000
0000
0001
0000
,  // measure 60
1000
0000
0100
0000
,  // measure 61
0010
0001
1000
0000
,  // measure 62
0001
0000
0100
0000
,  // measure 63
0010
0000
1000
0000
,  // measure 64
0001
0000
0100
0000
,  // measure 65
0001
1000
0010
0000
,  // measure 66
1000
0000
0001
0000
,  // measure 67
0100
0000
0010
0000
,  // measure 68
1000
0000
0100
0000
,  // measure 69
0010
0001
1000
0000
,  // measure 70
0001
0000
0100
0000
,  // measure 71
0001
0000
1000
0000
,  // measure 72
0010
0000
0100
0000
,  // measure 73
0001
1000
0010
0000
,  // measure 74
1000
0000
0001
0000
,  // measure 75
0100
0000
0001
0000
,  // measure 76
1000
0000
0010
0000
,  // measure 77
2002
0000
0000
0000
0000
0000
0000
3003
;
