#TITLE:illuminate;
#SUBTITLE:;
#ARTIST:Sota Fujimori;
#TITLETRANSLIT:;
#SUBTITLETRANSLIT:;
#ARTISTTRANSLIT:;
#GENRE:;
#CREDIT:;
#BANNER:[Drop the Zero] - illuminate-bn.png;
#BACKGROUND:[Drop the Zero] - illuminate-bg.png;
#LYRICSPATH:;
#CDTITLE:;
#MUSIC:[Drop the Zero] - illuminate.mp3;
#OFFSET:-0.614000;
#SAMPLESTART:79.509003;
#SAMPLELENGTH:13.200000;
#SELECTABLE:YES;
#BPMS:0.000000=146.000000
;
#STOPS:
;
#BGCHANGES:;
#KEYSOUNDS:;
#ATTACKS:;

//---------------dance-single - ----------------
#NOTES:
     dance-single:
     :
     Hard:
     9:
     0.579182,0.638528,0.169601,0.016152,0.274592,502.000000,481.000000,21.000000,2.000000,0.000000,0.000000,0.579182,0.638528,0.169601,0.016152,0.274592,502.000000,481.000000,21.000000,2.000000,0.000000,0.000000:
0000
0000
0000
0000
,
0000
0000
0000
0000
,
0000
0000
0000
0000
,
0000
0000
0000
0000
,
0010
0000
1000
0001
0000
1000
0001
0000
,
0100
0010
1000
0000
0001
0100
0010
0000
,
1000
0000
0001
1000
0000
0001
1000
0000
,
0020
0000
0000
1030
,
0001
0000
0010
0100
0000
0010
0100
0000
,
0010
0000
0001
1000
0000
0000
0010
0000
0000
0010
0100
0000
0001
0000
0000
0000
,
1000
0000
0100
0010
0000
0100
0010
0000
,
0011
0000
0000
1100
0000
0000
0101
0000
0000
0000
0010
0000
1000
0000
0000
0000
,
0001
0000
1000
0100
0000
1000
0100
0000
,
0010
0000
0010
0100
0000
0000
0001
0000
0000
0001
0100
0000
0010
0000
0000
0000
,
1000
0001
0010
0100
0001
0100
0010
0000
,
0001
0010
0100
1000
0010
0100
0001
0000
,
1000
0000
0010
0100
0000
0000
0001
0010
0000
0000
0100
0000
1000
0000
0010
0000
,
0100
0001
1000
0000
0010
0100
0001
0000
,
0100
0000
0001
0100
0000
0000
0010
1000
0000
0000
0001
0000
0100
0000
0000
0000
,
0010
0100
0010
0000
1000
0010
1000
0000
,
0001
0000
0100
0010
0000
0000
1000
0100
0000
0000
0010
0000
0100
0000
0000
0000
,
1000
0001
0100
0000
0010
0100
0001
0000
,
1000
0000
0001
0010
0000
0000
0100
1000
0000
0000
0001
0000
0010
0000
0100
0000
,
0110
0000
0000
0101
0000
0000
1010
0000
0000
0000
0010
0000
0100
0000
0000
0000
,
0000
0010
1000
0100
0000
0010
0001
0100
,
0001
0100
1000
0000
0001
0010
1000
0000
,
0000
0001
0100
0001
0000
1000
0010
1000
,
1100
0110
1001
0101
,
0001
0010
0001
0100
0001
0010
0001
0000
,
1000
0100
1000
0010
1000
0100
1000
0000
,
0001
0010
0001
0100
1000
0100
0001
0000
,
1000
0010
0001
0010
1000
0100
1000
0000
,
0001
0100
0000
0001
0000
0000
0100
0000
0010
0100
0010
0000
1000
0010
1000
0000
,
0001
0000
0000
0001
0000
0000
0001
0000
1000
0000
0100
0000
1000
0000
0010
0000
,
0100
0000
0000
0100
0000
0000
0100
0000
0001
0010
0001
0000
1000
0100
1000
0000
,
0010
0100
0001
0100
0010
0100
0001
0010
,
0100
0000
0000
0100
0000
0000
0100
0000
0010
0000
0010
0100
0010
0000
0001
0000
,
1000
0010
0000
0100
0000
0010
0000
1000
0001
0000
0100
0000
0010
0000
1000
0000
,
0001
0000
0000
0000
0000
0000
0100
0000
0000
0000
0000
0000
0010
0000
0000
0100
0000
0000
0010
0000
0000
0000
0000
0000
1000
0000
0000
0000
0100
0000
0000
0000
1000
0000
0000
0000
0001
0000
0000
0000
0100
0000
0000
0000
0001
0000
0000
0000
,
1000
0000
0010
0000
0100
0001
0100
0000
0001
0100
0001
0000
1000
0000
1000
0000
,
0001
0000
0001
0000
0100
0000
0100
0000
0001
0000
0000
0001
0000
0000
0001
0000
,
0000
1000
1000
1000
0000
0010
0000
0100
,
0010
0000
0010
0000
1000
0000
1000
0000
0010
0000
0000
0010
0000
0000
0010
0000
,
0000
0100
0100
0100
0000
0001
0000
0001
,
1000
0000
0010
0000
0100
0000
0010
0000
0100
0000
0000
0100
0000
0000
0100
0000
,
0000
0000
0001
0000
0100
0000
0001
0100
0000
0000
0010
0000
0000
0000
0010
0000
,
1000
0000
0010
0000
0100
0000
0001
0000
1000
0000
0000
1000
0000
0000
1000
0000
,
0000
0000
0010
0000
0100
0000
0010
0100
0000
0000
0001
0000
1001
0000
0000
0000
,
1000
0000
0100
0000
0010
0000
0001
0000
0100
0000
0000
0100
0000
0000
0100
0000
,
0010
1000
0100
0001
0100
1000
0010
1000
,
0001
0000
0010
0000
0100
0000
1000
0000
0010
0000
0000
0010
0000
0000
0010
0000
,
1000
0001
1000
0100
0010
0100
0001
0100
,
1000
0000
0100
0000
0010
0000
0001
0000
0100
0000
0000
0100
0000
0000
0100
0000
,
0010
1000
0001
0010
1000
0010
0100
1000
,
0001
0010
0100
1000
0010
0100
0010
0110
,
0000
0000
0001
0000
1000
0000
0010
0100
0000
0100
0001
0000
0101
0000
0000
0000
,
1000
0000
0010
0000
0001
0000
0010
0000
0100
0000
0001
0100
0000
0100
0010
0000
,
1000
0000
0100
0000
0010
0100
0010
0000
0001
0000
0010
0000
0100
0000
0010
0000
,
0001
0000
0100
0000
1000
0000
0100
0000
0010
0000
1000
0100
0000
0100
0010
0000
,
0001
0000
1000
0000
0001
0100
0001
0000
1000
0000
0100
0000
0001
0000
0100
0000
,
0010
0000
0100
0000
1000
0000
0010
0000
0110
0000
0000
1010
0000
0000
0101
0000
,
0000
1000
0100
0000
0010
0000
0001
0010
0000
0010
0100
0000
0010
0000
0100
0000
,
0001
0000
0010
0000
1000
0000
0010
0000
0001
0000
1000
0100
0000
0000
0110
0000
,
0000
0001
0010
0000
0001
0000
1000
0010
0000
0010
1000
0000
1010
0000
0000
0000
,
0010
0100
0001
0010
0001
1000
0100
1000
,
0010
0000
0010
0100
0000
0000
0001
0000
0000
0001
0100
0000
0001
0000
0001
0000
,
1000
0100
1000
0010
0100
0010
1000
0100
,
0010
0000
0010
0001
0000
0000
1000
0000
0000
1000
0100
0000
0010
0000
0010
0000
,
0200
0000
0301
0001
0100
0010
1000
0010
,
0100
0000
0100
0010
0000
0000
1000
0000
0000
1000
0100
0000
1000
0000
1000
0000
,
0001
0100
0001
0010
0100
1000
0001
0010
,
0110
0000
0000
1100
0000
0000
0101
0000
0000
0001
0100
0000
0010
0000
1000
0000
;

//---------------dance-single - ----------------
#NOTES:
     dance-single:
     :
     Medium:
     6:
     0.415349,0.493408,0.161525,0.048457,0.044419,360.000000,340.000000,20.000000,6.000000,0.000000,0.000000,0.415349,0.493408,0.161525,0.048457,0.044419,360.000000,340.000000,20.000000,6.000000,0.000000,0.000000:
0000
0000
0000
0000
,
0000
0000
0000
0000
,
0000
0000
0000
0000
,
0000
0000
0000
0000
,
0010
1000
0001
1000
,
0001
0100
0001
0000
1000
0010
1000
0000
,
0001
0100
0010
1000
,
0002
0000
0000
1003
,
0001
0010
0100
1000
,
0001
1000
0001
0000
1000
0001
1000
0000
,
1000
0100
0010
0001
,
0100
0000
0000
0100
0000
0000
0100
0000
0000
0000
0000
0000
0110
0000
0000
0000
,
1001
0100
0010
0100
,
1000
0100
1000
0000
0010
0100
0010
0000
,
2000
0010
0010
3010
,
0001
0000
0100
0000
0010
0100
0010
0000
,
1000
0010
0100
0000
0001
0000
0001
0000
,
1000
0010
0100
0000
0010
0100
0001
0000
,
0001
0100
0010
0000
1000
0000
1000
0000
,
0001
0100
0010
0000
0100
0010
1000
0000
,
1000
0010
0100
0000
0001
0000
0001
0000
,
1000
0100
0001
0000
0001
0100
1000
0000
,
0001
0010
0100
0000
0010
0000
0010
0000
,
0001
0000
0000
0001
0000
0000
0101
0000
0000
0000
0001
0000
0100
0000
0000
0000
,
0000
0010
1000
0000
0100
0000
0010
0000
,
0001
0000
0100
0000
0001
0010
0001
0000
,
0000
0001
0010
0000
0100
0000
1000
0000
,
0010
0100
0101
0101
,
0001
0010
0001
0000
0001
0010
0001
0000
,
1000
0100
1000
0000
0001
0100
0001
0000
,
0001
0010
0100
0000
1000
0100
0010
0000
,
0010
0001
0101
0101
,
1000
0000
1000
0000
0010
0100
0010
0100
,
0010
1000
0001
0010
,
0100
0000
1000
0000
0010
1000
0010
1000
,
0020
0230
0302
0103
,
0001
0000
1000
0000
0001
0100
0001
0100
,
0001
1000
0010
0100
,
0001
1000
1001
1001
,
0110
0001
0110
1000
,
0001
0000
0000
0000
0100
0000
0000
0000
0001
0000
0000
0001
0000
0000
0001
0000
,
0000
1000
0000
1000
0000
0010
0000
0010
,
1000
0000
0000
0000
0010
0000
0000
0000
0100
0000
0000
0100
0000
0000
0100
0000
,
0000
0001
0000
0001
0000
1000
0000
1000
,
0001
0000
0000
0000
0100
0000
0000
0000
0010
0000
0000
0010
0000
0000
0010
0000
,
0000
1000
0000
1000
0000
0010
0000
0010
,
0100
0000
0000
0000
0001
0000
0000
0000
0100
0000
0000
0100
0000
0000
0100
0000
,
0000
0001
0000
0100
0000
0001
1001
0000
,
0001
0100
1000
0100
,
0001
0100
0001
1000
0001
0100
0001
0000
,
1000
0010
0001
0010
,
1000
0010
1000
0001
1000
0010
1000
0000
,
0001
0010
1000
0010
,
0001
0010
0001
0100
0001
0010
0001
0000
,
1000
0000
0100
0000
0001
0000
0100
1000
,
0000
1000
0001
0000
0101
0000
1010
0000
,
0001
0000
0100
0000
0001
0000
0000
0000
0100
0000
0000
0100
0000
0000
0100
0000
,
0000
1010
0000
0010
1000
0100
0010
0000
,
0010
0000
0001
0000
0010
0000
0000
0000
0100
0000
0000
0100
0000
0000
0100
0000
,
0000
1100
0000
1000
0100
1000
0010
0000
,
0100
0000
0010
0000
1000
0000
0001
0000
0101
0000
0000
0101
0000
0000
0101
0000
,
0000
0001
0100
0001
1000
0000
1000
0000
,
0001
0000
0100
0000
0001
0000
0000
0000
1000
0000
0000
1000
0000
0000
1000
0000
,
0000
0010
0100
0001
1000
0000
1001
0000
,
0100
0000
0010
0000
1000
0100
1000
0000
,
0001
0100
0001
0000
1000
0010
1000
0000
,
0001
0000
0100
0000
0010
0100
0010
0000
,
1000
0010
1000
0000
0001
0100
0001
0000
,
2000
0000
3001
0000
0010
0100
0001
0000
,
0100
0010
1000
0000
0001
0010
0100
0000
,
1000
0000
0001
0000
1000
0100
0010
0000
,
0001
0000
0000
0001
0000
0000
0001
0000
0000
0000
1000
0000
0001
0000
1000
0000
;

//---------------dance-single - ----------------
#NOTES:
     dance-single:
     :
     Easy:
     3:
     0.221520,0.318709,0.209982,0.040381,0.000000,192.000000,166.000000,26.000000,5.000000,0.000000,0.000000,0.221520,0.318709,0.209982,0.040381,0.000000,192.000000,166.000000,26.000000,5.000000,0.000000,0.000000:
0000
0000
0000
0000
,
0000
0000
0000
0000
,
0000
0000
0000
0000
,
0000
0000
0000
0000
,
0010
0000
0010
0000
,
1000
0010
1000
0000
,
0001
0000
0001
0000
,
0200
0000
0000
0300
,
0001
0000
0001
0000
,
1000
0100
1000
0000
,
0010
0000
0010
0000
,
0100
0110
0100
0000
,
0001
0000
0001
0000
,
1000
0100
1000
0000
,
0002
0000
0003
0000
,
2000
0000
3000
0010
,
0000
1000
0000
0001
,
0000
1000
0000
0001
,
0000
0010
0000
0100
,
0000
0010
0000
0100
,
0000
1000
0000
0001
,
0000
1000
0000
0010
,
0000
1000
0000
0001
,
0100
0000
0101
0001
,
0000
1000
0010
1000
,
0000
0001
0100
0001
,
0000
1000
0010
1000
,
0010
0000
0110
0000
,
0001
0010
0001
0000
,
1000
0100
1000
0000
,
0001
0100
0001
0000
,
1000
0010
1000
0000
,
0001
0100
0010
0010
,
1000
0000
1000
0000
,
1000
0010
0100
0100
,
0110
0000
0110
0000
,
0001
1000
0010
0010
,
0100
0000
0100
0000
,
0001
0100
0001
0011
,
0000
1100
0000
0101
,
0002
0000
0000
0000
,
0003
0000
0000
0000
,
2000
0000
0000
0000
,
3000
0000
0000
0000
,
1001
0000
0010
0000
,
0100
0000
0010
0000
,
0001
0000
0010
0000
,
0100
0000
0100
0110
,
0000
1000
0100
0000
,
0110
0000
0101
0000
,
0001
0100
0010
0000
,
1010
0000
0101
0000
,
1000
0010
0100
0000
,
1010
0000
0110
0000
,
0010
0100
0001
0000
,
0101
0000
1000
1010
,
0001
0010
0001
0010
,
0011
0000
0110
0000
,
1000
0100
1000
0100
,
1100
0000
0101
0000
,
0001
0010
0001
0000
,
0101
0000
1001
0000
,
1000
0010
1000
0010
,
1000
0000
0001
1001
,
1000
0000
0001
0000
,
1000
0010
1000
0000
,
0001
0000
1000
0000
,
0001
0100
0001
0000
,
1000
0000
0001
0000
,
1000
0010
1000
0000
,
0001
0000
1000
0000
,
0001
0100
0001
0101
;

//---------------dance-single - ----------------
#NOTES:
     dance-single:
     :
     Beginner:
     2:
     0.173062,0.231788,0.129220,0.000000,0.000000,150.000000,134.000000,16.000000,0.000000,0.000000,0.000000,0.173062,0.231788,0.129220,0.000000,0.000000,150.000000,134.000000,16.000000,0.000000,0.000000,0.000000:
// measure 0
0000
0000
0000
0000
,  // measure 1
0000
0000
0000
0000
,  // measure 2
0000
0000
0000
0000
,  // measure 3
0000
0000
0000
0000
,  // measure 4
0010
0000
0010
0000
,  // measure 5
1000
0000
1000
0000
,  // measure 6
0001
0000
0001
0000
,  // measure 7
0100
0000
0110
0000
,  // measure 8
0001
0000
0001
0000
,  // measure 9
1000
0000
1000
0000
,  // measure 10
0010
0000
0010
0000
,  // measure 11
0100
0000
0100
0000
,  // measure 12
0010
0000
0010
0000
,  // measure 13
1000
0000
1000
0000
,  // measure 14
0001
0000
0001
0000
,  // measure 15
1000
0000
1000
0000
,  // measure 16
1000
0000
0001
0000
,  // measure 17
1000
0000
0001
0000
,  // measure 18
0100
0000
0010
0000
,  // measure 19
0100
0000
0010
0000
,  // measure 20
1000
0000
0001
0000
,  // measure 21
1000
0000
0010
0000
,  // measure 22
1000
0000
0001
0000
,  // measure 23
0100
0000
0101
0000
,  // measure 24
0000
1000
0000
1000
,  // measure 25
0000
0001
0000
0001
,  // measure 26
0000
1000
0000
1000
,  // measure 27
0010
0000
1010
0000
,  // measure 28
0001
0000
0001
0000
,  // measure 29
0100
0000
0100
0000
,  // measure 30
0001
0000
0001
0000
,  // measure 31
0010
0000
0010
0000
,  // measure 32
0001
0000
0100
0100
,  // measure 33
0000
0001
0000
0001
,  // measure 34
1000
0000
1000
1000
,  // measure 35
0000
1001
0000
1001
,  // measure 36
0000
0000
0001
0001
,  // measure 37
0000
1000
0000
1000
,  // measure 38
0001
0000
0011
0000
,  // measure 39
1000
0000
0101
0000
,  // measure 40
0001
0000
0000
0000
,  // measure 41
0000
0000
0000
0000
,  // measure 42
1000
0000
0000
0000
,  // measure 43
0000
0000
0000
0000
,  // measure 44
1000
0000
0000
0000
,  // measure 45
0010
0000
0000
0000
,  // measure 46
0100
0000
0000
0000
,  // measure 47
0001
0000
1000
0000
,  // measure 48
0001
0000
1000
0000
,  // measure 49
1010
0000
1000
0000
,  // measure 50
0001
0000
0100
0000
,  // measure 51
0110
0000
0100
0000
,  // measure 52
0001
0000
1000
0000
,  // measure 53
1001
0000
0001
0000
,  // measure 54
1000
0000
1001
0000
,  // measure 55
0101
0000
0001
0000
,  // measure 56
1000
0000
0010
0000
,  // measure 57
0110
0000
0010
0000
,  // measure 58
1000
0000
0001
0000
,  // measure 59
0011
0000
0001
0000
,  // measure 60
1000
0000
0010
0010
,  // measure 61
0000
0110
0000
0100
,  // measure 62
0010
0000
1000
0000
,  // measure 63
1010
0000
1000
0000
,  // measure 64
0001
0000
0001
0000
,  // measure 65
1000
0010
1000
0000
,  // measure 66
0010
0000
0010
0000
,  // measure 67
1000
0001
1000
0000
,  // measure 68
0001
0000
0001
0000
,  // measure 69
1000
0100
1000
0000
,  // measure 70
0001
0000
0100
0000
,  // measure 71
0001
0000
0100
0100
;
