#TITLE:Night Sky;
#SUBTITLE:;
#ARTIST:USAO;
#TITLETRANSLIT:;
#SUBTITLETRANSLIT:;
#ARTISTTRANSLIT:;
#GENRE:;
#CREDIT:Junko;
#BANNER:Night Sky-banner.png;
#BACKGROUND:Night Sky-bg.png;
#JACKET:Night Sky-jacket.png;
#LYRICSPATH:;
#CDTITLE:cdtitle.png;
#MUSIC:USAO - Night Sky.ogg;
#OFFSET:-2.272000;
#SAMPLESTART:82.272003;
#SAMPLELENGTH:29.999001;
#SELECTABLE:YES;
#BPMS:0.000000=96.000000
,40.000000=192.000000
,216.000000=96.000000
,232.000000=192.000000
,752.000000=96.000000
;
#STOPS:
;
#BGCHANGES:;
#KEYSOUNDS:;
#ATTACKS:;

//---------------dance-single - ----------------
#NOTES:
     dance-single:
     :
     Easy:
     7:
     0.376560,0.553000,0.108698,0.400823,0.000000,313.000000,16.000000,59.000000,0.000000,0.000000,0.000000,0.376560,0.553000,0.108698,0.400823,0.000000,313.000000,16.000000,59.000000,0.000000,0.000000,0.000000:
0000
0000
0000
0000
,
0000
0000
0000
0000
,
0000
0000
0000
0000
,
0000
0000
0000
0000
,
0000
0000
0000
0000
,
0000
0000
0000
0000
,
0000
0000
0000
0000
,
0000
0000
0000
0000
,
0000
0000
0000
0000
,
0000
0000
0000
0000
,
1000
1000
0001
0001
,
1000
1000
0001
0001
,
0010
0010
0100
0100
,
0220
0000
0000
0000
,
0330
0100
0001
0010
,
0100
0010
1000
0100
,
0010
0001
0010
0100
,
0010
0100
0010
1000
,
0010
1000
0010
0100
,
0010
0100
0001
0100
,
0001
0100
0001
0001
,
0010
0100
1000
0010
,
0100
0010
1000
0100
,
1000
0010
0100
0010
,
0001
0100
0001
0010
,
0100
1000
0200
0000
,
0310
0010
0010
0000
0100
0000
0010
0000
,
0100
1000
0010
1000
,
0010
0100
0010
0100
,
0002
0023
0230
0300
,
0001
0001
0010
0100
,
1000
0010
0100
0010
,
1000
0100
1000
0010
,
0100
0010
0001
0100
,
0001
0010
0100
1000
,
0010
0100
1000
0001
,
1001
0010
0100
0010
,
0100
0200
0320
0030
,
1000
0001
0001
1000
,
0001
0001
1000
0100
,
0010
0010
0100
0100
,
0020
0000
0000
0030
,
1000
1000
0100
0100
,
0010
0010
0001
0002
,
0003
1000
1000
0010
,
0010
0100
0100
0000
,
1001
0000
0110
0000
,
1001
0000
0000
0000
0011
0010
0010
0000
,
0101
0000
1010
0000
,
1000
0001
1000
0001
,
1000
0000
1010
0000
,
1100
0000
0011
0000
,
0101
0000
1100
0000
,
0110
0000
1001
0000
,
2002
0000
0000
0000
,
0000
0000
0000
0000
,
0000
0000
0000
0000
,
0000
0000
0000
0000
,
3003
0100
0001
0010
,
0100
0010
1000
0100
,
0010
0001
0010
0100
,
0010
0100
0010
1000
,
0010
1000
0010
0100
,
0010
0100
0001
0010
,
0100
1000
0010
0100
,
0010
1000
0100
1000
,
0002
0000
0003
0000
0000
0010
0000
0200
,
0000
0000
0310
0000
,
1000
0000
0000
0100
0000
0001
0001
0002
,
0000
0000
1003
0000
,
0100
0000
0000
0001
0000
0010
0000
0100
,
0000
0000
0000
0000
1000
0000
0000
0001
,
0000
0000
0000
1000
0000
0100
0100
0100
,
0200
0320
0030
0000
,
0002
0000
0003
0000
0000
0010
0000
0200
,
0000
0000
0000
0000
0310
0000
1000
1000
,
1000
0000
0000
0100
0000
0001
0001
0002
,
0000
0000
1003
0000
,
0100
0000
0000
0001
0000
0010
0000
0100
,
0000
0000
0000
0000
1000
0000
0000
0002
,
0003
0000
0000
1000
0000
0100
0100
0100
,
0200
0320
0230
0300
,
1000
0100
0010
0001
,
0100
0010
0100
0010
,
0001
0010
0100
0010
,
0001
0100
0001
0100
,
0010
0100
0010
1000
,
0010
0100
0010
0100
,
0001
0010
0001
0010
,
0100
0010
1000
0100
,
1000
0001
0100
0002
,
2003
3002
2003
3200
,
0320
0032
0203
0320
,
0230
0302
0023
0230
,
2300
3200
0320
0230
,
0320
2030
3200
2300
,
3020
0230
0320
0032
,
2003
0002
3003
2000
,
3002
0000
0003
0010
0100
0000
2000
3000
,
0002
0003
2000
3010
0001
0000
0100
0000
,
0020
0000
0000
0000
0130
0000
2000
3002
,
0003
1000
0001
0100
0010
0000
1000
0000
;

//---------------dance-single - ----------------
#NOTES:
     dance-single:
     :
     Medium:
     9:
     0.546401,0.691250,0.020381,0.373649,0.044159,505.000000,3.000000,55.000000,0.000000,0.000000,0.000000,0.546401,0.691250,0.020381,0.373649,0.044159,505.000000,3.000000,55.000000,0.000000,0.000000,0.000000:
0000
0000
0000
0000
,
0000
0000
0000
0000
,
0000
0000
0000
0000
,
0000
0000
0000
0000
,
0000
0000
0000
0000
,
0000
0000
0000
0000
,
0000
0000
0000
0000
,
0000
0000
0000
0000
,
0000
0000
0000
0000
,
0000
0000
0000
0000
,
0001
0010
0100
1000
0010
0100
0010
1000
,
0100
1000
0001
0100
0001
0010
0100
0010
,
1000
0100
0010
0001
0010
0100
1000
0010
,
2000
0000
0000
0000
,
3010
0010
0010
0000
1000
0100
0001
0000
,
0100
0000
0010
0000
0001
0010
0100
0000
,
1000
0000
0010
0001
0100
0000
0010
0000
,
0100
0010
0100
0010
2000
0000
3002
0000
,
0013
0010
0010
0000
1000
0100
0001
0000
,
0100
0000
0010
0000
0001
0010
0100
0000
,
1000
0000
0010
0001
0100
0000
0010
0000
,
0100
0010
0100
0010
2000
0000
3002
0000
,
0003
0000
1000
0000
0001
0000
2000
0002
,
0000
0000
0000
0000
3003
0001
1000
0001
,
1000
0002
0000
1003
0001
1000
0010
0100
,
0001
1000
0100
0000
0001
1000
0001
0000
,
0010
0010
0010
0000
1000
0100
0001
0000
,
0100
0000
0010
0000
0001
0010
0100
0000
,
1000
0000
0010
0001
0100
0000
0010
0000
,
0100
0010
0100
0010
2002
0000
3003
0000
,
0001
0010
0100
1000
0010
0100
0010
1000
,
0100
1000
0001
0100
0001
0010
0100
0010
,
1000
0100
0010
0001
0010
0100
1000
0010
,
0100
0010
0100
0010
0001
0100
1000
0000
,
0001
0010
0100
1000
0010
0100
0010
1000
,
0100
1000
0001
0100
0001
0010
0100
0010
,
1000
0100
0010
0001
0010
0100
1000
0010
,
2000
3020
0230
0300
,
1000
0001
1000
0001
1000
0001
1000
0001
,
1000
0100
0010
0100
0010
0100
0010
0100
,
0010
0001
1000
0001
1000
0001
1000
0001
,
1000
0000
0100
0010
0000
0001
0010
0100
,
1000
1000
1000
1000
,
0001
0001
0001
0001
,
0001
1000
0001
1000
0001
1000
0001
1000
0001
1000
0001
1000
0001
1000
0001
1000
,
0001
0000
1000
0000
0010
0100
0000
0000
,
0001
0010
0100
1000
,
0010
0100
0010
1000
,
0100
1000
0001
0100
,
0001
0010
0100
0010
,
1000
0100
1000
0010
,
0100
0010
0001
0010
,
2100
3000
0200
0000
,
0302
0000
0000
0000
,
0003
0000
0000
0000
,
0000
0000
0000
0000
,
0000
0000
0000
0000
,
0000
0000
0000
0000
,
0001
0010
0100
1000
0010
0100
0010
1000
,
0100
1000
0001
0100
0001
0010
0100
0010
,
1000
0100
0010
0001
0010
0100
1000
0010
,
2000
0002
0000
3003
,
2000
3000
0000
0002
,
0003
0000
0000
0000
0000
2000
0000
3000
,
0000
0000
0200
0300
,
0000
0002
0000
0003
0000
0000
1001
0000
,
1000
0001
1000
0010
0000
0010
0000
0100
,
0010
0100
0010
0100
0010
0000
0000
0000
,
1000
0000
0000
0001
0100
0001
0000
0100
,
0010
0100
0010
0100
0010
0000
0000
0000
,
0000
0100
0000
0000
0100
0100
0000
0100
,
0001
0100
0001
0100
0001
0000
0000
1000
,
0001
1000
0000
0100
0000
0010
0010
0010
,
0001
1000
0001
1000
0001
1000
0001
0000
,
1000
0000
0000
0100
0000
0001
0000
0100
,
0010
0100
0010
0100
0010
0000
1000
0001
,
0001
0001
0000
1000
0000
0010
0000
0001
,
0100
0001
0100
0001
0100
0001
0010
0000
,
0100
0000
0000
1000
0000
0010
0000
0100
,
0010
0100
0010
0100
0010
0000
0000
1000
,
1000
0000
0000
0100
0000
0010
0010
0010
,
0100
0010
0100
0010
0100
0000
0000
0000
,
0001
0010
0100
1000
0010
0100
0010
1000
,
0100
1000
0001
0100
0001
0010
0100
0010
,
1000
0100
0010
0001
0010
0100
1000
0010
,
0100
0010
0100
1000
0010
0100
0010
1000
,
0100
1000
0001
0100
0001
0010
0100
0010
,
1000
0100
0010
0001
0010
0100
1000
0100
,
0010
0100
1000
0010
0100
0010
1000
0100
,
1000
0001
0100
0001
0010
0100
0010
1000
,
0100
0010
0001
0010
2000
0000
3200
0000
,
0320
0230
0302
0203
,
0320
2030
3020
0230
,
0320
0032
0203
0320
,
2030
3002
0203
0320
,
2030
0000
3002
0000
2003
0000
3002
0003
,
0010
0100
0010
0100
0010
0100
0010
0100
,
0010
0100
0010
0100
0010
0100
0010
0100
0010
0000
0000
0000
1000
0000
0100
0000
,
0001
1000
0001
0000
0100
0000
0002
0023
,
0230
0000
0300
0000
0020
0000
0000
0000
1030
0000
0000
0000
1000
0000
0001
1000
,
0002
0000
0000
0000
1003
0020
0230
0302
,
1003
0020
0230
0310
0001
0100
1000
0000
;

//---------------dance-single - ----------------
#NOTES:
     dance-single:
     :
     Hard:
     13:
     0.736622,1.000000,0.081523,0.298919,0.509521,703.000000,12.000000,44.000000,0.000000,0.000000,2.000000,0.736622,1.000000,0.081523,0.298919,0.509521,703.000000,12.000000,44.000000,0.000000,0.000000,2.000000:
// measure 0
0000
0000
0000
0000
,  // measure 1
0000
0000
0000
0000
,  // measure 2
0000
0000
0000
0000
,  // measure 3
0000
0000
0000
0000
,  // measure 4
0000
0000
0000
0000
,  // measure 5
0000
0000
0000
0000
,  // measure 6
0000
0000
0000
0000
,  // measure 7
0000
0000
0000
0000
,  // measure 8
0000
0000
0000
0000
,  // measure 9
0000
0000
0000
0000
,  // measure 10
1000
0100
1000
0100
0010
0001
0010
0001
1000
0001
1000
0100
0010
0001
0010
0100
,  // measure 11
0010
0100
0010
1000
0100
1000
0100
0010
0001
0100
0001
0100
0001
0010
0100
0010
,  // measure 12
0100
1000
0100
1000
0100
0010
0100
0010
0100
0010
0100
0001
0100
0001
0100
0001
,  // measure 13
0200
0000
0000
0000
,  // measure 14
0310
0100
0010
0001
0010
0100
1000
0010
,  // measure 15
0100
0010
1000
0100
1000
0001
0100
0001
,  // measure 16
0010
0100
0010
1000
0100
1000
0010
0100
,  // measure 17
0020
0000
0000
0030
,  // measure 18
0100
0010
0001
0100
0010
1000
0010
0100
,  // measure 19
0010
0001
0010
0100
1000
0010
1000
0010
,  // measure 20
0100
0010
0001
0100
0001
0010
0100
1000
,  // measure 21
0010
0100
0010
1000
0200
0000
0300
0000
,  // measure 22
1000
0000
1000
0000
1000
0001
1000
0001
0000
0000
0000
0000
0100
0010
0100
0010
,  // measure 23
0000
0000
0100
0000
0001
1000
0001
1000
0000
0000
0010
0000
1000
0100
0010
0001
,  // measure 24
0000
0000
0001
0000
0010
0100
1000
0100
1000
0000
0010
0000
0100
0001
0100
0001
,  // measure 25
0000
0000
0010
0000
0010
0100
0010
0100
0020
0000
0000
0000
0000
0000
0000
0000
,  // measure 26
1030
0000
1000
0000
1000
0001
1000
0001
0000
0000
0000
0000
0100
0010
0100
0010
,  // measure 27
0000
0000
0100
0000
0001
1000
0001
1000
0000
0000
0010
0000
1000
0100
0010
0001
,  // measure 28
1000
0100
1000
0100
1000
0100
0010
0100
0010
0100
0010
0001
0100
0001
0100
0001
,  // measure 29
0200
0000
0340
0030
,  // measure 30
2000
3020
0230
0302
,  // measure 31
2003
3020
0230
0320
,  // measure 32
2030
3002
0203
0320
,  // measure 33
2030
3200
0320
0032
,  // measure 34
0203
0320
2030
3200
,  // measure 35
2300
0000
3020
0000
0230
0000
0320
0030
,  // measure 36
0001
1000
0001
1000
0001
1000
0001
1000
0001
1000
0001
1000
0001
1000
0001
1000
,  // measure 37
0002
0203
0340
0030
,  // measure 38
0010
0100
0010
0001
0010
0100
1000
0010
,  // measure 39
0100
0010
1000
0100
1000
0001
0100
0001
,  // measure 40
0010
0100
0010
1000
0100
1000
0010
0100
,  // measure 41
0020
0000
0000
0000
,  // measure 42
0030
0010
1000
0100
1000
0001
0100
0001
,  // measure 43
0010
0100
0010
1000
0100
1000
0010
0100
,  // measure 44
0010
1000
0010
1000
0010
1000
0010
1000
0010
1000
0010
1000
0100
1000
0100
1000
,  // measure 45
0100
1000
0000
0000
1000
0000
0100
0000
1000
0000
0001
0000
0100
0000
0001
0000
,  // measure 46
1010
0010
0101
1000
,  // measure 47
0110
0001
1010
0100
,  // measure 48
0101
0010
1010
0100
,  // measure 49
1000
0001
1000
0001
1000
0001
1000
0001
1000
0100
1000
0100
1000
0100
1000
0100
,  // measure 50
1000
1001
0010
1100
,  // measure 51
0010
0101
0010
1010
,  // measure 52
1000
0001
1000
0001
1000
0000
0000
0000
0001
0010
0001
0010
0001
0000
0000
0000
,  // measure 53
1000
0010
0010
1000
0100
0000
0100
0010
,  // measure 54
0100
0000
0000
0000
,  // measure 55
0000
0000
0000
0000
,  // measure 56
0000
0000
0000
0000
,  // measure 57
0000
0000
0000
0000
,  // measure 58
0010
0100
0010
0001
0010
0100
1000
0010
,  // measure 59
0100
0010
1000
0100
1000
0001
0100
0001
,  // measure 60
0010
0100
0010
1000
0100
1000
0010
0100
,  // measure 61
0010
0100
0010
0001
0010
0100
1000
0010
,  // measure 62
0100
0010
1000
0100
1000
0001
0100
0001
,  // measure 63
0010
0100
0010
1000
0100
1000
0010
0100
,  // measure 64
0010
0100
1000
0100
0010
0100
0002
0000
,  // measure 65
2003
0000
0000
3000
,  // measure 66
1000
0000
0000
0000
0000
0000
0100
0000
0000
0000
0010
0000
0000
0000
0001
1000
,  // measure 67
0001
1000
0001
1000
0001
1000
0001
0000
1000
0000
0000
0000
0000
0000
0000
0000
,  // measure 68
0000
0000
1000
0000
0000
0000
0100
0000
0000
0000
0010
0000
0010
0000
0010
0100
,  // measure 69
0010
0100
0010
0100
0010
0100
0010
0000
0100
0000
0000
0000
2000
0000
0000
0000
,  // measure 70
3000
0000
0100
0000
0000
0000
0010
0000
0000
0000
0001
0000
0000
0000
1000
0100
,  // measure 71
0010
0001
0100
0001
0100
0000
0100
1000
0100
1000
0100
1000
0100
0010
0001
0010
,  // measure 72
0001
0000
1000
0000
0000
0000
0100
0000
0000
0000
0010
0000
0010
0000
0010
0100
,  // measure 73
0010
0100
0010
0100
0010
0100
1000
0100
1000
0100
0010
0100
0010
0001
0010
0001
,  // measure 74
0010
0000
1000
0000
0000
0000
0100
0000
0000
0000
0010
0000
0000
0000
1000
0100
,  // measure 75
1000
0100
0010
0100
0010
0001
0010
0001
0010
0100
1000
0000
0000
0000
1000
0010
,  // measure 76
1000
0000
0000
0000
0000
0000
0100
0000
0000
0000
0010
0000
0010
0000
0010
0100
,  // measure 77
0010
0100
0010
0100
0010
0100
0010
0100
0010
0000
0000
0000
1000
0000
0000
0000
,  // measure 78
0000
0000
0100
0000
0000
0000
0010
0000
0000
0000
0001
0000
0000
0000
0010
0100
,  // measure 79
0010
0100
0010
0100
0010
0100
0010
0100
0010
0000
0000
0000
0000
0000
0100
0010
,  // measure 80
0100
0000
0000
0000
0000
0000
1000
0000
0000
0000
0100
0000
0100
0000
0010
0100
,  // measure 81
0010
0100
0010
0100
0010
0100
0010
0100
0020
0000
0000
0000
0000
0000
0000
0000
,  // measure 82
0130
1000
0100
0010
0001
0100
0010
0100
,  // measure 83
1000
0010
1000
0010
0100
0010
0001
0100
,  // measure 84
0001
1000
0100
1000
0010
0100
0010
0001
,  // measure 85
0100
0010
0100
0010
0001
0010
0001
0010
,  // measure 86
0100
0010
0100
1000
0100
1000
0100
1000
,  // measure 87
0100
0010
0100
0010
0100
0010
0001
0100
,  // measure 88
0001
0100
0001
0100
0010
0100
0010
0100
,  // measure 89
0010
1000
0010
1000
0010
1000
0010
1000
,  // measure 90
0001
1000
0001
1000
0001
1000
0100
0010
,  // measure 91
0001
0010
0100
1000
0010
0100
0010
1000
,  // measure 92
0001
1000
0010
1000
0010
1000
0010
1000
,  // measure 93
0010
1000
0001
1000
0001
1000
0001
1000
,  // measure 94
0100
0010
0001
0010
0100
1000
0010
0100
,  // measure 95
0010
1000
0001
0100
0010
1000
0010
1000
,  // measure 96
0001
1000
0001
1000
0001
1000
0001
1000
,  // measure 97
0001
1000
0001
1000
0001
1000
0001
1000
0001
0000
0000
0000
1000
0000
0010
0000
,  // measure 98
1000
0100
1000
0100
0010
0001
0010
0001
0100
0010
0100
0010
1000
0010
0000
0100
,  // measure 99
0010
0100
0000
0000
0020
0000
0030
0000
2000
0000
3000
0000
0100
0010
0100
0000
,  // measure 100
0010
1000
0010
1000
0100
1000
0100
0010
0002
0000
2003
0000
3002
0000
2003
0000
,  // measure 101
3000
0000
0100
0001
0100
0000
1000
0000
0110
0000
0000
0000
2002
0000
3003
0000
;
