#TITLE:Lowdown Depths;
#SUBTITLE:;
#ARTIST:Nintendo;
#TITLETRANSLIT:;
#SUBTITLETRANSLIT:;
#ARTISTTRANSLIT:;
#GENRE:;
#CREDIT:;
#BANNER:Lowdown Depths.png;
#BACKGROUND:Lowdown Depths-bg.png;
#LYRICSPATH:;
#CDTITLE:;
#MUSIC:Lowdown Depths.mp3;
#OFFSET:-1.2524;
#SAMPLESTART:10.887003;
#SAMPLELENGTH:12.000000;
#SELECTABLE:YES;
#BPMS:0.000000=149.999725
;
#STOPS:
;
#BGCHANGES:;
#KEYSOUNDS:;
#ATTACKS:;

//---------------dance-single - ----------------
#NOTES:
     dance-single:
     :
     Hard:
     6:
     0.393322,0.358345,0.352785,0.253085,0.092031,280.000000,46.000000,33.000000,0.000000,0.000000,0.000000,0.393322,0.358345,0.352785,0.253085,0.092031,280.000000,46.000000,33.000000,0.000000,0.000000,0.000000:
// measure 0
0000
0000
0000
0000
,  // measure 1
0000
0000
0000
0000
,  // measure 2
1000
0000
0000
0000
0001
0000
0000
0000
1000
0000
0000
1000
0000
0000
0000
0000
,  // measure 3
0010
0000
0010
0000
0010
0000
0100
0000
0001
0000
0000
0100
0000
0000
0000
0000
,  // measure 4
0001
0000
1000
0000
0001
0000
0000
0000
0100
0000
0000
0100
0000
0000
0000
0000
,  // measure 5
0010
0000
0010
0000
0010
0000
0100
0000
0001
0000
0000
0100
0000
0000
0000
0000
,  // measure 6
0000
1000
1000
1000
1000
1000
1000
1000
,  // measure 7
0001
0010
0000
0200
0000
0000
0300
0000
,  // measure 8
0010
0000
0000
1000
0000
0000
0002
0000
0000
0000
0000
0000
0003
0000
0000
0000
,  // measure 9
0100
0000
0000
0001
0000
0000
2000
0000
0000
0000
0000
0000
3000
0000
0000
0000
,  // measure 10
0000
0010
0010
0010
0010
0010
0010
0010
,  // measure 11
0010
0010
0000
0200
0000
0000
0300
0000
,  // measure 12
0001
0000
0000
1000
0000
0000
0020
0000
0000
0000
0000
0000
0030
0000
0000
0000
,  // measure 13
1000
0000
0000
0001
0000
0000
0200
0000
0000
0000
0000
0000
0300
0000
0000
0000
,  // measure 14
0001
0100
0101
0010
,  // measure 15
1010
0100
0101
0010
,  // measure 16
1000
0000
0000
1000
0000
0000
2000
0000
0000
0000
0000
0000
0000
0000
3000
0000
,  // measure 17
0010
0000
0000
0010
0000
0000
0020
0000
0000
0000
0000
0000
0030
0000
0000
0000
,  // measure 18
1000
1100
0010
0110
,  // measure 19
0001
0011
0100
0110
,  // measure 20
0001
0000
0000
0001
0000
0000
0002
0000
0000
0000
0000
0000
0003
0000
0000
0000
,  // measure 21
1000
0000
0000
1000
0000
0000
2000
0000
0000
0000
0000
0000
3000
0000
0000
0000
,  // measure 22
0000
0100
0100
0100
0100
0100
0100
0100
,  // measure 23
0100
0100
0000
0020
0000
0000
0030
0000
,  // measure 24
1000
0000
0000
0001
0000
0000
0200
0000
0000
0000
0000
0000
0300
0000
0000
0000
,  // measure 25
0001
0000
0000
1000
0000
0000
0020
0000
0000
0000
0000
0000
0000
0030
0000
0000
,  // measure 26
0000
1000
1000
1000
1000
1000
1000
1000
,  // measure 27
1000
0000
1000
0000
0000
0000
0002
0000
0000
0000
0000
0000
0000
0003
0000
0000
,  // measure 28
0010
0000
0000
0100
0000
0000
0020
0000
0000
0000
0000
0000
0030
0000
0000
0000
,  // measure 29
1000
0000
0000
0001
0000
0000
2000
0000
0000
0000
0000
0000
3000
0000
0000
0000
,  // measure 30
0010
0110
0001
1001
,  // measure 31
0010
0110
0001
1001
,  // measure 32
0100
0000
0000
0100
0000
0000
0200
0000
0000
0000
0000
0000
0300
0000
0000
0000
,  // measure 33
0010
0000
0000
0010
0000
0000
0020
0000
0000
0000
0000
0000
0030
0000
0000
0000
,  // measure 34
1000
1100
1000
1100
,  // measure 35
0010
0011
0010
0011
,  // measure 36
1000
0000
0000
1000
0000
0000
2000
0000
0000
0000
0000
0000
3000
0000
0000
0000
,  // measure 37
0001
0000
0000
0001
0000
0000
0002
0000
0000
0000
0000
0000
0000
0000
0003
0000
,  // measure 38
1010
1000
1001
0001
,  // measure 39
0101
0010
0110
0010
,  // measure 40
1010
1000
1001
0001
,  // measure 41
0101
0100
0110
0010
,  // measure 42
1010
0000
1001
0001
,  // measure 43
0011
0010
0110
0100
,  // measure 44
1100
1000
1001
0001
,  // measure 45
0011
0010
0110
0100
,  // measure 46
1100
0000
0000
0000
0000
0000
0001
0000
0001
0000
0000
1000
0000
0000
0010
0000
,  // measure 47
0100
0000
0000
0000
0000
0000
1000
0000
1000
0000
0000
0001
0000
0000
0100
0000
,  // measure 48
0020
0000
0000
0000
0000
0000
0000
0000
0000
0030
0000
0000
0001
0000
0000
0000
,  // measure 49
1000
0000
2000
0000
0000
0000
0000
0000
0000
0000
0000
3000
0000
0000
0000
0000
,  // measure 50
1001
0000
0110
0000
,  // measure 51
1001
0000
0000
0000
,  // measure 52
0110
0000
1001
0000
,  // measure 53
0110
0000
1001
0000
,  // measure 54
0220
0000
0000
0000
,  // measure 55
0000
0000
0330
0000
,  // measure 56
1000
0001
1000
0001
,  // measure 57
0100
0010
0100
0010
,  // measure 58
0100
0100
0100
0100
,  // measure 59
0100
0100
0100
0100
,  // measure 60
0010
0010
0010
0010
,  // measure 61
0010
0010
0010
0010
,  // measure 62
0001
1000
0001
1000
,  // measure 63
0001
1000
2000
0000
0000
0000
3000
0000
,  // measure 64
0100
0010
0100
0010
,  // measure 65
0100
0001
0002
0000
0000
0000
0003
0000
,  // measure 66
0001
1000
0001
1000
,  // measure 67
0001
0100
0200
0000
0000
0000
0000
0300
,  // measure 68
1000
0001
1000
0001
,  // measure 69
1000
0010
0020
0000
0000
0000
0000
0030
,  // measure 70
0100
0110
0001
0101
,  // measure 71
1000
0010
1000
0010
0100
0000
0001
0000
,  // measure 72
1001
1000
1010
0000
,  // measure 73
0100
0001
0100
0001
0010
0000
0000
0000
,  // measure 74
0000
0100
0100
0100
0100
0100
0100
0100
,  // measure 75
0100
0010
0000
0002
0000
0000
0003
0000
,  // measure 76
0100
0000
0000
0010
0000
0000
0220
0000
0000
0000
0000
0000
0330
0000
0000
0000
,  // measure 77
1000
0000
0000
0001
0000
0000
2002
0000
0000
0000
0000
0000
0000
0000
3003
0000
;

//---------------dance-single - ----------------
#NOTES:
     dance-single:
     :
     Medium:
     4:
     0.292527,0.238897,0.245416,0.237746,0.000000,204.000000,32.000000,31.000000,0.000000,0.000000,0.000000,0.292527,0.238897,0.245416,0.237746,0.000000,204.000000,32.000000,31.000000,0.000000,0.000000,0.000000:
0000
0000
0000
0000
,
0000
0000
0000
0000
,
1000
1000
0002
0003
,
0100
0100
0020
0030
,
1000
1000
0002
0003
,
0100
0100
0020
0030
,
0000
0001
0001
0001
,
0001
0000
0000
2000
0000
3000
0000
0000
,
0010
0000
0000
0200
0000
0000
0300
0000
,
0001
0000
0000
0020
0000
0000
0030
0000
,
0000
0001
0001
0001
,
0001
0000
0000
2000
0000
0000
3000
0000
,
0010
0000
0000
0200
0000
0000
0300
0000
,
0010
0000
0000
0002
0000
0000
0003
0000
,
1000
0010
0100
0001
,
1000
0010
0100
0001
,
0100
0000
1001
0000
,
0010
0000
1001
0000
,
0010
1000
0010
1000
,
0001
0100
0001
0100
,
0010
0000
0010
0000
2000
0000
0000
3000
,
0001
0000
0001
0000
0200
0000
0000
0300
,
0000
0010
0010
0010
,
0010
0000
0000
0200
0000
0000
0300
0000
,
0001
0000
0000
2000
0000
0000
3000
0000
,
0100
0000
0000
0002
0000
0000
0000
0003
,
0000
0010
0010
0010
,
0010
0000
0000
0200
0000
0000
0300
0000
,
0001
0000
0000
2000
0000
0000
3000
0000
,
0010
0000
0000
0200
0000
0000
0300
0000
,
1000
0010
0100
0001
,
1000
0010
0100
0001
,
0010
0000
0010
0000
0020
0000
0000
0030
,
1000
1000
2000
3000
,
0010
0001
0100
1000
,
0010
0001
0100
1000
,
0001
1000
0200
0300
,
0001
0000
0010
0000
0200
0000
0000
0300
,
0000
0000
1010
0000
,
0101
0000
1010
0000
,
0101
0000
0011
0000
,
1100
0000
0011
0000
,
0000
0000
1001
0000
,
0110
0000
1001
0000
,
0110
0000
1010
0000
,
0101
0000
1010
0000
,
0101
0000
0000
0000
0010
0000
0000
1000
,
1000
0000
0000
0000
0100
0000
0000
0001
,
0001
0000
1010
0000
,
0101
0000
0110
0000
,
1001
0000
0110
0000
,
1001
0000
0000
0000
,
1010
0000
0101
0000
,
0011
0000
1100
0000
,
0220
0000
0000
0000
,
0000
0000
0000
0330
,
0001
1000
0001
1000
,
0010
0100
0010
0100
,
0001
0001
0001
0001
,
1000
1000
1000
1000
,
0001
0001
0001
0001
,
1000
1000
1000
1000
,
0000
0010
0100
0010
,
0000
0100
0200
0000
0000
0000
0300
0000
,
0010
0100
0010
0100
,
0000
0010
0020
0000
0000
0000
0030
0000
,
0001
1000
0001
1000
,
0001
2000
0000
3000
,
0001
1000
0001
1000
,
0000
0001
0002
0000
0000
0000
0003
0000
,
1000
0001
1001
0000
,
0001
1000
1001
0000
,
0010
0100
0110
0000
,
0100
0010
0110
0000
,
0010
0010
0010
0010
,
1000
0000
0001
0000
0200
0000
0000
0300
,
0010
0000
0000
0200
0000
0000
0300
0000
,
0001
0000
0000
2000
0000
0000
0000
3000
;

//---------------dance-single - ----------------
#NOTES:
     dance-single:
     :
     Easy:
     3:
     0.193922,0.239280,0.030677,0.046015,0.015338,167.000000,4.000000,6.000000,0.000000,0.000000,0.000000,0.193922,0.239280,0.030677,0.046015,0.015338,167.000000,4.000000,6.000000,0.000000,0.000000,0.000000:
0000
0000
0000
0000
,
0000
0000
0000
0000
,
1000
0000
0001
0000
,
0100
0100
0100
0000
,
0010
0000
0010
0000
,
0001
0001
0001
0000
,
0000
1000
1000
1000
,
1000
0000
0000
0010
0000
0000
0000
0000
,
0100
0000
0000
0001
0000
0000
0000
0000
,
1000
0000
0000
0010
0000
0000
0000
0000
,
0000
0100
0100
0100
,
0100
0000
0000
0001
0000
0000
0000
0000
,
1000
0000
0000
0010
0000
0000
0000
0000
,
0100
0000
0000
0001
0000
0000
0000
0000
,
1000
0001
1000
0001
,
1000
0010
1000
0100
,
0001
0000
0000
0001
0000
0000
0001
0000
0000
0000
0000
0000
0000
0000
0000
0000
,
1000
0000
0000
1000
0000
0000
1000
0000
0000
0000
0000
0000
0000
0000
0000
0000
,
0010
0100
0010
0100
,
0001
1000
0001
1000
,
0010
0000
0000
0010
0000
0000
0010
0000
0000
0000
0000
0000
0000
0000
0000
0000
,
0100
0000
0000
0100
0000
0000
0100
0000
0000
0000
0000
0000
0000
0000
0000
0000
,
0000
0001
0001
0001
,
0001
0000
0000
1000
0000
0000
0000
0000
,
0010
0000
0000
0100
0000
0000
0000
0000
,
1000
0000
0000
0001
0000
0000
0000
0000
,
0000
1000
1000
1000
,
1000
0000
0000
0010
0000
0000
0000
0000
,
0100
0000
0000
0001
0000
0000
0000
0000
,
1000
0000
0000
0010
0000
0000
0000
0000
,
0100
0010
1000
0001
,
0100
0010
1000
0001
,
0100
0000
0010
0000
,
0100
0000
0010
0000
,
0010
1000
0001
0100
,
0010
1000
0001
0100
,
0001
0000
0001
0000
,
1000
0000
1000
0000
,
0000
0000
1000
0001
,
2000
0000
0000
0000
0000
3000
0010
0000
,
0100
0000
0002
0000
,
0000
0000
0000
0000
0000
0000
0000
0003
,
0000
0000
1000
0001
,
0200
0000
0000
0000
0000
0300
0000
0000
,
0001
1000
0020
0000
,
0000
0000
0000
0000
,
0030
0000
0100
0000
,
1001
0000
0010
0000
,
1001
0000
0000
0000
,
0100
0000
0000
0000
,
0001
0000
1000
0000
,
1001
0000
0000
0000
,
0100
0000
0010
0000
,
0100
0000
1001
0000
,
2000
0000
0000
0000
,
0000
0000
0000
0000
0000
0000
0000
3000
,
0000
0000
0100
0000
,
0001
0000
1000
0001
,
0010
0010
0010
0010
,
0000
0000
0000
0000
,
0100
0100
0100
0000
,
0000
0000
0000
0000
,
1000
0000
0001
0000
,
0000
1000
0000
0000
,
0001
0000
1000
0000
,
0000
0001
0000
0000
,
1000
0000
0001
0000
,
1000
0000
0000
0000
,
0001
0000
1000
0000
,
0001
0000
0000
0000
,
0100
0100
0100
0000
,
0010
0010
0010
0000
,
1000
1000
1000
0000
,
0001
0001
0001
0000
,
0000
0100
0100
0100
,
0100
0000
0000
0010
0000
0000
0000
0000
,
1000
0000
0000
0001
0000
0000
0000
0000
,
0100
0000
0000
0020
0000
0000
0000
0000
,
0030
0000
0000
0000
;

//---------------dance-single - Copied from----------------
#NOTES:
     dance-single:
     Copied from:
     Beginner:
     1:
     0.081075,0.118682,0.015338,0.023008,0.000000,69.000000,2.000000,3.000000,0.000000,0.000000,0.000000,0.081075,0.118682,0.015338,0.023008,0.000000,69.000000,2.000000,3.000000,0.000000,0.000000,0.000000:
0000
0000
0000
0000
,
0000
0000
0000
0000
,
1000
0000
0000
0000
,
0001
0000
0000
0000
,
1000
0000
0000
0000
,
0001
0000
0000
0000
,
0000
0000
0000
0000
,
0000
0000
0000
0010
0000
0000
0000
0000
,
0000
0000
0000
0100
0000
0000
0000
0000
,
0000
0000
0000
0010
0000
0000
0000
0000
,
0000
0000
0000
0000
,
0000
0000
0000
0100
0000
0000
0000
0000
,
0000
0000
0000
0010
0000
0000
0000
0000
,
0000
0000
0000
0100
0000
0000
0000
0000
,
1000
0000
0001
0000
,
1000
0000
0001
0000
,
0000
0000
1001
0000
,
0000
0000
0010
0000
,
0000
0000
1000
0000
,
0001
0000
1000
0000
,
0000
0000
0110
0000
,
0000
0000
0100
0000
,
0000
0000
0000
0000
,
0000
0000
0000
0010
0000
0000
0000
0000
,
0000
0000
0000
1000
0000
0000
0000
0000
,
0000
0000
0000
0001
0000
0000
0000
0000
,
0000
0000
0000
0000
,
0000
0000
0000
0100
0000
0000
0000
0000
,
0000
0000
0000
0001
0000
0000
0000
0000
,
0000
0000
0000
1000
0000
0000
0000
0000
,
0001
0000
1000
0000
,
0001
0000
1000
0000
,
0020
0000
0000
0000
,
0000
0000
0000
0030
,
0000
0000
1000
0000
,
0001
0000
1000
0000
,
0200
0000
0000
0000
,
0000
0000
0000
0000
0000
0300
0000
0000
,
0000
0000
0010
0000
,
0000
0000
0000
0000
,
0100
0000
0000
0000
,
0000
0000
0000
0000
,
0010
0000
0000
0000
,
0100
0000
0000
0000
,
0000
0000
0000
0000
,
0000
0000
0000
0000
,
0000
0000
0010
0000
,
0100
0000
0010
0000
,
0100
0000
0000
0000
,
0001
0000
0000
0000
,
1000
0000
0000
0000
,
0001
0000
0000
0000
,
0100
0000
0000
0000
,
0010
0000
0000
0000
,
2000
0000
0000
0000
,
0000
0000
0000
0000
,
3000
0000
0000
0000
,
0000
0000
0000
0000
,
0100
0000
0000
0000
,
0010
0000
0000
0000
,
1000
0000
0000
0000
,
0001
0000
0000
0000
,
0100
0000
0000
0000
,
0000
0000
0000
0000
,
0010
0000
0000
0000
,
0000
0000
0000
0000
,
0001
0000
0000
0000
,
0000
0000
0000
0000
,
1000
0000
0000
0000
,
0000
0000
0000
0000
,
0001
0000
0001
0000
,
1000
0000
1000
0000
,
0010
0000
0010
0000
,
0100
0000
0100
0000
,
0000
0000
0000
0000
,
0000
0000
0000
0001
0000
0000
0000
0000
,
0000
0000
0000
1000
0000
0000
0000
0000
,
0000
0000
0000
0100
0000
0000
0000
0000
;

//---------------dance-single - Copied from----------------
#NOTES:
     dance-single:
     Copied from:
     Challenge:
     7:
     0.446,0.508,0.307,0.291,0.249: // measure 1
0000
0000
0000
0000
,  // measure 2
0000
0000
0000
0000
,  // measure 3
1000
0000
0001
0000
1000
0000
0001
0000
0100
0000
0000
0100
0000
0000
0000
0000
,  // measure 4
0001
0000
1000
0000
0001
0000
1000
0000
0010
0000
0000
0010
0000
0000
0000
0000
,  // measure 5
1000
0000
0001
0000
1000
0000
0001
0000
0100
0000
0000
0100
0000
0000
0000
0000
,  // measure 6
0001
0000
1000
0000
0001
0000
1000
0000
0010
0000
0000
0010
0000
0000
0000
0000
,  // measure 7
0000
0100
0010
0100
0010
0100
0010
0100
,  // measure 8
0010
0000
0100
0000
0000
0000
0200
0000
0000
0000
0000
0000
0300
0000
0000
0100
,  // measure 9
0001
0000
0000
1000
0000
0000
0002
0000
0000
0000
0000
0000
0003
0000
0000
0001
,  // measure 10
0100
0000
0000
0010
0000
0000
2000
0000
0000
0000
0000
0000
0000
0000
3000
0000
,  // measure 11
0000
0010
0100
0010
0100
0010
0100
0010
,  // measure 12
0100
0000
0010
0000
0000
0000
0200
0000
0000
0000
0000
0000
0300
0000
0000
1000
,  // measure 13
0001
0000
0000
1000
0000
0000
0020
0000
0000
0000
0000
0000
0030
0000
0000
0010
,  // measure 14
1000
0000
0000
0001
0000
0000
0200
0000
0000
0000
0000
0000
0300
0000
0100
0001
,  // measure 15
1000
0110
0110
1001
,  // measure 16
0110
0110
1001
0110
,  // measure 17
0001
0000
0000
1000
0000
0000
0002
0000
0000
0000
0000
0000
0000
0003
0000
0000
,  // measure 18
1000
0000
0000
0001
0000
0000
2000
0000
0000
0000
0000
0000
0000
3000
0000
0010
,  // measure 19
0100
1001
0110
1001
,  // measure 20
1001
0110
1001
1001
,  // measure 21
0010
0000
0000
0100
0000
0000
0020
0000
0000
0000
0000
0000
0000
0030
0000
0000
,  // measure 22
0100
0000
0000
0010
0000
0000
0200
0000
0000
0000
0000
0000
0000
0300
0000
0000
,  // measure 23
0000
0010
1000
0010
1000
0010
1000
0010
,  // measure 24
1000
0000
0010
0000
0000
0000
0200
0000
0000
0000
0000
0000
0300
0000
0000
0100
,  // measure 25
0001
0000
0000
1000
0000
0000
0002
0000
0000
0000
0000
0000
0003
0000
0000
0001
,  // measure 26
1000
0000
0000
0001
0000
0000
2000
0000
0000
0000
0000
0000
0000
0000
3000
0000
,  // measure 27
0000
0001
0100
0001
0100
0001
0100
0001
,  // measure 28
0100
0000
0001
0000
0000
0000
2000
0000
0000
0000
0000
0000
3000
0000
0000
1000
,  // measure 29
0010
0000
0000
0100
0000
0000
0020
0000
0000
0000
0000
0000
0030
0000
0000
0010
,  // measure 30
0100
0000
0000
0010
0000
0000
0200
0000
0000
0000
0000
0000
0000
0300
0000
0000
,  // measure 31
1000
0001
0000
0000
1100
0000
0000
0000
0101
0000
0000
0000
0101
0000
0000
0000
,  // measure 32
1100
1100
0101
0101
,  // measure 33
0010
0000
0000
1000
0000
0000
0020
0000
0000
0000
0000
0000
0000
0030
0000
0000
,  // measure 34
0100
0000
0000
0001
0000
0000
0200
0000
0000
0000
0000
0000
0300
0000
0000
0001
,  // measure 35
1000
0011
1010
1010
,  // measure 36
0011
0011
1010
1010
,  // measure 37
0100
0000
0000
0001
0000
0000
0200
0000
0000
0000
0000
0000
0000
0300
0000
0000
,  // measure 38
0001
0000
0000
0100
0000
0000
0002
0000
0000
0000
0000
0000
0000
0000
0003
0000
,  // measure 39
0000
0000
0000
0000
0000
0000
1000
0000
1000
0000
0000
0010
0000
0000
0100
0000
,  // measure 40
0002
0000
0000
0000
0000
0003
1000
0001
,  // measure 41
1000
0000
0000
0001
0000
0000
2000
0000
0010
0000
0000
0000
0100
0000
0000
0000
,  // measure 42
0010
0100
0010
0100
,  // measure 43
3010
0000
0000
0000
0000
0000
0001
0000
0100
0000
0000
1000
0000
0000
0100
0000
,  // measure 44
0201
0000
0000
0000
0000
0301
0000
1000
,  // measure 45
0010
0000
0000
0100
0000
0000
0002
0000
0100
0000
0000
0000
0010
0000
0000
0000
,  // measure 46
0100
0010
0100
0010
,  // measure 47
0103
0000
0000
0000
0000
0000
1000
0000
0001
0000
0000
0100
0000
0000
0010
0000
,  // measure 48
0010
0000
0000
0000
0000
0000
1000
0000
0001
0000
0000
0100
0000
0000
0010
0000
,  // measure 49
0200
0000
0000
0310
,  // measure 50
0100
0020
0000
0000
0000
0000
1030
1000
,  // measure 51
1001
0010
0110
0001
,  // measure 52
1001
0000
0000
0000
0000
0000
0100
0100
,  // measure 53
0110
0001
1001
0010
,  // measure 54
0110
0001
1001
0100
,  // measure 55
0220
0000
0000
0000
,  // measure 56
0000
0000
0000
0000
,  // measure 57
0330
0000
1000
0001
,  // measure 58
1000
0001
1000
0001
,  // measure 59
0100
0000
0000
0100
0010
0000
0000
0100
0010
0000
0000
0100
0010
0000
0000
0100
,  // measure 60
0010
0000
0000
0100
0010
0000
0000
0100
0010
0000
0000
0100
0010
0000
0000
0010
,  // measure 61
0100
0000
0000
0010
0100
0000
0000
0010
0100
0000
0000
0010
0100
0000
0000
0010
,  // measure 62
0100
0000
0000
0010
0100
0000
0000
0010
0100
0000
0000
0010
0100
0000
0000
0000
,  // measure 63
1000
0001
0000
0000
0000
0000
0100
0000
0000
0000
0010
0000
0000
0000
1000
0000
,  // measure 64
0000
0000
0001
0000
0002
0000
0000
0000
0000
0000
0000
0000
0000
0003
0000
0000
,  // measure 65
1000
0001
0000
0000
0000
0000
0100
0000
0000
0000
0001
0000
0000
0000
0100
0000
,  // measure 66
0000
0000
1000
0000
2000
0000
0000
0000
0000
0000
0000
0000
0000
3000
0000
0000
,  // measure 67
0010
0100
0000
0000
0000
0000
0010
0000
0000
0000
0100
0000
0000
0000
0010
0000
,  // measure 68
0000
0000
0100
0000
0200
0000
0000
0000
0000
0000
0000
0000
0000
0300
0000
0000
,  // measure 69
0100
0010
0000
0000
0000
0000
0100
0000
0000
0000
0010
0000
0000
0000
0100
0000
,  // measure 70
0000
0010
0020
0000
0000
0000
0000
0030
,  // measure 71
1000
0000
0001
0000
1000
0000
0001
0000
0100
0000
0000
0100
0000
0000
0000
0000
,  // measure 72
0001
0000
1000
0000
0001
0000
1000
0000
0010
0000
0000
0010
0000
0000
0000
0000
,  // measure 73
1000
0000
0001
0000
1000
0000
0001
0000
0100
0000
0000
0100
0000
0000
0000
0000
,  // measure 74
0001
0000
1000
0000
0001
0000
1000
0000
0010
0000
0000
0010
0000
0000
0000
0000
,  // measure 75
0000
0100
0010
0100
0010
0100
0010
0100
,  // measure 76
0010
0000
0100
0000
0000
0000
0220
0000
0000
0000
0000
0000
0330
0000
0000
0001
,  // measure 77
0100
0000
0000
1000
0000
0000
2002
0000
0000
0000
0000
0000
3003
0000
0000
1000
,  // measure 78
0010
0000
0000
0001
0000
0000
2002
0000
0000
0000
0000
0000
0000
0000
3003
0000
;
