#TITLE:What Is Wrong With The World (Cross Edit);
#SUBTITLE:;
#ARTIST:SADA;
#TITLETRANSLIT:;
#SUBTITLETRANSLIT:;
#ARTISTTRANSLIT:;
#CREDIT:;
#BANNER:What Is Wrong With The World (Cross Edit).png;
#BACKGROUND:What Is Wrong With The World (Cross Edit)-bg.png;
#LYRICSPATH:;
#CDTITLE:;
#MUSIC:What Is Wrong With The World (Cross Edit).mp3;
#OFFSET:-0.057;
#SAMPLESTART:25.050;
#SAMPLELENGTH:12.000;
#SELECTABLE:YES;
#DISPLAYBPM:*;
#BPMS:0.000=172.000,63.000=343.999,77.000=172.000,142.000=86.000,178.000=172.000;
#STOPS:77.000=0.400
;
#BGCHANGES:;

//---------------dance-single - ----------------
#NOTES:
     dance-single:
     :
     Easy:
     5:
     0.382,0.541,0.263,0.100,0.000:
0000
0000
0000
0000
,
0000
0000
0000
0000
,
0000
0000
0000
0000
,
0000
0000
0000
0000
,
0000
1000
0010
0100
,
0001
0000
0010
1000
,
0001
0000
0100
0010
,
1000
0001
0100
1000
,
0001
0000
1000
0010
,
0100
0001
1000
0010
,
0100
0001
1000
0001
,
0100
0010
1000
0001
,
0100
0010
1000
0001
,
0001
0100
0010
1000
,
0010
0100
0001
1000
,
0010
1000
0001
0120
,
0000
0000
0000
0000
,
0000
0000
0000
0000
,
0000
0000
0000
0000
,
0000
1030
0001
1000
,
0010
0100
0010
1000
,
0001
0100
0100
0010
,
1000
0001
0100
0010
,
1000
0010
0010
0100
,
0001
1000
0010
0100
,
0001
1000
1000
0010
,
0100
0001
1000
0010
,
0100
0001
1000
0110
,
0001
1001
0010
0110
,
1000
1001
0100
1010
,
0001
0101
0010
1010
,
0100
1001
1000
1100
,
0010
0011
0100
1100
,
0010
0101
1000
1001
,
0001
0011
1000
1001
,
1000
0101
0020
0000
,
0000
0000
0000
0030
1000
0001
0100
0010
,
1000
0100
0001
0100
0001
1000
0010
1000
,
0010
0010
0010
0010
0100
0001
1000
0010
,
0100
0001
0001
1000
0010
0100
0010
0100
,
0001
1000
0001
1000
0010
0010
0100
0100
,
0001
0001
1000
1000
0010
0010
0100
0100
,
0001
1000
0001
1000
0010
0100
0010
1000
,
0010
0100
0001
1000
0010
0100
0001
1000
,
0010
0010
0010
0010
0100
0000
1000
0000
,
0001
0100
0010
0010
,
1000
0001
1000
0100
,
0010
0100
0001
1000
,
0010
0010
0100
0001
,
1000
0010
1010
0100
,
0001
1000
1001
0010
,
0100
0001
1001
1000
,
0010
1000
0102
0000
,
1000
0000
0103
0000
,
1000
0001
1000
0000
,
0120
0000
1000
0030
,
0100
0000
0001
1000
,
1020
0000
0000
0000
0100
0030
0000
0000
,
1000
0001
0100
0000
,
1002
0000
1003
0010
,
0100
1000
0001
0100
,
0010
0100
0021
0000
,
1000
0030
0000
0000
0100
0000
0000
0000
,
0001
1000
1020
0000
,
0100
0030
0000
0000
1000
0000
0001
0000
,
0100
0010
1200
0000
,
0010
0300
0000
0000
0001
0000
1000
0000
,
0010
0100
1020
0000
,
0100
0030
0000
0000
1000
0000
0001
0000
,
1000
0001
0210
0000
,
0000
0300
0000
0000
;

//---------------dance-single - Copied from----------------
#NOTES:
     dance-single:
     Copied from:
     Medium:
     8:
     0.486,0.540,0.208,0.163,0.154:
0000
0000
0000
0000
,
0000
0000
0000
0000
,
0000
0000
0000
0000
,
0000
0000
0000
0000
,
1000
0100
0010
0001
0010
1000
0010
0100
,
0001
0000
0000
0000
1000
0010
0100
0001
,
0001
0000
1000
0010
0100
0001
0100
0100
,
0010
1000
0010
0100
0001
0010
1000
0001
,
1000
0000
0000
0000
0010
0100
0010
1000
,
0001
0000
0100
0000
0010
0000
1000
0001
,
0100
0000
0010
0000
1000
0100
0001
1000
,
0010
0100
0001
0100
0010
1000
0010
0100
,
0100
0000
0001
0000
1000
0001
0100
0010
,
0010
0000
1000
0000
0001
0100
0010
0100
,
0001
0000
0010
0000
1000
0010
0100
0000
,
1000
0000
0000
0010
0000
0000
0001
0000
1001
0000
0000
0000
0210
0000
0000
0000
,
0000
0000
0000
0000
,
0000
0000
0000
0000
,
0000
0000
0000
0000
,
0000
0000
0000
0000
0301
0000
0000
0000
0010
1000
0000
0000
0010
0000
0000
0000
,
0100
0001
0000
0000
0100
0000
0000
0000
0010
1000
0000
0000
0010
0000
0000
0000
,
0100
0001
0000
0000
0100
0000
0000
0000
1000
0010
0000
0000
1000
0000
0000
0000
,
0001
0100
0000
0000
0001
0000
0000
0000
1000
0010
0000
0000
1000
0000
0000
0000
,
0100
0000
0000
0000
0001
1000
0001
0000
1000
0000
0000
0000
0010
0000
0000
1000
,
0010
0000
0000
0000
0010
0000
0000
1000
0010
0000
0000
0000
0010
0000
0000
0000
,
0010
0001
0000
0000
0010
0000
0000
0100
0010
0000
0000
0000
0010
0000
0000
0100
,
0010
0000
0000
0000
0010
0000
0000
0000
0010
1000
0000
0000
0010
0000
0000
0000
,
1000
0000
0001
0000
0100
0000
0010
0000
0000
1000
0000
0000
1200
0000
0000
0000
,
0000
0310
0000
0000
0012
0000
0000
0000
0000
0103
0000
0000
2100
0000
0000
0000
,
0000
3001
0000
0000
0201
0000
0000
0000
0000
1300
0000
0000
1200
0000
0000
0000
,
0000
0310
0000
0000
0012
0000
0000
0000
0000
0013
0000
0000
0210
0000
0000
0000
,
0000
0310
0000
0000
0010
1000
0001
1000
0000
0101
0000
0000
0101
0000
0000
0000
,
0000
1010
0000
0000
1010
0000
0000
0000
0000
0110
0000
0000
0110
0000
0000
0000
,
0000
1100
0000
0000
1100
0000
0000
0000
0000
0110
0000
0000
0110
0000
0000
0000
,
0000
0011
0000
0000
0011
0000
0000
0000
0000
1001
0000
0000
1001
0000
0000
0000
,
0100
0000
0000
0001
0000
0000
0010
0100
0020
0000
0000
0000
0000
0000
0000
0000
,
0000
0000
0000
0030
1000
0001
0100
0010
,
1000
0100
0001
0100
0001
1000
0010
1000
,
0010
0010
0010
0010
0100
0001
1000
0010
,
0100
0001
0001
1000
0010
0100
0010
0100
,
0001
1000
0001
1000
0010
0010
0100
0100
,
0001
0001
1000
1000
0010
0010
0100
0100
,
0001
1000
0001
1000
0010
0100
0010
1000
,
0010
0100
0001
1000
0010
0100
0001
1000
,
0010
0010
0010
0010
0100
0000
1000
0001
,
0100
0010
1000
0001
0100
0000
0010
1000
,
0010
0100
0001
1000
0001
0000
1000
0100
,
0001
0100
0010
1000
0001
0000
0100
0000
,
0010
0000
1000
0000
0001
0000
0100
0010
,
1000
0001
0100
0010
1000
0000
1000
0001
,
0100
0010
1000
0001
0100
0000
0001
1000
,
0010
0100
0001
1000
0001
1000
0010
0100
,
0010
0100
0100
0000
0002
0000
0000
0000
,
0000
1000
0000
1000
0000
0000
0003
0000
,
0000
0000
0000
0100
,
0010
2000
0001
0001
,
0001
0010
3001
0100
,
0010
0001
0002
1000
,
1000
0000
1000
0003
0100
0000
0010
0000
,
1000
0200
0001
0010
,
0001
0300
0000
0000
0001
0000
1000
0000
,
0010
0100
0000
0002
0000
0000
0000
0000
,
0000
0000
0000
0003
1000
0000
0010
0000
,
0100
0010
0000
2000
0000
0000
0001
0000
,
0010
0000
0001
0000
0001
3000
0100
0000
,
0010
1000
0002
0100
,
1000
0010
0103
1000
,
0010
0100
0001
1000
,
0010
0100
0002
0000
,
0000
0000
0000
2000
0000
0000
0000
0000
,
0000
3003
0000
0000
0000
0000
0000
0000
;

//---------------dance-single - Copied from----------------
#NOTES:
     dance-single:
     Copied from:
     Hard:
     11:
     0.840,1.000,0.688,0.263,0.797:
0000
0000
0000
0000
,
0000
0000
0000
0000
,
0000
0000
0000
0000
,
0000
0000
0000
0000
,
1001
0001
0010
0001
0100
1000
1010
0110
,
0101
0000
0010
0010
1000
0010
1100
0101
,
1001
0000
0001
0100
0010
1000
0100
0101
,
1000
0010
0001
1001
0100
0110
0010
1000
,
1001
0000
0000
0000
0001
0100
0001
1000
,
0001
1000
0100
0010
0100
1000
0001
0100
,
1001
0000
0001
0000
0010
0100
0001
0100
,
1000
0001
1000
0100
0001
1000
0001
0110
,
1100
0000
0001
0000
1000
0001
1000
0101
,
0110
0000
1000
0000
0001
0100
0001
1100
,
1001
0000
0010
0000
1000
0001
0100
0000
,
1010
0000
0000
0101
0000
0000
0010
0000
1010
0000
0000
0000
0201
0000
0000
0000
,
0000
0000
0000
0000
,
0000
0000
0000
0000
,
0000
0000
0000
0000
,
0000
0000
0000
0000
0301
0000
0000
0000
0010
1000
0000
1000
0010
0000
0000
0000
,
0100
0001
0000
0001
0100
0000
0000
0000
0010
1000
0000
1000
0010
0000
0000
0000
,
0100
0001
0000
0001
0100
0001
0100
0000
1000
0010
0000
0010
1000
0000
0000
0000
,
0001
0100
0000
0100
0001
0000
0000
0000
1000
0010
0000
0010
1000
0000
0000
0000
,
0010
0000
0001
0100
0001
1000
0010
0100
0001
0000
0100
0010
0000
0000
0000
0010
,
1000
0000
1000
0010
0000
0000
0000
0010
0100
0000
0100
0010
0000
0000
0000
0100
,
1000
0000
1000
0100
0000
0000
0000
0010
0001
0000
0001
0010
0000
0000
0000
0100
,
1000
0000
1000
0100
0000
0000
0000
0001
0100
0000
0100
0001
1000
0010
0100
0001
,
0100
0010
0001
1000
0100
0001
0010
0000
0000
1100
0000
0000
0201
0000
0000
0300
,
0000
1010
0000
0000
0012
0000
0000
0003
0000
1100
0000
0000
2020
0000
0000
3030
,
0000
0101
0000
0000
2001
0000
0000
3000
0000
1010
0000
0000
2200
0000
0000
3300
,
0000
0110
0000
0000
2002
0000
0000
3003
0000
0011
0000
0000
0012
0000
0000
0000
,
0000
0013
0000
0000
0010
1000
0001
1000
0000
0101
0000
0000
0202
0000
0303
0000
,
0000
1010
0000
0000
2020
0000
3030
0000
0000
0110
0000
0000
0220
0000
0330
0000
,
0000
1100
0000
0000
2200
0000
3300
0000
0000
0110
0000
0000
0220
0000
0330
0000
,
0000
0011
0000
0000
0022
0000
0033
0000
0000
1001
0010
0000
1000
0100
0010
0001
,
0100
0010
0100
0001
1000
0000
0010
0100
0020
0000
0000
0000
0000
0000
0000
0000
,
0000
0000
0000
0000
0000
0000
0000
0000
0000
0000
0000
0000
0030
0000
0000
0000
1001
0000
0000
0000
0110
0000
0000
0000
0100
0010
0100
0010
0100
0010
0100
0010
,
0100
0010
0100
0010
0100
0010
0100
0010
0000
0000
0000
0000
0100
0000
0000
0000
0001
0000
0000
0000
1000
0000
1000
0000
0100
0000
0100
0000
0001
0000
0001
0000
,
0010
0100
0010
0100
0010
0100
0010
0100
0010
0100
0010
0100
0010
0000
0000
0000
0100
0000
0000
0000
0001
0000
0000
0000
1000
0001
1000
0001
1000
0001
1000
0001
,
1000
0001
1000
0001
1000
0001
1000
0001
1000
0000
0000
0000
0100
0000
0000
0000
0010
0000
0000
0000
0100
0000
0100
0000
0010
0000
0010
0000
0100
0000
0100
0000
,
0001
1000
0001
1000
0001
1000
0001
1000
0001
1000
0001
1000
0001
0000
0000
0000
0010
0000
0000
0000
0110
0000
0000
0000
1000
0000
0000
0000
1001
0000
0000
0000
,
0010
0100
0010
0100
0010
0100
0010
0100
0010
0100
0010
0100
0010
0000
0000
0000
1000
0000
1000
0000
0100
0000
0100
0000
0010
0000
0010
0000
0001
0000
0000
0000
,
0001
1000
0001
1000
0001
1000
0001
1000
0001
1000
0001
1000
0001
0000
0000
0000
0010
0000
0000
0000
1010
0000
0000
0100
0001
0100
0001
0100
0001
0100
0001
0100
,
0001
0100
0001
0100
0001
0100
0001
0100
0001
0000
0000
0000
1000
0000
0000
0000
0110
0000
0000
0000
0001
0000
0001
0000
0100
0000
0100
0000
1000
0000
1000
0000
,
0010
0100
0010
0100
0010
0100
0010
0100
0010
0100
0010
0100
0010
0000
0000
0000
0010
0000
0000
0000
0000
0000
0000
0000
1000
0000
0000
0000
0001
0000
0000
0000
,
0100
0010
1000
1001
1010
0001
0010
1000
,
0010
0100
1001
1000
1001
0000
1000
0100
,
0001
0000
0100
0000
1010
0000
1000
0000
0001
0010
0001
0010
0001
0010
0001
0010
,
0001
0010
0001
0010
0001
0000
0000
0000
1000
0000
0000
0000
0100
0000
0010
0000
,
1000
0001
0110
0010
1010
0000
1000
0001
,
0100
0010
1100
0110
1001
0000
0001
1000
,
0010
0000
0001
0000
0101
0000
0001
0000
1000
0100
1000
0100
1000
0100
1000
0100
,
1000
0100
1000
0100
1000
0000
0000
0000
0011
0000
0000
0000
1000
0000
0010
0000
,
0100
0001
1000
0010
0110
0000
0001
1000
,
0001
0100
0010
1000
1001
0000
0010
1000
,
0001
0000
0100
0000
0010
0000
1000
0000
0001
0100
1000
0001
0010
1000
0001
0100
,
0001
1000
0100
0000
0001
0000
0100
0000
0101
0000
0000
0000
0010
0000
1000
0000
,
0010
0100
1001
0001
1001
0000
0010
0001
,
1000
0001
1010
1000
1010
0000
0001
1000
,
0010
0000
1000
0000
0001
0000
0100
0010
0100
0010
0100
0000
0001
1000
0001
1000
,
0001
0100
0001
0100
0001
0000
1000
0000
1010
0000
0000
0000
0100
0000
0010
0000
,
0100
0100
0000
0002
1000
0000
1000
0000
,
1000
0000
1000
0003
1000
0000
0010
0100
,
0010
1000
0001
2000
0010
0000
0010
0000
,
0010
0000
0010
0000
0010
3000
0100
0001
,
1000
0010
0100
0002
0100
0000
0100
0000
,
0100
0000
0100
0000
0103
0000
0010
1000
,
0010
0100
0001
1000
0000
0001
0000
0001
,
1000
0000
0010
0000
0001
0000
0100
0100
,
1000
0001
0000
2002
0000
0000
0000
0000
,
0000
3003
0000
0000
0000
0000
0000
0000
;

//---------------dance-single - Copied from----------------
#NOTES:
     dance-single:
     Copied from:
     Beginner:
     2:
     0.164,0.289,0.000,0.082,0.000:
0000
0000
0000
0000
,
0000
0000
0000
0000
,
0000
0000
0000
0000
,
0000
0000
0000
0000
,
0000
0000
1000
0000
,
0010
0000
0001
0000
,
0100
0000
0010
0000
,
1000
0000
0001
0000
,
0100
0000
0010
0000
,
0010
0000
1000
0000
,
1000
0000
0001
0000
,
0100
0000
0001
0000
,
0010
0000
1000
0000
,
1000
0000
0001
0000
,
0001
0000
0010
0000
,
1000
0000
1000
0002
,
0000
0000
0000
0000
,
0000
0000
0000
0000
,
0000
0000
0000
0000
,
0000
0003
0000
1000
,
0000
0010
0000
1000
,
0000
0001
0000
0100
,
0000
0001
0000
1000
,
0000
0010
0000
1000
,
0000
0010
0000
0100
,
0000
0001
0000
0010
,
0000
0100
0000
1000
,
0000
0001
0000
1000
,
0000
0010
0000
1000
,
0000
0001
0000
0100
,
0000
0001
0000
1000
,
0000
0010
0000
0001
,
0000
1000
0000
0010
,
0000
0100
0000
0001
,
0000
1000
0000
0001
,
0000
0000
0100
0002
0000
0000
0000
0000
,
0000
0000
0000
0003
0000
0000
2000
0000
,
0000
3000
0010
0000
,
0100
0100
0001
0000
,
2000
0000
0000
3000
0010
0000
0100
0000
,
0001
0001
0100
0000
,
1000
1000
0001
0010
,
2000
0000
0000
3000
0010
0000
0100
0000
,
0001
0001
1000
0010
,
0200
0000
0000
0300
0000
0000
0000
0000
,
1000
0000
0001
0000
,
0100
0000
0010
0000
,
1000
0000
0020
0000
,
0000
0030
0000
0000
,
0100
0000
0001
0000
,
1000
0000
0010
0000
,
0001
0000
0200
0000
,
0000
0300
0000
0000
,
1000
0000
0001
0000
,
0000
0000
0000
0000
,
0100
0000
0010
0000
,
0001
0000
0010
0000
,
1000
0000
0001
0000
,
0000
0000
0000
0000
,
0100
0000
0010
0000
,
0100
0000
0100
0000
,
0001
0000
1000
0000
,
0000
0000
0000
0000
,
0001
0000
1000
0000
,
0001
0000
0100
0000
,
0010
0000
0001
0000
,
0000
0000
0000
0000
,
1000
0000
0010
0000
,
0100
0000
0001
0000
,
1000
0020
0000
0000
,
0000
0000
0000
0000
0000
0000
0000
0030
;

//---------------dance-single - Copied from----------------
#NOTES:
     dance-single:
     Copied from:
     Challenge:
     13:
     0.891,1.000,0.996,0.281,0.910: // measure 1
0000
0000
0000
0000
,  // measure 2
0000
0000
0000
0000
,  // measure 3
0000
0000
0000
0000
,  // measure 4
0000
0000
0000
0000
,  // measure 5
1001
0001
0010
0001
0110
1000
1010
0110
,  // measure 6
0101
MMMM
0010
0110
1000
0010
1100
0101
,  // measure 7
1001
MMMM
0001
0100
0110
1000
0100
0101
,  // measure 8
1000
0010
0001
1001
0100
0110
0010
1000
,  // measure 9
1001
0000
0000
MMMM
0001
0110
0001
1010
,  // measure 10
0001
1010
0100
0010
0100
1001
0001
0100
,  // measure 11
1001
MMMM
0001
MMMM
0010
0100
0001
0100
,  // measure 12
1000
0000
0001
0100
1000
0100
0010
0000
0001
0010
1000
0010
0001
0000
0101
0000
,  // measure 13
1100
0000
0001
MMMM
1000
1001
1000
0101
,  // measure 14
0110
MMMM
1000
MMMM
0001
0100
0001
1100
,  // measure 15
1001
MMMM
0010
MMMM
1000
0001
0101
MMMM
,  // measure 16
1010
0000
0000
0101
0000
0000
0010
0000
1010
0000
MMMM
0000
0202
0000
0000
0000
,  // measure 17
0000
0000
0000
0000
,  // measure 18
0000
0000
0000
0000
,  // measure 19
0000
0000
0000
0000
,  // measure 20
0003
0000
0000
0000
0301
0000
0000
0000
0010
1000
0000
1000
0010
0000
MMMM
0000
,  // measure 21
0100
0001
0000
0001
0100
0000
MMMM
0000
0010
1000
0000
1000
0010
0000
MMMM
0000
,  // measure 22
0100
0001
0000
0001
0010
0100
1000
0000
0100
0010
0000
0010
0100
0000
MMMM
0000
,  // measure 23
0001
0100
0000
0100
0001
0000
MMMM
0000
1000
0010
0000
0010
1000
0000
MMMM
0000
,  // measure 24
0010
0000
0001
0100
0001
1000
0010
0100
0001
0000
0100
0010
0000
MMMM
0000
0010
,  // measure 25
1000
0000
1000
0010
0000
MMMM
0000
0010
0100
0000
0100
0010
0000
MMMM
0000
0100
,  // measure 26
1000
0000
1000
0100
0000
MMMM
0000
0010
0001
0000
0001
0010
0000
MMMM
0000
0100
,  // measure 27
1000
0000
1000
0100
0000
MMMM
0000
0001
0100
0000
0100
0001
1000
0010
0100
0001
,  // measure 28
0100
0010
0001
1000
0100
0001
0010
0000
0000
1100
0000
0000
0201
0300
0000
MMMM
,  // measure 29
0000
1010
0000
0000
0012
0003
0000
MMMM
0000
1100
0000
0000
2020
3030
0000
MMMM
,  // measure 30
0000
0101
0000
0000
2001
3000
0000
MMMM
0000
1010
0000
0000
2200
3300
0000
MMMM
,  // measure 31
0000
0110
0000
0000
2002
3003
0000
MMMM
0000
0011
0000
0000
0012
0000
0003
MMMM
,  // measure 32
0000
0010
0000
0000
0010
1000
0001
1000
0000
0101
0000
0000
2002
0000
3003
MMMM
,  // measure 33
0000
1010
0000
0000
2002
0000
3003
MMMM
0000
0110
0000
0000
0220
0000
0330
MMMM
,  // measure 34
0000
1100
0000
0000
2200
0000
3300
MMMM
0000
0110
0000
0000
0220
0000
0330
MMMM
,  // measure 35
0000
0011
0000
0000
0022
0000
0033
MMMM
0000
1001
0010
0000
1000
0100
0010
0001
,  // measure 36
0100
0010
0100
0001
1000
0000
0010
0100
0220
0000
0000
0000
0000
0000
0000
0000
,  // measure 37
0000
0000
0000
0000
0000
0000
0000
0000
0000
0000
0000
0000
0330
0000
0000
0000
1001
0000
0000
0000
0110
0000
0000
0000
0010
1000
0100
1000
0010
1000
0100
1000
,  // measure 38
0010
1000
0100
1000
0010
1000
0100
1000
0000
0000
0000
0000
0100
0000
0000
0000
0001
0000
0000
0000
1000
0000
1000
0000
0100
0000
0100
0000
0001
0000
0001
0000
,  // measure 39
0010
0100
0001
1000
0010
0100
0001
1000
0010
0100
0001
1000
0010
0000
0000
0000
0100
0000
MMMM
0000
0001
0000
0000
0000
1000
0001
0100
0010
1000
0001
0100
0010
,  // measure 40
1000
0001
0100
0010
1000
0001
0100
0010
1000
0000
0000
0000
0100
0000
MMMM
0000
0010
0000
0000
0000
0100
0000
0100
0000
0001
0000
0001
0000
0100
0000
0100
0000
,  // measure 41
0001
1000
0010
1000
0100
1000
0010
1000
0100
1000
0010
1000
0100
0000
0000
0000
1001
0000
0000
0000
0110
0000
0000
0000
1000
0000
0000
0000
1001
0000
0000
0000
,  // measure 42
0010
0100
0001
1000
0010
0100
0001
1000
0010
0100
0001
1000
0010
0000
0000
0000
1000
0000
1000
0000
0001
0000
0001
0000
0010
0000
0010
0000
0001
0000
0000
0000
,  // measure 43
0001
1000
0010
0100
0001
1000
0010
0100
0001
1000
0010
0100
0001
0000
0000
0000
0110
0000
0000
0000
1000
0000
0000
0001
0100
0010
1000
0001
0100
0010
1000
0001
,  // measure 44
0100
0010
1000
0001
0100
0010
1000
0001
0100
0000
0000
0000
1001
0000
0000
0000
0110
0000
0000
0000
0001
0000
0001
0000
0010
0000
0010
0000
0001
0000
0001
0000
,  // measure 45
1000
0100
1000
0010
1000
0100
1000
0010
1000
0100
1000
0010
1000
0000
0000
0000
1001
0000
0000
0000
MMMM
0000
0000
0000
1000
0000
0000
0000
0001
0000
0000
0000
,  // measure 46
0100
0010
1001
1001
1010
0001
0010
1000
,  // measure 47
0010
0100
1001
1100
1001
MMMM
1000
0100
,  // measure 48
0001
0000
0110
0000
1010
0000
1000
0000
0100
0010
0100
0001
0100
0010
0100
0001
,  // measure 49
0100
0010
0100
0001
0100
0000
MMMM
0000
1000
0000
MMMM
0000
0100
0000
0010
0000
,  // measure 50
1010
0001
0110
0010
1010
MMMM
1000
0001
,  // measure 51
0100
0010
1100
0110
1001
MMMM
0001
1000
,  // measure 52
0010
0000
0001
0000
0101
0000
0001
0000
1000
0100
1000
0001
1000
0100
1000
0001
,  // measure 53
1000
0100
1000
0001
1000
0000
MMMM
0000
0011
0000
0000
0000
1000
0000
0010
0000
,  // measure 54
0100
0001
1001
1010
0110
MMMM
0001
1000
,  // measure 55
0001
0100
0011
1010
1001
MMMM
0010
1000
,  // measure 56
0001
0000
0100
0000
0010
0000
1000
0000
0001
0100
1000
0001
0010
1000
0001
0100
,  // measure 57
0001
1000
0100
0000
1001
0000
0110
0000
0101
0000
MMMM
0000
0010
0000
1000
0000
,  // measure 58
0010
0100
1001
0101
1001
MMMM
0010
0001
,  // measure 59
1000
0001
1010
1001
1010
MMMM
0001
1000
,  // measure 60
0010
0000
1000
0000
0001
0000
0100
0010
0100
0001
0100
0000
0001
1000
0001
0100
,  // measure 61
0001
1000
0001
0100
0001
0000
1000
0000
1001
0000
MMMM
0000
1000
0000
0010
0000
,  // measure 62
1000
0110
MMMM
0002
1000
0000
0100
0000
,  // measure 63
1000
0000
0100
0003
1000
MMMM
0110
0100
,  // measure 64
0110
1000
0001
2000
0010
0000
0001
0000
,  // measure 65
0010
0000
0001
0000
0010
3000
0100
0001
,  // measure 66
1010
0010
0100
0002
1000
0000
0100
0000
,  // measure 67
1000
0000
0100
0000
1003
MMMM
0010
1000
,  // measure 68
0010
0100
0001
1001
MMMM
1001
0000
1001
,  // measure 69
1000
MMMM
0010
MMMM
0001
MMMM
0100
0110
,  // measure 70
1000
1001
MMMM
2002
0000
0000
0000
0000
,  // measure 71
0000
3003
0000
0000
0000
0000
0000
0000
;
