#TITLE:U Got Me Rocking;
#SUBTITLE:;
#ARTIST:MAX;
#TITLETRANSLIT:;
#SUBTITLETRANSLIT:;
#ARTISTTRANSLIT:;
#GENRE:;
#CREDIT:brunobg24;
#MENUCOLOR:;
#METERTYPE:DDR;
#BANNER:[Other Rhythm Games] - U Got Me Rocking.png;
#BACKGROUND:[Other Rhythm Games] - U Got Me Rocking-bg.png;
#LYRICSPATH:;
#CDTITLE:;
#MUSIC:[Other Rhythm Games] - U Got Me Rocking.mp3;
#OFFSET:-0.100;
#SAMPLESTART:67.630;
#SAMPLELENGTH:15.020;
#SELECTABLE:YES;
#LISTSORT:;
#BPMS:0.000=128.000;
#STOPS:;
#BGCHANGES:;
#ATTACKS:;

//---------------dance-single - ----------------
#NOTES:
     dance-single:
     :
     Hard:
     8:
     0.496,0.544,0.092,0.092,0.110:
0000
0000
0000
0000
,
0000
0000
0000
0000
,
0000
0000
0000
0000
,
0000
0000
0000
0000
,
1001
0000
0110
0000
0001
0010
0100
1000
,
0001
0010
0100
0010
0001
1000
0100
0010
,
0001
0000
0110
0000
1000
0100
0010
0001
,
1000
0100
0010
0100
1000
0001
0010
0100
,
1000
0000
1001
0000
1000
0100
0010
0100
,
1000
0001
0010
0100
1000
0001
0010
0100
,
0010
0001
1000
0010
1000
0001
0100
0002
,
0000
0000
0000
0000
0000
1000
0000
1000
0000
0000
1000
0000
0003
0000
0000
0000
,
1000
0100
0010
0100
1000
0001
1000
0000
,
0001
0000
0010
0000
0100
0000
0010
0000
0001
1000
0001
0000
0100
0000
0000
0000
,
0001
0010
1000
0010
0001
1000
0100
0000
,
1000
0100
0001
0100
1000
0001
0010
0000
,
0001
1000
0001
1000
0010
0100
0001
0010
,
0001
0010
0100
1000
0001
1000
0010
0010
,
1000
0100
0010
0001
0100
0000
0110
0000
,
1001
0000
0000
0000
,
1000
0100
0001
0100
1000
0010
0001
0010
,
1000
1000
0100
0100
0010
0010
0001
0001
,
0010
1000
0010
0001
0100
1000
0100
0001
,
1000
0000
1000
0000
0001
0000
1000
0000
0000
1000
0010
0000
0100
0000
0001
0000
,
0010
0001
0010
0100
1000
0100
0010
0001
,
0010
0010
0100
0100
1000
1000
0001
0001
,
1000
0010
0001
0010
0100
0001
1000
0010
,
2000
3200
0320
0031
,
2000
0000
0000
0000
,
3002
0000
0000
0000
,
0203
0000
0000
0000
0000
0000
0310
1000
,
0020
0000
0000
0000
0000
0000
0000
0000
1030
0000
0000
0001
0000
0000
1000
0000
,
0001
0000
1000
0010
0000
0010
0100
0001
,
1000
0000
0001
0100
0000
0100
0001
0010
,
0001
0000
1000
0010
0000
0010
1000
0100
,
0010
0000
0000
0000
0011
0000
0000
0001
1000
0000
0100
0000
0010
0000
0001
0000
,
0100
0010
1000
0100
0010
0100
1000
0001
,
0010
1000
0010
0001
0100
0010
1000
0001
,
1000
0100
0010
1000
0010
0001
0100
0001
,
0010
0100
0001
0100
1000
0001
0100
0001
,
1000
0100
0010
0100
1000
0001
0010
1000
,
0010
0001
1000
0010
1000
0010
0001
0010
,
0100
0001
0010
0001
1000
0100
0010
1000
,
0020
0000
0000
0000
0000
0001
0000
0001
0000
0000
0001
0000
0030
0000
0000
0000
,
0010
0001
1000
0100
0010
0100
1000
0001
,
0010
0100
0001
0100
0010
0001
1000
0010
,
1000
0100
0010
1000
0010
0100
1000
0001
,
0100
0001
0000
0001
1000
0000
1000
0010
0000
1000
0001
0000
1000
0000
0100
0000
,
0010
0001
0100
0001
0010
0100
0010
0001
,
1000
0001
0010
1000
0001
0100
1000
0010
,
0100
0001
0010
0001
1000
0100
0001
0100
,
1000
0001
0000
1000
0010
0000
0100
0001
0000
0100
0010
0000
1000
0001
1000
0001
,
1000
0000
1000
0000
1001
0000
0000
0000
0001
0000
0001
0000
0100
0010
0000
0000
,
1000
0000
0001
0000
1001
0000
0000
0000
0001
0100
0001
0100
0000
0000
0000
0000
,
0010
0000
0010
0000
0110
0000
0000
0000
1000
0000
0100
0000
1000
0001
0000
0000
,
1000
0000
0010
0000
0100
0001
0100
0000
0001
0000
0010
0001
2000
0000
0000
0000
,
0000
0000
3000
0000
;

//---------------dance-single - ----------------
#NOTES:
     dance-single:
     :
     Challenge:
     10:
     0.707,0.803,0.138,0.119,0.674: // measure 1
0000
0000
0000
0000
,  // measure 2
0000
0000
0000
0000
,  // measure 3
0000
0000
0000
0000
,  // measure 4
0011
0000
0000
0000
1100
0000
0000
1000
0010
0000
1000
0001
1000
0001
0100
0000
,  // measure 5
0001
0000
0010
0000
1000
0000
0010
0000
0001
0000
0100
0001
0000
1000
0001
0000
,  // measure 6
1000
0000
0100
0000
0010
0000
0100
0000
1000
0000
0001
0100
0001
0000
0010
0000
,  // measure 7
0001
0000
0100
0000
1000
0000
0100
0000
0001
0000
1000
0010
0000
1000
0001
0000
,  // measure 8
1000
0000
0100
0000
0010
0000
0001
0000
0100
0000
0010
1000
0010
0000
0100
0000
,  // measure 9
0001
0000
0010
0000
0100
0000
1000
0000
0001
0000
1000
0010
0000
0100
0001
0000
,  // measure 10
0010
0000
0001
0000
1000
0000
0100
0000
0010
0000
0100
1000
0100
0000
1000
0000
,  // measure 11
0010
0000
1000
0000
0001
0000
0100
0000
0001
0000
0010
0001
0000
1000
0100
0000
,  // measure 12
0020
0000
0000
0000
0000
0001
0000
0001
0000
0000
0001
0000
0031
0000
0000
0000
,  // measure 13
1001
0000
0001
0000
0100
0000
0001
0010
0100
0010
0001
0000
1000
0000
0100
0000
,  // measure 14
1000
0000
0001
0000
0100
0000
0001
0000
1000
0010
1000
0000
0001
0000
1000
0000
,  // measure 15
0100
0000
0010
0000
0001
0000
0010
0100
0010
0000
0001
0000
1000
0000
1000
0000
,  // measure 16
0001
0000
0010
0000
0001
0000
1000
0010
1000
0000
0001
0000
0100
0000
0001
0100
,  // measure 17
0001
0000
1000
0010
0000
1000
0001
0100
0001
0000
0100
0000
0010
0000
1000
0000
,  // measure 18
0001
0000
0001
0000
0010
0000
0010
0001
1000
0000
1000
0000
0100
0000
0100
0000
,  // measure 19
0010
0000
0001
0000
1000
0000
0001
1000
0001
0000
0100
0000
0110
0000
0010
0000
,  // measure 20
2002
0000
0000
0000
0000
0000
3003
0000
1000
0100
1000
0100
0010
0001
0010
0001
,  // measure 21
0100
0000
0100
0010
0000
0010
1000
0000
0001
0000
0010
0000
1000
0000
0010
0001
,  // measure 22
0010
0000
0001
0000
1000
0010
0000
0010
0100
0000
0001
0000
0010
0000
0100
0000
,  // measure 23
1000
0000
0001
0000
1000
0010
0000
0010
0100
0000
0001
0000
0010
0000
0100
0000
,  // measure 24
0010
0000
0001
0000
1001
0000
1000
0000
0001
0100
0001
0000
1010
0000
1100
0000
,  // measure 25
1000
0000
0010
0000
0100
0001
0000
0001
0010
0000
0100
0000
1000
0000
0010
0100
,  // measure 26
0010
0000
1000
0000
0001
0100
0000
0100
0010
0000
1000
0000
0100
0000
0010
0000
,  // measure 27
0001
0000
1000
0000
0001
0100
0000
0100
0010
0000
1000
0000
0010
0000
0001
0000
,  // measure 28
0020
2030
3200
0301
,  // measure 29
2000
0100
0010
0001
,  // measure 30
3002
0010
0100
1000
,  // measure 31
2003
0000
0100
0000
0010
0000
3100
1000
,  // measure 32
0020
0000
0000
0000
0001
0000
0000
0000
1030
0001
0000
0100
0001
0000
1000
0001
,  // measure 33
1000
0100
0010
0100
1000
0000
0001
0000
0010
0001
1000
0001
1000
0000
0010
0000
,  // measure 34
0100
0001
0010
0001
0100
0000
0001
0000
1000
0100
0001
0100
1000
0000
0010
0000
,  // measure 35
1000
0010
0001
0010
0100
0000
0001
0000
1000
0100
0010
0001
0010
0000
0100
0000
,  // measure 36
0110
0000
0000
0000
0011
0000
0000
0001
1000
0000
0100
0000
0010
0001
0010
0001
,  // measure 37
1000
0100
0001
0100
1000
0010
0001
0010
,  // measure 38
1000
0100
1000
0100
0010
0000
0001
0100
0000
0001
0010
0001
0010
0000
0001
0000
,  // measure 39
1000
0010
0001
0010
1000
0100
0001
0100
,  // measure 40
1000
0100
0010
0100
1000
0000
0001
0010
0100
0010
0001
1000
0001
0000
0100
0000
,  // measure 41
0001
0010
0001
0100
0010
1000
0100
1000
,  // measure 42
0001
0100
0010
0100
0001
0000
1000
0010
0000
1000
0001
1000
0001
0000
0100
0000
,  // measure 43
0001
0010
1000
0010
0001
0010
0100
1000
,  // measure 44
0020
0000
0000
0000
0000
0100
0000
0100
0000
0000
0100
0000
0130
0000
0000
0000
,  // measure 45
1000
0010
1000
0010
0100
0000
0001
0010
0001
0010
0100
1000
0100
1000
0001
1000
,  // measure 46
0001
0010
0001
0010
0100
0000
1000
0001
1000
0001
0100
0010
0100
0001
0100
0010
,  // measure 47
1000
0100
1000
0001
1000
0000
0001
0010
0001
0010
0100
1000
0100
1000
0001
1000
,  // measure 48
0001
0100
0000
0100
0010
0000
0010
1000
0000
1000
0100
0000
0010
0000
0001
1000
,  // measure 49
0001
0010
0001
0010
0100
0000
1000
0010
1000
0010
0100
0001
0100
0001
0010
0001
,  // measure 50
1000
0100
0001
0100
1000
0000
0001
0100
0001
0100
0010
1000
0010
1000
0100
0010
,  // measure 51
0001
1000
0100
1000
0001
0000
0010
0001
0010
0001
1000
0010
1000
0010
0100
0001
,  // measure 52
1000
0100
0000
0100
0010
0000
0010
0001
0000
0001
0100
0000
0010
1000
0001
1000
,  // measure 53
0001
0000
1001
0000
1000
0010
0000
0010
0100
0000
0001
0000
1001
0000
1000
0000
,  // measure 54
0001
0000
0101
0000
0100
0010
0000
0010
1000
0100
1000
0100
0000
0000
0000
0000
,  // measure 55
0010
0000
0011
0000
0001
1000
0000
1000
0010
0000
0100
0001
0100
0000
0010
0000
,  // measure 56
1000
0000
0100
1000
0100
1000
0100
0010
0000
0001
0100
0000
2002
0000
0000
0000
,  // measure 57
0000
0000
3003
0000
;

//---------------dance-single - ----------------
#NOTES:
     dance-single:
     :
     Medium:
     6:
     0.372,0.363,0.055,0.165,0.037:
0000
0000
0000
0000
,
0000
0000
0000
0000
,
0000
0000
0000
0000
,
0000
0000
0000
0000
,
1000
0000
0001
0000
1000
0010
0100
0001
,
0000
0100
0000
0001
0000
1000
0001
0000
,
0100
0000
0001
0000
1000
0010
0100
0001
,
0000
1000
0000
0001
0000
0100
0001
0000
,
1000
0000
0010
0000
1000
0100
0010
0100
,
0000
1000
0000
0001
0000
0100
0010
0000
,
1000
0001
1000
0001
0100
0010
0100
0020
,
0000
0000
0000
0000
0000
0100
0000
0100
0000
0000
0100
0000
0130
0000
0000
0000
,
1000
0001
1000
0000
0001
0100
0001
0000
,
1000
0010
0100
0000
0001
0100
0010
0000
,
0100
0001
0100
0000
0010
1000
0010
0000
,
1000
0100
0010
0000
0001
0010
0100
0000
,
1000
0100
1000
0000
0001
1000
0001
0000
,
0100
0001
0100
0000
0010
0100
0010
0000
,
1000
0001
1000
0000
0001
0100
0001
0000
,
2002
0000
0000
3003
,
1000
0000
0001
0000
0100
0010
0100
0000
,
0001
0000
0010
0000
0100
1000
0100
0000
,
0010
0000
0001
0000
1000
0100
1000
0000
,
0001
0000
0001
0000
0100
0010
0100
0000
,
0010
0000
1010
0000
1000
0100
1000
0000
,
0001
0000
0100
0000
0001
0010
0001
0000
,
1000
0000
1010
0000
0100
0001
0100
0000
,
2000
3002
0203
0310
,
2000
0000
0000
0000
,
3020
0000
0000
0000
,
0230
0000
0000
0000
0000
0000
0301
1000
,
0002
0000
1003
0110
,
2001
0000
0000
3020
0000
0000
1030
0001
,
0200
0000
0000
0302
0000
0000
0013
0100
,
2000
0000
0000
3002
0000
0000
1003
0010
,
0100
0000
0110
0000
0010
0100
0010
0100
,
0001
0000
0100
0000
0001
0100
0010
0100
,
0000
0001
0000
1000
0000
0100
0010
0000
,
0001
0000
0010
0000
0100
0010
0001
1000
,
0000
0010
0000
1000
0000
0001
0100
0000
,
0010
0000
1000
0000
0100
1000
0001
0100
,
0000
0001
0000
0010
0000
0100
1000
0000
,
0001
0100
0001
0100
0010
1000
0010
0200
,
0000
0000
0000
0000
0000
0010
0000
0010
0000
0000
0010
0000
0310
0000
0000
0000
,
1000
0000
0001
0000
1000
0010
0100
0000
,
0001
0000
0100
0000
0001
0010
0100
0000
,
0010
0000
0001
0000
1000
0010
0100
0000
,
0010
0000
0000
0010
0000
0000
0100
0000
0000
0100
0000
0000
0001
0000
1000
0000
,
0001
0000
0100
0000
0010
1000
0010
0000
,
1000
0000
0010
0000
0100
0001
0010
0000
,
0100
0000
1000
0000
0001
1000
0100
0010
,
0001
0000
0000
0001
0000
0000
1000
0000
0000
1000
0000
0000
0010
0000
0100
0000
,
0010
0010
1000
0000
1000
1000
0001
0000
,
0001
0001
0100
0000
0100
0010
0000
0000
,
0001
0001
1000
0100
0010
0001
1000
0010
,
0100
0100
0010
0000
1000
0001
2000
0000
,
0000
0000
3000
0000
;

//---------------dance-single - ----------------
#NOTES:
     dance-single:
     :
     Easy:
     3:
     0.265,0.311,0.083,0.083,0.000:
0000
0000
0000
0000
,
0000
0000
0000
0000
,
0000
0000
0000
0000
,
0000
0000
0000
0000
,
1000
0001
1000
0001
,
0100
0010
0100
0010
,
1000
0100
1000
0100
,
0010
0001
0010
0001
,
1000
0010
1000
0010
,
0100
0001
0100
0001
,
1000
0100
0010
0001
,
0000
0000
0000
1001
,
0001
1000
0100
0010
,
0100
1000
0001
0100
,
0010
0010
1000
0001
,
1000
1000
0001
0100
,
0001
0010
0001
0010
,
0100
1000
0010
1000
,
0100
0100
0010
0001
,
1001
0000
0000
0000
,
0100
0100
0010
0100
,
0010
0010
0100
0010
,
1000
1000
0001
1000
,
0001
0010
0100
1001
,
0010
0010
0100
0001
,
1000
1000
0001
1000
,
0100
0100
0010
0001
,
2000
3002
2003
3010
,
0020
0000
0000
0000
,
0230
0000
0000
0000
,
0302
0000
0000
0000
,
2003
0000
3200
0000
,
0310
0001
0000
0001
,
1000
0010
0000
0010
,
1000
0100
0000
0100
,
0010
0001
0100
0110
,
0010
1000
0010
1000
,
0001
0100
0001
0100
,
0010
1000
0010
1000
,
0100
0010
0100
0010
,
0001
1000
0001
1000
,
0100
1000
0100
1000
,
0100
0010
0100
0010
,
0000
0000
0000
1001
,
1000
1000
0001
0100
,
0010
0010
0100
0001
,
0100
0100
0010
1000
,
0001
0010
0100
1000
,
0010
0010
0100
0001
,
1000
1000
0001
0100
,
0010
0010
0100
0001
,
1000
1000
0001
0001
,
1000
1001
0001
0100
,
0010
0110
0100
0000
,
0001
1001
1000
0010
,
0100
0110
0010
2000
,
0000
0000
3000
0000
;

//---------------dance-single - ----------------
#NOTES:
     dance-single:
     :
     Beginner:
     1:
     0.124,0.155,0.000,0.046,0.000:
0000
0000
0000
0000
,
0000
0000
0000
0000
,
0000
0000
0000
0000
,
0000
0000
0000
0000
,
1000
0000
1000
0000
,
0001
0000
0001
0000
,
0100
0000
0100
0000
,
0010
0000
0010
0000
,
1000
0000
1000
0000
,
0100
0000
0100
0000
,
0010
0000
0010
0000
,
0000
0000
0000
0001
,
1000
0000
0000
0000
,
0010
0000
0000
0000
,
0100
0000
0000
0000
,
0001
0000
0000
0000
,
1000
0000
0000
0000
,
0010
0000
0000
0000
,
0100
0000
0000
0000
,
0001
0000
0000
0000
,
1000
0000
0000
0001
,
0001
0000
0000
0100
,
0100
0000
0000
0010
,
0010
0000
0000
0000
,
0100
0000
0000
0010
,
0010
0000
0000
1000
,
1000
0000
0000
0001
,
0001
0000
0000
0000
,
2000
0000
0000
0000
,
3002
0000
0000
0000
,
2003
0000
0000
0000
,
3002
0000
0003
1000
,
1000
0000
0001
0000
,
0001
0000
0100
0000
,
0100
0000
0010
0000
,
0010
0000
0100
0000
,
0001
0000
0001
0000
,
1000
0000
1000
0000
,
0010
0000
0010
0000
,
0100
0000
0100
0000
,
0001
0000
0001
0000
,
0010
0000
0010
0000
,
0100
0000
0100
0000
,
0000
0000
0000
1000
,
0001
0000
1000
0000
,
0001
0000
1000
0000
,
0010
0000
0100
0000
,
0010
0000
0100
0000
,
0001
0000
1000
0000
,
0001
0000
1000
0000
,
0001
0000
0100
0000
,
0001
0000
0100
0000
,
0010
0010
0000
0000
,
0100
0100
0000
0000
,
0001
0001
0000
0000
,
1000
1000
0000
0002
,
0000
0000
0003
0000
;
