#TITLE:U Got me Rocking;
#SUBTITLE:;
#ARTIST:MAX;
#TITLETRANSLIT:;
#SUBTITLETRANSLIT:;
#ARTISTTRANSLIT:;
#GENRE:;
#CREDIT:;
#BANNER:[Other Rhythm Games] - U Got me Rocking.png;
#BACKGROUND:[Other Rhythm Games] - U Got me Rocking-bg.png;
#LYRICSPATH:;
#CDTITLE:;
#MUSIC:[Other Rhythm Games] - U Got me Rocking .mp3;
#OFFSET:-5.900000;
#SAMPLESTART:7.759996;
#SAMPLELENGTH:12.000000;
#SELECTABLE:YES;
#BPMS:0.000000=128.000000
;
#STOPS:
;
#BGCHANGES:;
#KEYSOUNDS:;
#ATTACKS:;

//---------------dance-single - ----------------
#NOTES:
     dance-single:
     :
     Hard:
     7:
     0.454051,0.412636,0.174031,0.119074,0.119074,315.000000,19.000000,13.000000,0.000000,0.000000,0.000000,0.454051,0.412636,0.174031,0.119074,0.119074,315.000000,19.000000,13.000000,0.000000,0.000000,0.000000:
0101
0000
0000
0000
1010
0000
0000
1000
0000
0000
0001
0000
0010
0000
0001
0000
,
0100
0000
1001
0000
0001
0100
0010
0100
,
0000
0001
0010
0001
0000
1000
0001
0001
,
0100
0000
1010
0000
0010
0100
1000
0100
,
0000
0010
1000
0010
0000
0100
0010
0100
,
0001
0000
0011
0000
0010
0100
1000
0100
,
0000
1000
0001
0100
0000
0001
1000
0100
,
1000
0001
0010
0100
1000
0100
0001
0200
,
0000
0000
0000
0300
,
1000
0001
0100
0000
0001
1000
0001
0000
,
0001
1000
0010
0100
0010
1000
0100
0000
,
1000
0100
0010
0100
1000
0001
0100
0000
,
0001
0010
0100
0010
0001
1000
0010
0000
,
0000
0000
0100
0000
0000
0001
0000
0000
0010
0000
0100
0000
1000
0000
0001
0000
,
0100
0010
0100
0001
0010
0001
1000
0010
,
0000
0100
0001
0010
0100
0000
1010
0000
,
1001
0000
0000
0000
,
1000
0000
1000
0000
0000
0001
0000
0000
0100
0000
0100
0000
0010
0000
0000
0000
,
0100
0000
0100
0000
0000
0001
0000
0000
1000
0000
0001
0000
0010
0100
0000
0000
,
0010
0000
0010
0000
0000
0100
0000
0000
1000
0000
1000
0000
0001
0000
0000
0000
,
2010
0000
3001
0000
1000
0001
0011
0000
,
0010
0000
0010
0000
0000
0100
0000
0000
1000
0000
1000
0000
0100
0000
1000
0000
,
0010
0000
0010
0000
0000
0100
0000
0000
0010
0000
1000
0000
0001
0010
0000
0000
,
0100
0000
0100
0000
0000
1000
0000
0000
0100
0000
1000
0000
0010
0000
0100
0000
,
0001
1000
0000
1000
0000
0001
2000
3002
,
0203
1000
0010
0001
,
0320
1000
0100
0001
,
0230
0000
1000
0000
0010
0000
0301
0010
,
0200
0000
1000
0000
0010
0310
1001
0000
,
0000
0001
0010
0001
1000
0010
1000
0100
,
0000
1000
0001
0100
0001
1000
0001
0010
,
0100
0100
0100
0100
,
1100
0101
1100
0000
,
1001
0000
0101
0000
0001
0100
0001
0010
,
0000
0100
0010
0100
0000
0010
0100
0001
,
0100
0000
1100
0000
1000
0100
0001
0100
,
0000
0010
0001
0100
0000
0100
0010
1000
,
0001
0000
0101
0000
0001
1000
0100
0010
,
0000
0100
0010
0100
0000
0010
0001
0010
,
0000
0001
0010
0100
1000
0010
0100
0002
,
0000
0003
0000
0000
0000
0000
0201
0000
,
0310
0000
0000
1000
0000
0000
0001
0000
0010
0000
0100
0000
0010
0000
0001
0000
,
1000
0000
0000
0010
0000
0000
0100
0000
0001
0000
0010
0000
0100
0000
1000
0000
,
0001
0000
0000
0010
0000
0000
0001
0000
0100
0000
0001
0000
1000
0000
0100
0000
,
0010
0000
0000
0100
0000
0000
1000
0000
0000
0010
0000
0000
0100
0000
0001
0000
,
1000
0000
0000
0010
0000
0000
0100
0000
0001
0000
1000
0000
0100
0000
1000
0000
,
0001
0000
0000
0010
0000
0000
0100
0000
0010
0000
0001
0000
0010
0000
1000
0000
,
0010
0000
0000
0100
0000
0000
1000
0000
0100
0000
0010
0000
0001
0000
0100
0000
,
0010
1000
0000
1000
0010
0000
0010
1000
0000
1000
0010
0000
0100
0000
0001
0000
,
0010
0000
0010
0000
0000
0100
0000
0000
1000
0000
1000
0000
0001
0000
0100
0000
,
0010
0000
0010
0000
0000
0100
0000
0000
0010
0000
1000
0000
0002
0000
0000
0000
,
0103
0000
0100
0000
0000
0010
0000
0000
0100
0000
0100
0000
0001
0000
0010
0000
,
0100
0000
0100
0000
0000
1000
0000
0000
0001
0000
1000
0000
0220
0000
0000
0000
,
0330
0000
0000
0000
;

//---------------dance-single - ----------------
#NOTES:
     dance-single:
     :
     Easy:
     2:
     0.181882,0.217424,0.064117,0.064117,0.000000,125.000000,7.000000,7.000000,0.000000,0.000000,0.000000,0.181882,0.217424,0.064117,0.064117,0.000000,125.000000,7.000000,7.000000,0.000000,0.000000,0.000000:
1001
0000
0110
0000
,
1001
1000
0001
0100
,
0001
0000
0000
0000
,
0001
1000
0010
1000
,
0100
0000
0000
0000
,
1000
0010
0100
0001
,
1000
1000
0001
0000
,
0100
0001
0010
0100
,
0110
0000
0000
0000
,
0001
0000
1000
0000
,
0001
1000
0010
0000
,
0100
0000
0001
0000
,
1000
1000
0001
0001
,
0000
0100
0000
0010
,
0100
0001
0000
1000
,
0000
0001
1000
0100
,
1001
0000
0000
0000
,
1000
0000
1000
0000
,
0001
0000
0001
0000
,
0100
0000
0100
0000
,
0010
0000
0000
0000
,
0100
0000
0001
0000
,
1000
0000
0100
1000
,
0010
0000
0100
0000
,
0002
0000
0000
0000
,
2003
0000
0000
0000
,
3020
0000
0000
0000
,
0230
0000
0000
0000
,
0302
0000
2003
0000
,
3100
1000
0010
0100
,
0000
0100
0001
0010
,
0100
0100
0100
0100
,
0100
0100
0100
0000
,
0010
0000
0001
0000
,
1000
0001
1000
0000
,
0010
0000
0100
0000
,
0001
0100
0001
0000
,
1000
0000
0100
0000
,
0010
0100
0010
0000
,
0100
0000
1000
0000
,
1001
0000
0000
0000
,
0001
0000
1000
0000
,
0001
0000
0010
0100
,
0010
0000
0100
0000
,
1000
0000
0001
0000
,
0100
0000
0001
0100
,
0001
0000
1000
0100
,
0010
0000
0100
0000
,
1000
0000
0001
0000
,
0100
0000
0010
0000
,
0100
0000
0001
2000
,
3100
0000
1000
0000
,
0010
0000
0100
1001
;

//---------------dance-single - ----------------
#NOTES:
     dance-single:
     :
     Medium:
     5:
     0.357221,0.364091,0.174031,0.146552,0.000000,238.000000,19.000000,16.000000,0.000000,0.000000,0.000000,0.357221,0.364091,0.174031,0.146552,0.000000,238.000000,19.000000,16.000000,0.000000,0.000000,0.000000:
1001
0000
0110
0000
0100
0010
1000
0000
,
0010
0000
0100
0000
0001
0000
1000
0100
,
1000
0000
0100
0000
1000
0000
0010
0100
,
0010
0000
1000
0000
0001
0100
0001
0000
,
1000
0000
0100
0000
1000
0010
0100
0000
,
0001
0000
1000
0000
0100
0010
0001
0000
,
0010
0000
0100
0000
0010
0001
0010
0000
,
0000
0001
0010
0100
1000
0100
0010
0001
,
0000
0000
0000
1001
,
0001
0000
0100
0000
0010
0100
0010
0000
,
1000
0000
0100
0000
0010
0001
0010
0000
,
0001
0000
0100
0000
0001
0010
0001
0000
,
0010
0000
0100
0000
1000
0100
0100
0000
,
1000
0000
0010
0000
0100
0010
0100
0010
,
1000
0000
0001
0000
0010
0100
0010
0100
,
0000
0010
0001
1000
0001
0000
1001
0000
,
0110
0000
0000
0000
,
0001
0000
0100
0000
0001
0100
0001
0000
,
0100
0000
0010
0000
0100
0010
0100
0000
,
0010
0000
1000
0000
0100
0010
0100
0000
,
2100
0000
3100
0000
0100
0010
0011
0000
,
0001
0000
1000
0000
0010
1000
0010
0000
,
0100
0000
0001
0000
0010
0100
0010
0000
,
0001
0000
1000
0000
0100
1000
0100
0000
,
2000
0000
0002
3003
,
0002
0000
0000
0000
,
0203
0000
0000
0000
,
0302
0000
0000
0000
0000
0000
1003
0100
,
0020
0000
0230
2300
,
3010
0000
0100
0000
0001
1000
0001
1000
,
0000
0000
0001
0000
0100
0010
1000
0010
,
0100
0100
0100
0100
,
0100
0100
0100
0000
,
0010
1000
0001
0010
,
0001
0000
1000
0000
0010
0000
0100
0001
,
0010
0100
0010
0001
,
0010
0000
1000
0000
0010
0100
1000
0000
,
0100
0000
1000
0000
0010
0001
0100
0000
,
0010
0000
1000
0000
0001
0010
1000
0000
,
0000
1000
0010
0001
0100
0001
1000
0001
,
0000
0000
0000
1001
,
0001
0000
1000
0000
0100
1000
0100
0000
,
1000
0000
0010
0000
0100
0001
0100
0000
,
0001
0000
1000
0000
0010
1000
0010
0000
,
0110
0010
0110
0110
,
0001
0000
0100
0000
0010
1000
0100
0000
,
1000
0000
0010
0000
0100
0001
0010
0000
,
0100
0000
1000
0000
0100
1000
0010
0000
,
1010
0011
1010
0011
,
1002
0000
0103
0000
0001
0100
0010
0000
,
2010
0000
3100
0000
1000
1000
0200
0000
,
2300
0000
3010
0000
0100
0010
1000
0000
,
0201
0000
0301
0000
0010
0100
2002
0000
,
3003
0000
0000
0000
;

//---------------dance-single - ----------------
#NOTES:
     dance-single:
     :
     Challenge:
     9:
     0.671262,0.728182,0.183190,0.265626,0.512933,464.000000,20.000000,29.000000,0.000000,0.000000,0.000000,0.671262,0.728182,0.183190,0.265626,0.512933,464.000000,20.000000,29.000000,0.000000,0.000000,0.000000:
1010
0000
0000
0000
0011
0000
0000
0010
0100
0000
1000
0000
0001
0000
0100
0000
,
0010
1000
0100
0001
0100
0010
0001
0001
,
0100
0000
0010
0000
0001
0000
0010
0000
0100
0001
0010
0000
0200
0000
0000
0000
,
1300
0100
0001
0100
0010
0001
0100
1000
,
0100
0000
0010
0000
1000
0000
0001
0000
0010
0100
1000
0000
0020
0000
0000
0000
,
0130
0000
0010
0000
1000
0000
0100
0000
0010
0001
0000
0010
0001
0000
0100
0000
,
0010
0000
1000
0000
0100
0000
0010
0000
0100
1000
0000
0100
1000
0000
0010
0000
,
0100
0010
1000
0100
0010
0001
1000
0002
,
0000
0000
0000
1003
,
0001
0000
0100
0000
0110
0000
0000
0100
0010
0100
0001
0000
1000
0000
0000
0000
,
0100
0000
1000
0010
0100
0000
0010
0000
0100
0010
0100
0000
0001
0000
0000
0000
,
1000
0010
1000
0001
0010
0001
1000
0002
,
1003
0001
0100
0001
1000
0100
0010
0200
,
1300
0000
0100
0010
0000
0010
0001
0000
0101
0000
0001
0000
0010
0000
0010
0000
,
0100
1000
0100
0001
0100
0010
0001
0001
,
0000
0000
0001
1000
0100
0000
1000
0000
1010
0000
0000
0000
0101
0000
0000
0000
,
0001
0100
0001
1000
0001
0000
0010
0000
,
0100
0000
0100
1000
0000
1000
0000
1000
0001
0000
1000
0000
0010
0000
0100
0001
,
0100
0000
0100
0010
0000
0010
0000
0010
0100
0000
0001
0000
1000
0010
0000
0000
,
0100
0000
0100
0001
0000
0001
0000
0001
1000
0000
0100
0000
0010
0000
0000
0000
,
0100
0000
0000
0000
1001
0000
0001
0100
0010
0000
1010
0000
0001
0020
0000
0000
,
0130
0000
0100
1000
0000
1000
0000
1000
0001
0000
1000
0000
0010
0000
0100
0001
,
0010
0000
0100
0010
0000
0010
0000
0010
0100
0000
1000
0000
0010
0100
0000
0000
,
0010
0000
0100
0010
0000
0010
0000
0010
0100
0000
0010
0000
1000
0000
0001
1000
,
0100
1000
0000
1000
0000
0010
0200
0320
,
1030
0100
1000
0100
1000
0100
0010
0000
,
0000
0001
0010
0001
0010
0001
0100
0000
,
0000
0010
0001
0100
1000
0100
0010
0000
,
0100
0010
0110
1001
0010
0100
2002
0000
,
3003
0001
0010
1000
0010
0100
0110
0110
,
0000
0100
1000
0100
0001
0100
0110
0110
,
0100
0100
0100
0100
,
1100
0101
1100
1001
,
0001
0000
0100
0000
0010
0000
1000
0000
0100
0000
0010
0100
0010
0000
0100
0000
,
0010
0000
0001
0000
0100
0000
0010
0000
1000
0000
0001
0010
0001
0000
0100
0000
,
0010
0000
0001
0000
0100
0000
0010
0000
1000
0000
0010
0100
0010
0000
0100
0000
,
0001
0000
1000
0000
0100
0000
1000
0000
0010
0000
0100
0002
0020
0003
0030
0000
,
0100
0000
1000
0000
0010
0000
0100
0001
0100
0001
0100
0000
0010
0000
0100
0000
,
1000
0000
0010
0000
0100
0000
0001
1000
0001
1000
0001
1000
0100
0000
0010
0000
,
0000
0010
0100
1000
0010
0001
0100
0020
,
0000
0000
0000
0000
0000
0000
0000
0000
0000
0000
0000
0030
1001
0000
0000
0000
,
0001
0100
0001
1000
0010
0000
1000
0010
0100
0010
0100
0001
1000
0100
1000
0001
,
1000
0100
1000
0001
0010
0000
0100
1000
0010
0100
0001
0010
0001
0100
0010
1000
,
0100
0010
0100
1000
0001
0000
0100
0001
0010
0100
0010
0001
0100
0010
1000
0100
,
2000
0100
3000
0020
0001
0030
0002
0100
0003
0020
1000
0030
0001
0000
1000
0000
,
0100
1000
0001
0100
0001
0000
0001
1000
0100
0010
0100
1000
0001
0100
0001
1000
,
0100
1000
0001
1000
0100
0000
1000
0100
0010
0100
1000
0001
0100
0001
0010
0100
,
1000
0100
0010
0100
1000
0000
0001
0100
0010
0100
0001
1000
0001
0100
0010
1000
,
0001
0001
0000
0100
0100
0000
0010
0010
0000
0100
0100
0000
0010
0000
1000
0000
,
0001
0000
1000
0000
1000
0001
0200
0302
0103
0000
0010
0000
1000
0000
0020
1030
,
0010
0000
0010
0000
0010
0100
0002
0203
0310
1000
0010
1000
0002
0000
0000
0000
,
1003
0000
1000
0000
1000
0001
0200
0302
0103
0000
0010
0000
1000
0000
0200
0310
,
0001
0000
0010
0100
1000
0000
2000
3002
1003
0100
0010
0001
0200
0000
0000
0000
,
0300
0000
0000
0000
;

//---------------dance-single - ----------------
#NOTES:
     dance-single:
     :
     Beginner:
     1:
     0.096829,0.096633,0.064117,0.000000,0.000000,67.000000,7.000000,0.000000,0.000000,0.000000,0.000000,0.096829,0.096633,0.064117,0.000000,0.000000,67.000000,7.000000,0.000000,0.000000,0.000000,0.000000:
// measure 0
1001
0000
0000
0000
,  // measure 1
0010
0000
0000
0000
,  // measure 2
0100
0000
0000
0000
,  // measure 3
0010
0000
0000
0000
,  // measure 4
1000
0000
0000
0000
,  // measure 5
0001
0000
0000
0000
,  // measure 6
0001
0000
0000
0000
,  // measure 7
1000
0000
0001
0000
,  // measure 8
1001
0000
0000
0000
,  // measure 9
0010
0000
0000
0000
,  // measure 10
0100
0000
0100
0000
,  // measure 11
0001
0000
0000
0000
,  // measure 12
1000
0000
1000
0000
,  // measure 13
0001
0000
0000
0000
,  // measure 14
1000
0000
1000
0000
,  // measure 15
0010
0000
0000
0000
,  // measure 16
0110
0000
0000
0000
,  // measure 17
0100
0000
0000
0000
,  // measure 18
0100
0000
0000
0000
,  // measure 19
0100
0000
0000
0000
,  // measure 20
1001
0000
0000
0000
,  // measure 21
0010
0000
0000
0000
,  // measure 22
0010
0000
0000
0000
,  // measure 23
0010
0000
0000
0000
,  // measure 24
1001
0000
0000
0000
,  // measure 25
0001
0000
0000
0000
,  // measure 26
0100
0000
0000
0000
,  // measure 27
1000
0000
0000
0000
,  // measure 28
0100
0000
0010
0000
,  // measure 29
1000
0000
0000
0000
,  // measure 30
0001
0000
0000
0000
,  // measure 31
0100
0000
0000
0000
,  // measure 32
0100
0100
0100
0000
,  // measure 33
0010
0000
0000
0000
,  // measure 34
0100
0000
0000
0000
,  // measure 35
0001
0000
0000
0000
,  // measure 36
0001
0000
0000
0000
,  // measure 37
1000
0000
0000
0000
,  // measure 38
1000
0000
0000
0000
,  // measure 39
0010
0000
0100
0000
,  // measure 40
1001
0000
0000
0000
,  // measure 41
0010
0000
0000
0000
,  // measure 42
0100
0000
0000
0000
,  // measure 43
0001
0000
0000
0000
,  // measure 44
1000
0000
1000
0000
,  // measure 45
1000
0000
0000
0000
,  // measure 46
0001
0000
0000
0000
,  // measure 47
0100
0000
0000
0000
,  // measure 48
0010
0000
0010
0000
,  // measure 49
0010
0000
0000
0000
,  // measure 50
0100
0000
0000
0001
,  // measure 51
0001
0000
0000
1000
,  // measure 52
0000
0001
1000
1001
;
