#TITLE:I Think I'm Paranoid;
#SUBTITLE:;
#ARTIST:Garbage;
#TITLETRANSLIT:;
#SUBTITLETRANSLIT:;
#ARTISTTRANSLIT:;
#CREDIT:;
#BANNER:[Other Rhythm Games] I Think I'm Paranoid.png;
#BACKGROUND:[Other Rhythm Games] I Think I'm Paranoid-bg.png;
#LYRICSPATH:;
#CDTITLE:cd.png;
#MUSIC:[Other Rhythm Games] I Think I'm Paranoid.ogg;
#OFFSET:-0.320;
#SAMPLESTART:44.630;
#SAMPLELENGTH:12.000;
#SELECTABLE:YES;
#BPMS:0.000=113.720;
#STOPS:;
#BGCHANGES:;

//---------------dance-single - ----------------
#NOTES:
     dance-single:
     :
     Hard:
     7:
     0.454,0.503,0.527,0.389,0.000: // measure 1
0000
0000
0000
0000
,  // measure 2
0000
0000
0000
0000
,  // measure 3
0000
0000
0000
0000
,  // measure 4
0000
0000
0000
0000
,  // measure 5
1000
0010
1010
1001
,  // measure 6
1000
0010
0100
0001
2000
0000
3001
0000
,  // measure 7
0010
0000
0100
0000
0110
0000
0100
0001
,  // measure 8
1000
0010
0100
0001
0200
0000
0310
0000
,  // measure 9
0020
0000
1000
0000
0031
0000
1000
0001
,  // measure 10
0100
0001
0010
0001
0100
0000
1001
0000
,  // measure 11
0002
0000
0010
0000
0013
0000
0010
0001
,  // measure 12
0100
0010
1000
0100
0020
0000
0031
0000
,  // measure 13
2001
0000
3010
0010
1020
0000
0130
0100
,  // measure 14
0101
0101
1010
1010
,  // measure 15
0210
0000
0310
0010
0210
0000
0301
0001
,  // measure 16
2001
0000
3010
0000
0002
0100
0103
0100
,  // measure 17
0102
0000
1003
1000
1020
0000
0130
0100
,  // measure 18
0201
0000
0301
0001
0021
0000
0130
0100
,  // measure 19
0120
0000
0130
0100
2100
0000
3001
0001
,  // measure 20
0002
0203
0320
0230
,  // measure 21
0301
0001
1000
1000
0010
0010
0100
0100
,  // measure 22
0110
0110
1001
1001
,  // measure 23
1000
0001
1000
0001
2000
0000
3001
0000
,  // measure 24
1001
0110
1001
0110
,  // measure 25
2002
0003
0001
3001
,  // measure 26
0011
0011
1100
1100
,  // measure 27
0100
0010
0100
0010
0200
0000
0310
0000
,  // measure 28
0110
1001
0110
1001
,  // measure 29
0220
0000
0000
0330
,  // measure 30
0010
0010
0010
0010
0100
0100
0100
0100
,  // measure 31
0201
0000
0301
0001
1020
0000
1030
1000
,  // measure 32
1001
0001
0100
0010
0001
0100
0001
1000
,  // measure 33
0002
0000
1000
0100
1003
0000
0100
0001
,  // measure 34
0100
0110
1010
0101
,  // measure 35
1020
0000
1030
1000
0201
0000
0301
0001
,  // measure 36
1001
1000
0010
0100
1000
0010
1000
0001
,  // measure 37
2000
0000
0100
0100
3100
0000
1000
0001
,  // measure 38
0010
0110
1100
1010
,  // measure 39
2001
3002
0203
0320
,  // measure 40
1030
0100
1000
0100
0010
0001
0010
0001
,  // measure 41
2000
0000
3001
0001
0002
0000
1003
1000
,  // measure 42
2000
0000
3010
0010
0020
0000
0130
0100
,  // measure 43
0100
0010
0110
0110
,  // measure 44
0001
0010
0100
1000
0100
0010
0001
1000
,  // measure 45
0010
0000
0010
0100
0110
0000
0100
0010
,  // measure 46
0110
0000
0001
1000
1001
0000
0110
0000
,  // measure 47
2000
3001
0010
1001
,  // measure 48
0001
0100
0001
0100
0001
0000
0101
0000
,  // measure 49
0020
0100
1000
0130
,  // measure 50
0200
0001
0010
0301
,  // measure 51
1001
0000
0100
0010
0100
0000
0110
0000
,  // measure 52
0010
0100
0010
0100
0010
0000
0110
0000
,  // measure 53
0002
0000
1000
0000
,  // measure 54
1003
0000
0000
0000
;

//---------------dance-single - ----------------
#NOTES:
     dance-single:
     :
     Medium:
     5:
     0.307,0.343,0.268,0.207,0.000:
0000
0000
0000
0000
,
0000
0000
0000
0000
,
0000
0000
0000
0000
,
0000
0000
0000
0000
,
0010
0100
0010
0100
,
1001
0100
0000
1000
0100
0000
1000
0000
,
0001
0010
0100
1000
,
0010
0100
0000
0010
0100
0000
0001
0000
,
0002
0000
0100
0003
0101
0000
0010
0000
,
1000
0100
0000
0001
0100
0000
1000
0000
,
0010
0200
0320
0130
,
0010
0100
0010
0000
0010
0100
0010
0000
,
1001
0000
0001
0010
0001
0000
0100
1000
,
0100
0000
0010
0100
0010
0000
0100
0000
,
1001
0000
0001
0100
1000
0000
1000
0100
,
0001
0000
0001
0010
1000
0000
0110
0000
,
1001
0000
1000
0010
1000
0000
0001
0100
,
0010
0000
0001
0100
1000
0000
0100
0000
,
0110
0000
0001
0010
0100
0000
0100
1000
,
0010
1000
1010
0001
,
0100
0001
1000
1001
,
0010
0110
0001
1001
,
0001
0011
0100
1100
,
0010
0000
1000
0000
0001
0100
1000
0000
,
2002
0000
0000
3003
,
0010
0100
0010
0110
,
0001
0010
0001
0011
,
1000
0010
1000
1100
,
0001
0100
1000
0010
,
0001
0100
0001
0000
0010
1000
0010
0000
,
0200
0310
0002
1003
,
0010
0100
0010
0000
1000
0001
1000
0000
,
0002
0000
2003
0000
,
3020
0000
0230
0000
,
0310
0110
1001
0001
,
0001
1000
0001
0000
0100
0001
0010
0000
,
2000
0000
3002
0000
,
0203
0000
0320
0000
,
1030
1000
1000
1000
,
0001
0001
0011
0011
,
1001
0000
0110
0000
,
1010
0000
0101
0000
,
0001
0001
0001
0001
,
0100
0100
0110
0110
,
1001
0000
0110
0000
,
0022
0033
2200
3300
,
0001
0000
1000
0000
,
0100
0010
0100
0000
,
0002
1000
2003
0001
,
3001
0100
0010
1000
,
0002
1000
1003
0000
,
1000
0010
1000
0000
,
0002
0000
2003
0000
,
3001
0000
0000
0000
;

//---------------dance-single - ----------------
#NOTES:
     dance-single:
     :
     Easy:
     3:
     0.215,0.275,0.147,0.190,0.000:
0000
0000
0000
0000
,
0000
0000
0000
0000
,
0000
0000
0000
0000
,
0000
0000
0000
0000
,
1000
0010
0100
0001
,
1000
0010
2002
3003
,
0001
0010
1000
0100
,
1000
0010
0220
0330
,
0010
0010
0100
0100
,
0010
0100
0220
0330
,
0001
0001
1000
1000
,
0001
1000
0100
0010
,
2002
3003
2000
3000
,
0002
0003
0001
0010
,
0101
0000
1010
0000
,
0110
0000
0011
0001
,
2002
3003
0020
0030
,
2000
3000
0001
0100
,
1001
0000
0110
0000
,
0001
1000
1001
0100
,
0010
0100
0010
0110
,
0001
0001
1000
1000
,
0001
1000
0001
1000
,
0100
0010
0100
0010
,
0200
0000
0000
0300
,
0001
0100
0010
1000
,
0100
0001
0010
0100
,
0001
1000
0001
0100
,
2000
0000
0001
3000
,
0001
0001
1000
1000
,
1010
0000
0101
0000
,
0100
0100
0100
0100
,
0020
0000
0000
0000
,
0230
0000
0000
0000
,
0310
0000
1001
0000
,
0001
0001
1000
1000
,
2000
0000
0000
0000
,
3002
0000
0000
0003
,
1000
0010
1000
0010
,
0100
0001
0100
0001
,
1000
0000
0000
0000
,
0000
0000
0000
0000
,
0100
0010
0100
0010
,
0100
0001
1000
0001
,
1000
0000
0000
0000
,
0000
0000
0000
0000
,
1001
0000
0010
0000
,
0100
0000
0010
0000
,
0010
0100
0010
0000
,
0001
1000
0001
0000
,
0100
0000
0001
0000
,
1000
0000
0001
0000
,
2000
0000
0002
0000
,
3003
0000
0000
0000
;
