#TITLE:Heaven;
#SUBTITLE:;
#ARTIST:Envy;
#TITLETRANSLIT:;
#SUBTITLETRANSLIT:;
#ARTISTTRANSLIT:;
#GENRE:;
#CREDIT:;
#BANNER:;
#BACKGROUND:;
#LYRICSPATH:;
#CDTITLE:;
#MUSIC:Heaven.mp3;
#OFFSET:-0.061000;
#SAMPLESTART:43.349998;
#SAMPLELENGTH:12.800000;
#SELECTABLE:YES;
#BPMS:0.000000=75.000000
,35.500000=90.000000
,35.666668=105.000000
,35.833332=120.000000
,36.000000=135.000000
,36.250000=150.000000
,38.000000=180.000000
,38.125000=210.000000
,38.250000=240.000000
,38.375000=270.000000
,38.500000=300.000000
,38.750000=249.999985
,38.875000=200.000000
,39.000000=140.000000
,39.125000=200.000000
,39.250000=249.999985
,39.375000=300.000000
,42.000000=150.000000
,174.000000=75.000000
,205.000000=68.000000
,205.500000=60.000000
,207.375000=62.000000
,207.500000=66.000000
,207.625000=75.000000
,207.750000=85.000000
,207.875000=92.500000
,208.000000=150.000000
;
#STOPS:
;
#BGCHANGES:;
#KEYSOUNDS:;
#ATTACKS:;

//---------------dance-single - ----------------
#NOTES:
     dance-single:
     :
     Challenge:
     10:
     0.678265,0.930570,0.312359,0.388713,0.416479,583.000000,45.000000,56.000000,0.000000,0.000000,0.000000,0.678265,0.930570,0.312359,0.388713,0.416479,583.000000,45.000000,56.000000,0.000000,0.000000,0.000000:
0000
0000
0000
0000
,
0000
0000
0000
0000
,
0000
0000
0000
0000
0000
0000
0000
0000
1001
0000
0000
0010
0011
0000
1000
0000
,
0110
0000
0000
0010
1010
0000
0100
0000
0011
0000
0000
0001
1001
0000
0100
0000
,
1010
0000
0000
1000
1001
0000
0010
0000
1000
0010
1000
0100
0010
0100
1000
0000
,
0001
0100
0001
0000
1000
0100
1000
0000
0001
0010
0001
0100
0010
0100
0001
0000
,
1000
0010
1000
0000
0001
0010
0001
0000
0110
0000
1000
0010
0100
0010
1000
0000
,
0001
0100
0010
0100
0001
1000
0100
0000
1000
0010
0100
0000
0001
1000
0100
0000
,
1000
0001
0010
0000
0001
0010
0100
0000
2002
0000
0000
0000
0000
0000
0000
0000
,
3003
0000
0000
0000
,
0110
0000
0000
0000
2020
3030
0022
0033
,
0100
0000
1000
0010
1000
0000
0001
0000
1000
0000
0100
0000
1000
0000
0010
1000
,
0001
1000
0010
1000
2002
3003
0220
0330
,
1000
0000
0000
0100
0000
0000
0010
0000
0000
0100
0000
0000
1000
0000
0000
0001
0000
0000
0100
0000
0000
0010
0100
0010
,
0100
0001
1000
0100
0220
0330
2002
3003
,
0100
0000
0001
0010
0001
0000
1000
0000
0001
0000
0100
0000
0001
0000
0010
0001
,
1000
0001
0010
0001
0202
0303
2200
3300
,
0010
0000
0000
0100
0000
0000
0001
0000
0000
0010
0000
0000
0100
0000
0000
0010
0000
0000
0001
0000
0000
1000
0001
1000
,
0001
0010
0100
1000
0001
0100
0010
0100
,
0001
0000
1000
0001
1000
0000
0100
0000
0010
0000
0100
0000
1000
0000
0001
1000
,
0100
0010
0100
1000
0001
0100
0010
0100
,
0001
0000
0000
0010
0000
0000
0100
0000
0000
1000
0000
0000
0001
0000
0000
0100
0000
0000
0001
0000
0000
0010
0001
0010
,
0001
0010
0100
1000
0001
0100
0010
0100
,
0001
0000
1000
0100
1000
0000
0010
0000
0100
0000
0001
0000
1000
0000
0001
0100
,
0010
0100
0001
1000
0100
0010
0100
1000
,
0010
0000
0000
0100
0000
0000
0001
0000
0000
1000
0000
0000
0100
0000
0000
0010
0000
0000
0001
0000
0000
1000
0001
1000
,
0001
0100
0010
1000
1001
0000
0000
0000
,
0000
0000
0110
0000
1000
0100
0001
0000
,
0001
0100
1000
0000
1000
0010
0001
0000
,
0001
0000
0010
0000
1000
0000
0000
0000
0001
0000
1000
0100
1000
0000
0001
0100
,
0001
0000
1000
0000
0010
0100
0010
0000
1000
0000
0010
0000
0001
0000
0010
0000
,
1000
0100
0010
0000
0001
0100
1000
0000
,
1000
0100
0001
0000
0001
0010
1000
0000
,
1000
0000
0010
0000
0001
0000
0000
0000
1000
0000
0001
0010
0001
0000
1000
0010
,
1000
0000
0100
0000
0010
0100
0010
0000
0001
0000
0100
0000
1000
0000
0100
0000
,
0001
0000
0010
0000
0100
0000
0000
0000
1000
0000
0100
0000
1000
0000
0001
1000
,
0001
0000
0010
0000
0100
0000
0010
0000
0001
0000
1000
0000
0100
0000
0010
0100
,
0010
0000
0001
0000
1000
0000
0000
0000
0001
0000
1000
0100
1000
0000
0001
0100
,
0001
0000
0100
0000
0010
1000
0010
0000
1000
0000
0100
0000
0010
0000
0100
0000
,
1000
0000
0100
0000
0001
0000
0000
0000
0010
0000
1000
0000
0100
0000
1000
0001
,
1000
0000
0010
0000
0100
0001
0100
0000
1000
0000
0001
0000
0100
0000
1000
0000
,
0100
0000
0010
0000
0001
0000
0000
0000
1000
0000
0010
0100
0010
0000
0100
0010
,
0100
0000
0001
0000
1000
0100
1000
0000
0010
0000
0001
0000
0100
0000
1000
0000
,
0010
0000
0001
0000
1000
0000
0100
0000
1001
1000
0010
0010
1000
1000
0100
0010
,
0001
0000
1000
0100
0001
0000
0000
0100
1000
0010
0000
0010
0001
0100
0010
0000
,
0001
0000
1000
0100
0001
0010
1000
0000
0100
0001
0001
1000
1000
0010
0100
0001
,
1000
0000
1000
0100
0001
0000
0000
1000
0010
0001
0000
0100
0010
1000
0001
0000
,
1000
0000
0000
0010
0000
0000
0100
0000
0001
0000
0001
0000
1000
0000
1000
0000
0100
0000
0001
0000
1000
0100
1000
0000
0001
0100
0001
0000
0010
0000
0100
0000
,
1000
0000
0000
0000
0001
0100
0001
0000
1000
0000
0100
0000
0100
0000
1000
0000
0100
0010
0100
0000
1000
0000
0010
0100
0010
0000
1000
0000
0001
0000
0001
0000
,
0100
0100
0010
1000
0001
0010
0100
0000
2200
0000
3300
1100
2002
0000
3003
0202
,
0000
0303
0220
0330
2020
0000
3030
1010
2002
3003
2002
3003
0022
0033
0000
0011
,
0220
0330
0220
0330
2002
0000
0000
0000
3003
0000
0000
0000
0000
0000
0000
0000
,
1000
0000
0000
0001
1000
0001
1000
0000
0000
0010
0000
0000
0100
0000
0000
0001
0000
0000
2002
0000
0000
3003
0000
0000
,
2200
0000
3300
0000
0001
0000
1000
0100
1000
0000
0001
0000
1000
0000
0010
0000
,
1000
0000
0010
0100
0001
0000
1000
0000
0100
0000
1000
0000
2002
0000
3003
0000
,
0202
0303
0010
1000
0100
1000
0001
0100
,
0001
0000
0000
1000
0001
1000
0001
0000
0000
0010
0000
0000
0100
0000
0000
1000
0000
0000
2002
0000
0000
3003
0000
0000
,
0022
0000
0033
0000
1000
0000
0001
0010
0001
0000
1000
0000
0001
0000
0100
0000
,
0001
0000
0100
0010
1000
0000
0001
0000
0010
0000
0001
0000
2002
0000
3003
0000
,
2020
3030
0100
0001
0010
0001
1000
0010
,
1000
0000
0000
0001
1000
0001
1000
0000
0000
0100
0000
0000
0010
0000
0000
0001
0000
0000
1000
0000
0000
0100
0000
0000
,
1000
0000
0010
0000
0100
0000
0001
0010
0001
0000
0100
0000
0010
0000
1000
0000
,
0100
0000
1000
0001
0100
0000
0010
0000
1000
0000
0001
0000
0100
0000
0010
0000
,
0100
0001
1000
0100
0010
0001
1000
0100
,
1000
0000
0000
0001
1000
0001
1000
0000
0000
0010
0000
0000
0100
0000
0000
0001
0000
0000
1000
0000
0000
0010
0000
0000
,
1000
0000
0100
0000
0010
0000
0001
0100
0001
0000
0010
0000
0100
0000
1000
0000
,
0010
0000
1000
0001
0010
0000
0100
0000
1000
0000
0001
0000
0010
0000
0100
0000
,
0010
0001
1000
0010
0100
0001
1000
0010
,
1000
0000
0000
0001
1000
0001
0100
0000
0000
0001
0000
0000
0010
0000
0000
1000
0000
0000
0101
0000
0000
0000
0000
0000
;

//---------------dance-single - ----------------
#NOTES:
     dance-single:
     :
     Hard:
     9:
     0.544397,0.811266,0.284594,0.027765,0.284594,504.000000,41.000000,4.000000,0.000000,0.000000,0.000000,0.544397,0.811266,0.284594,0.027765,0.284594,504.000000,41.000000,4.000000,0.000000,0.000000,0.000000:
0000
0000
0000
0000
,
0000
0000
0000
0000
,
0000
0000
0000
0000
0000
0000
0000
0000
1001
0000
0000
1000
0010
0000
1000
0000
,
0001
0000
0000
0001
0010
0000
0001
0000
1000
0000
0000
1000
0100
0000
1000
0000
,
0001
0000
0000
0001
0100
0000
0010
0000
1000
0001
0000
1000
0001
0000
1000
0000
,
0100
1000
0000
0100
1000
0000
0010
0000
0100
0010
0000
0100
0010
0000
0100
0000
,
0001
0100
0000
0001
0100
0000
0010
0000
1000
0001
0000
0001
0100
0000
0001
0000
,
0100
0010
0000
0010
0100
0000
0001
0000
1000
0100
0000
0100
0001
0000
1000
0000
,
0001
0010
0000
0010
1000
0000
0100
0000
2002
0000
0000
0000
0000
0000
0000
0000
,
3003
0000
0000
0000
,
1001
0000
0000
0000
1000
0001
1000
0000
,
0001
0000
0010
0001
0010
0000
0000
0000
0001
0000
1000
0000
0100
0000
1000
0001
,
1000
0000
0100
0000
0001
0100
0010
0100
,
0001
0000
0000
0000
0100
0000
0000
0000
1000
0000
0100
0000
1000
0000
0001
0100
,
0001
1000
0100
0000
0001
1000
0001
0000
,
1000
0000
0010
1000
0010
0000
0000
0000
1000
0000
0001
0000
0100
0000
0001
1000
,
0001
0000
0100
0000
1000
0100
0010
0100
,
1000
0000
0000
0000
0100
0000
0000
0000
0001
0000
0010
0000
0001
0000
1000
0100
,
1000
0001
0100
0000
1001
0000
1001
0000
,
1000
0100
0010
0100
1000
0001
0100
0001
,
1000
0100
1000
0000
0110
0000
0110
0000
,
0001
0000
0100
0000
0001
0000
1000
0000
0010
0000
0100
0000
0001
0000
1000
0001
,
1000
0100
0010
0000
1100
0000
1100
0000
,
0001
0100
0010
1000
0100
1000
0010
0100
,
0001
1000
0100
0000
0011
0000
0011
0000
,
0100
0000
1000
0000
0001
0000
0010
0000
0001
0000
1000
0000
0010
0000
0100
0010
,
0100
0001
1000
0100
0110
0000
0000
0000
,
0000
0000
1001
0000
1000
0001
0100
0000
,
0001
1000
0010
0000
1000
0001
0010
0000
,
0001
1000
0100
0000
1000
0001
0010
0010
,
0001
1000
1000
0000
0001
1000
0100
0000
,
1000
0001
0100
0000
0010
1000
0001
0000
,
0100
0001
1000
0000
0100
1000
0001
0000
,
0010
0001
1000
0000
0100
1000
0001
0001
,
0100
0010
0010
0000
1000
0100
0010
0000
,
0001
0100
0010
0000
0010
1000
0100
0000
,
0100
1000
0010
0000
0100
0001
0010
0000
,
0010
0000
0001
0000
0100
0000
0000
0000
0010
0000
1000
0000
0001
0000
0010
0100
,
0010
0000
0001
0000
0100
0010
0100
0000
0001
0000
1000
0000
0100
0000
0000
0000
,
1000
0001
0100
0000
0001
1000
0100
0000
,
0100
0001
0010
0000
0010
1000
0100
0000
,
0100
0000
0001
0000
1000
0000
0000
0000
0001
0000
1000
0000
0010
0000
1000
0010
,
1000
0000
0010
0000
0001
0010
0001
0000
0010
0000
1000
0000
0100
0000
0010
0000
,
0100
0000
1000
0000
0001
0000
0100
0000
0001
0001
0100
0100
0010
0010
1000
0100
,
0010
0000
0100
1000
0001
0000
0000
0100
0010
0010
0100
0010
0010
1000
0001
0000
,
0100
0000
0001
0001
1000
0100
1000
0000
0010
0010
1000
1000
0001
0001
0100
0010
,
1000
0000
1000
0100
0010
0000
0000
0001
0010
0100
0000
1000
0001
0100
0010
0000
,
1000
0000
0000
0100
0000
0000
1000
0000
0001
0000
0001
0000
0100
0000
0100
0000
0001
0000
0011
0000
0010
0000
0100
0000
0110
0000
0010
0000
0001
0000
1000
0000
,
0100
1100
1000
0010
0110
0000
0000
0001
1000
1001
0000
1000
1001
0001
0010
0000
,
0100
1100
1000
0010
1010
1000
0001
0000
0100
0101
0001
0010
0011
0000
1000
0100
,
1100
0000
0101
0000
0110
0000
1000
0001
0101
0000
1100
0000
1001
0000
0000
0110
,
0100
1010
2002
0000
3003
0000
0000
0000
,
1000
0000
0001
0100
0010
0000
1000
0000
0001
0000
0010
0000
1001
0000
0000
0000
,
0110
0000
0000
0000
1000
0000
0001
1000
0001
0000
0000
0000
0010
0000
0001
0000
,
1000
0000
0010
0100
0010
0000
0000
0000
1000
0000
0000
0000
0011
0000
0000
0000
,
1010
0000
0001
0100
1000
0100
0001
0010
,
0001
0000
1000
0100
0010
0000
0000
0000
0001
0000
0000
0000
0110
0000
0000
0000
,
1001
0000
0000
0000
0100
0000
0001
0100
0001
0000
0000
0000
1000
0000
0100
0000
,
0010
0000
0100
1000
0100
0000
0000
0000
0010
0000
0000
0000
0101
0000
0000
0000
,
1100
0000
0001
0010
1000
0010
0001
1000
,
0100
0000
0010
0001
1000
0000
0100
0000
0010
0000
0100
0000
1000
0000
0001
0000
,
1000
0001
0100
0010
0100
0001
1000
0100
,
1000
0001
0010
0100
0010
0001
1000
0010
,
1000
0010
0100
0001
0100
0010
1000
0100
,
1000
0001
0100
1000
0100
0001
0010
0100
,
0010
0100
1000
0010
1000
0100
0010
0100
,
1000
0001
0010
0001
0100
0010
1000
0001
,
1000
0010
0001
0010
1000
0100
0001
0100
,
1000
0000
0100
1000
0001
0000
0010
0000
1000
0000
0010
0000
0101
0000
0000
0000
;

//---------------dance-single - ----------------
#NOTES:
     dance-single:
     :
     Medium:
     7:
     0.477959,0.596519,0.145768,0.180474,0.114532,435.000000,21.000000,26.000000,0.000000,0.000000,0.000000,0.477959,0.596519,0.145768,0.180474,0.114532,435.000000,21.000000,26.000000,0.000000,0.000000,0.000000:
0000
0000
0000
0000
,
0000
0000
0000
0000
,
0000
0000
0000
0000
0000
0000
0000
0000
1100
0000
0000
0001
0000
0000
0100
0000
,
0010
0000
0000
1000
0000
0000
0100
0000
1000
0000
0000
0001
0000
0000
0010
0000
,
0100
0000
0000
0010
0000
0000
0001
0000
1000
0000
0000
0100
0000
0000
0010
0000
,
0100
0000
0000
1000
0000
0000
0010
0000
0100
0000
0000
0001
0000
0000
1000
0000
,
0001
0000
0000
1000
0000
0000
0010
0000
0100
0000
0001
0000
1000
0000
0100
0000
,
1000
0010
0100
0001
0010
0001
1000
0010
,
0100
0000
0001
0000
1000
0001
1000
0000
2002
0000
0000
0000
0000
0000
0000
0000
,
3003
0000
0000
0000
,
1001
0000
1000
1000
,
0001
1000
0100
0000
1000
0010
0100
0000
,
0001
1000
0010
0000
0100
0000
0100
0000
,
0001
1000
0100
0000
1000
0010
0100
0000
,
0001
0010
1000
0000
0001
0000
0001
0000
,
1000
0001
0100
0000
0001
0010
0100
0000
,
1000
0001
0010
0000
0100
0000
0100
0000
,
1000
0001
0100
0000
0001
0010
0100
0000
,
1000
0010
0001
0000
1000
0000
1000
0000
,
0001
1000
0100
1000
0001
0100
0001
0010
,
0100
1000
0100
0010
0001
0000
0001
0000
,
1000
0100
1000
0010
0100
0010
1000
0100
,
0010
0001
0100
0001
1000
0000
1000
0000
,
0001
1000
0010
1000
0001
0010
0001
0100
,
0010
1000
0010
0100
0001
0000
0001
0000
,
1000
0100
1000
0001
0100
0001
0010
0100
,
0010
0001
0100
0010
1000
0000
0000
0000
,
0000
0000
1001
0000
1000
0100
2000
0000
,
3001
0100
0002
0000
0103
0010
0200
0000
,
0310
1000
0020
0000
1030
0100
0010
0100
,
1000
0010
0100
0000
0001
1000
0020
0000
,
1030
0001
0200
0000
0301
0010
0002
0000
,
1003
0010
2000
0000
3001
1000
0002
0000
,
0103
0001
0200
0000
0301
1000
0010
1000
,
0100
0010
0100
0000
1000
0001
0020
0000
,
0031
1000
0200
0000
1300
0100
1000
0100
,
0010
0100
0010
0100
1000
0001
1000
0001
,
0100
0001
0100
0000
0001
1000
0001
1000
,
0010
1000
0010
1000
0100
0010
0100
0010
,
0001
0010
0001
0000
0010
0100
0010
0100
,
1000
0100
1000
0100
0010
0001
0010
0001
,
1000
0001
1000
0000
0100
1000
0100
1000
,
0010
1000
0010
1000
0001
0010
0001
0010
,
0100
0010
0100
1000
0001
1000
1000
0100
,
0010
0000
0001
0000
0100
0000
0000
0000
0001
1000
0000
0001
1000
0000
0100
0000
,
1000
0000
0010
0000
1000
0001
1000
0000
1000
0000
0001
0000
0001
0000
1000
0000
,
0010
0000
0100
0000
0010
0000
0000
1000
0010
1000
0000
0001
0010
0001
0100
0000
,
0001
0000
0000
1000
0100
0000
0000
0000
1000
0001
1000
0001
1000
0010
0100
0010
,
1000
0000
1000
0100
1000
0000
0000
0001
0100
0010
0000
0100
0010
1000
0010
0000
,
1000
0000
0001
0100
0010
0100
0001
0000
1000
0100
1000
0001
2000
0000
3000
0020
,
0000
0000
0000
0000
0030
0000
0000
0000
0020
0000
0000
0000
0000
0000
0000
0000
0230
0000
0000
0000
0000
0000
0000
0000
0300
0000
0000
0000
0002
0000
0000
0000
2000
0000
0000
0000
0003
0000
0000
3000
2000
0000
0000
0000
0000
0000
0000
0000
3020
0000
0000
0000
0000
0000
0000
0000
0030
0000
0000
0000
0200
0000
0000
0000
,
0002
0000
0000
0000
0300
0000
0000
0003
0002
0000
0000
0000
0000
0000
0000
0000
0203
0000
0000
0000
0000
0000
0000
0000
0300
0000
0000
0000
0000
0000
0000
0000
0000
0000
0000
0000
0000
0000
0000
0000
0000
0000
0000
0000
0000
0000
0000
0000
0000
0000
0000
0000
0000
0000
0000
0000
0000
0000
0000
0000
0000
0000
0000
0000
,
0001
1000
1000
0001
0100
0001
1001
0000
,
1001
0000
0100
0001
1000
0000
0100
1000
,
0001
0000
0100
0010
1000
0000
1100
0000
,
1100
0000
0001
1000
0010
0000
1000
0001
,
0010
0000
0100
1000
0100
0000
0110
0000
,
0110
0000
0001
1000
0100
0000
1000
0001
,
0100
0000
0001
0100
0010
0000
0101
0000
,
0101
0000
0010
1000
0001
0000
0010
0001
,
1000
0000
0010
0100
0010
0000
1001
0000
,
1001
0000
0001
0100
0001
0010
0100
0010
,
0100
1000
0010
0100
0001
0000
0101
0000
,
0101
0000
0001
0100
0010
0100
0001
0010
,
0100
0010
0001
1000
0100
0000
0110
0000
,
0110
0000
1000
0100
1000
0010
0100
0010
,
0100
0001
0010
0100
1000
0000
1010
0000
,
1010
0000
0100
0001
1000
0100
0010
0100
,
1000
0010
0001
0010
1000
0100
0110
0000
;

//---------------dance-single - ----------------
#NOTES:
     dance-single:
     :
     Easy:
     5:
     0.239971,0.286329,0.048589,0.000000,0.000000,235.000000,7.000000,0.000000,0.000000,0.000000,0.000000,0.239971,0.286329,0.048589,0.000000,0.000000,235.000000,7.000000,0.000000,0.000000,0.000000,0.000000:
0000
0000
0000
0000
,
0000
0000
0000
0000
,
0000
0000
0000
0000
0001
0000
1000
0010
,
1000
0000
0001
1000
0001
0000
1000
0100
,
1000
0000
0010
0100
0010
0000
1000
0001
,
1000
0000
0010
1000
0010
0000
1000
0100
,
1000
0000
0100
0010
0100
0000
1100
0000
,
1000
1001
0001
0011
,
0010
0110
1001
0000
,
0000
0000
0000
0000
,
0001
0000
1000
1000
,
0001
0000
0001
0001
,
0100
0000
0100
0100
,
0010
0000
0010
0010
,
1000
0000
1000
1000
,
0100
0000
0100
0100
,
0010
0000
0010
0010
,
0001
0000
0001
0001
,
0100
0000
0001
1000
,
0001
1000
0001
0100
,
0001
0000
1000
0100
,
1000
0100
1000
0001
,
1000
0000
0010
0100
,
0010
0100
0010
1000
,
0010
0000
0100
0001
,
0100
0001
0100
0010
,
0100
0010
1000
0000
,
0000
0000
1000
0000
,
0100
0000
0001
0000
,
0100
0000
1000
0010
,
1000
0010
0100
0010
,
0100
0000
0001
0000
,
0100
0000
1000
0000
,
0100
0000
0001
0010
,
0001
0010
0100
0010
,
0100
0000
1000
0100
,
1000
0000
0001
0100
,
0001
0000
0010
0100
,
0010
0000
0001
0010
,
0001
0000
1000
0010
,
1000
0000
0010
0100
,
0010
0000
1000
0100
,
1000
0000
0001
0010
,
0001
0100
0001
0001
,
1000
0100
1000
1000
,
0001
0100
0010
0010
,
1000
0001
0010
0100
,
1000
0000
0001
0000
1000
0100
1000
0000
,
0010
0000
0100
0000
0001
0100
0001
0000
,
0010
0000
0100
0000
0010
0001
0010
0000
,
0001
1000
0001
0000
1000
0010
1000
0000
,
0010
0100
0010
0000
1001
0000
0000
0000
,
1000
0001
1000
0000
0010
0000
1000
0000
,
0001
0100
0000
0100
,
0010
0100
0000
0100
,
0001
0100
0000
0001
,
0000
1000
0001
1000
,
0100
1000
0000
0010
,
1000
0010
0000
1000
,
0100
1000
0000
0001
,
0000
1000
0001
1000
,
1000
0001
0001
0010
,
0010
0100
0100
1000
,
1000
0010
0010
0100
,
0100
0001
0001
0100
,
0100
0010
0010
1000
,
1000
0001
0001
0010
,
0010
0100
0100
1000
,
1000
0001
1000
1001
;

//---------------dance-single - ----------------
#NOTES:
     dance-single:
     :
     Beginner:
     3:
     0.136843,0.167025,0.013883,0.000000,0.000000,136.000000,2.000000,0.000000,0.000000,0.000000,0.000000,0.136843,0.167025,0.013883,0.000000,0.000000,136.000000,2.000000,0.000000,0.000000,0.000000,0.000000:
// measure 0
0000
0000
0000
0000
,  // measure 1
0000
0000
0000
0000
,  // measure 2
0000
0000
1000
0000
,  // measure 3
0100
0000
0001
0000
,  // measure 4
0010
0000
1000
0000
,  // measure 5
0010
0000
0001
0000
,  // measure 6
1000
0000
0001
0000
,  // measure 7
0100
0000
0010
0000
,  // measure 8
0001
1000
0001
0000
,  // measure 9
0000
0000
0000
0000
,  // measure 10
0000
0000
1000
0000
,  // measure 11
1000
0000
0100
0000
,  // measure 12
0100
0000
0001
0000
,  // measure 13
0001
0000
0100
0000
,  // measure 14
0010
0000
1000
0000
,  // measure 15
1000
0000
0010
0000
,  // measure 16
0010
0000
0001
0000
,  // measure 17
0001
0000
0010
0000
,  // measure 18
0100
0000
1000
0000
,  // measure 19
0001
0000
1000
0000
,  // measure 20
0100
0000
1000
0000
,  // measure 21
0001
0000
1000
0000
,  // measure 22
0010
0000
0001
0000
,  // measure 23
1000
0000
0001
0000
,  // measure 24
0100
0000
0001
0000
,  // measure 25
1000
0000
0001
0000
,  // measure 26
0010
0000
0100
0000
,  // measure 27
0000
0000
0010
0000
,  // measure 28
0000
0000
0010
0000
,  // measure 29
0000
0000
0001
0000
,  // measure 30
1000
0000
0001
0000
,  // measure 31
0000
0000
0100
0000
,  // measure 32
0000
0000
0100
0000
,  // measure 33
0000
0000
1000
0000
,  // measure 34
0001
0000
1000
0000
,  // measure 35
0000
0000
0100
0000
,  // measure 36
0000
0000
0010
0000
,  // measure 37
0000
0000
0001
0000
,  // measure 38
0000
0000
1000
0000
,  // measure 39
0000
0000
0100
0000
,  // measure 40
0000
0000
0010
0000
,  // measure 41
0000
0000
0001
0000
,  // measure 42
0000
0000
1000
0000
,  // measure 43
0001
0000
1001
0000
,  // measure 44
0100
0000
0010
0010
,  // measure 45
0100
0000
1000
0000
,  // measure 46
0010
0000
0001
0001
,  // measure 47
0100
0010
1000
1000
,  // measure 48
1000
0000
0001
0001
,  // measure 49
0001
0000
0010
0010
,  // measure 50
0010
0000
0100
0100
,  // measure 51
1000
0001
1001
0000
,  // measure 52
1000
0001
1000
0001
,  // measure 53
0000
0010
0000
0100
,  // measure 54
0000
1000
0000
0001
,  // measure 55
0000
0100
0000
0010
,  // measure 56
0000
0001
0000
1000
,  // measure 57
0000
0010
0000
0100
,  // measure 58
0000
0001
0000
1000
,  // measure 59
0000
0100
0000
0010
,  // measure 60
0000
0001
0000
1000
,  // measure 61
0100
1000
0000
0001
,  // measure 62
0100
0001
0000
1000
,  // measure 63
0010
1000
0000
0001
,  // measure 64
0010
0001
0000
1000
,  // measure 65
0010
1000
0000
0001
,  // measure 66
0100
0001
0000
1000
,  // measure 67
0001
1000
0000
0010
,  // measure 68
0100
0010
1000
0001
;
