#TITLE:Extravaganza;
#SUBTITLE:;
#ARTIST:BanYa;
#TITLETRANSLIT:;
#SUBTITLETRANSLIT:;
#ARTISTTRANSLIT:;
#CREDIT:;
#BANNER:Extravaganza.png;
#BACKGROUND:Extravaganza-bg.png;
#LYRICSPATH:;
#CDTITLE:;
#MUSIC:Extravaganza.ogg;
#OFFSET:0.000;
#SAMPLESTART:25.850;
#SAMPLELENGTH:16.000;
#SELECTABLE:YES;
#BPMS:0.000=195.000;
#STOPS:80.000=0.920
;
#BGCHANGES:;

//---------------dance-single - ----------------
#NOTES:
     dance-single:
     :
     Hard:
     9:
     0.793,1.000,0.690,0.233,0.279:
0000
0000
0000
0000
,
0000
0000
0000
0000
,
0000
0000
0000
0000
,
0000
0000
0000
0000
,
1000
0001
0010
0100
0000
0100
1000
0001
,
0100
0001
0010
0100
0000
0010
0001
0100
,
0020
0000
0032
1000
0003
0100
0000
0001
,
0010
0000
0001
0100
0000
0001
1000
0000
,
0010
1000
0001
0100
0000
0100
0010
1000
,
0001
1000
0100
0010
0000
0010
1000
0001
,
0200
0000
0320
0001
0030
0100
0000
0010
,
1000
0000
0100
1000
0000
0001
1000
0000
,
1001
0001
0100
0001
0000
1000
0010
0000
,
0100
0001
1000
0010
0000
0100
0001
0010
,
0200
0000
2300
0001
3000
0100
0000
0010
,
0100
0000
0010
0001
0000
0010
1000
0000
,
1100
1000
0001
0100
0000
0010
1000
0000
,
0001
0100
1000
0001
0000
0010
1000
0100
,
0020
0000
0230
0001
0300
2000
0000
3020
,
0000
0032
0000
0203
0000
0320
0000
0030
,
2002
3003
0100
1000
0100
0010
0100
1000
,
0100
0001
0101
0000
1010
0000
0101
0000
,
1010
0000
0010
0001
0010
1000
0010
0001
,
0010
0100
0110
0000
1001
0000
0110
0000
,
1001
0000
0001
1000
0001
0100
0001
1000
,
0001
0010
0011
0000
1100
0000
0011
0000
,
1100
0000
1000
0100
1000
0001
1000
0100
,
1000
0010
1010
0000
0101
0000
1010
0000
,
0101
0000
0010
1000
0010
0001
0010
1000
,
0010
0100
0110
0000
1001
0000
0110
0000
,
1001
0000
0100
0001
0100
0010
0100
0001
,
0100
1000
1100
0000
0011
0000
1100
0000
,
0011
0000
0001
1000
0001
0100
0001
1000
,
0001
0010
1010
0000
0101
0000
1010
0000
,
0101
0110
1001
0110
,
1001
0011
1100
0011
,
1100
0000
0000
0000
1000
0000
0000
1000
0000
0000
1000
0000
0000
0000
0001
0000
,
0000
0000
0010
0000
0100
0000
0000
0100
0000
0000
0100
0000
0000
0000
1000
0000
,
0000
0000
0001
0000
0010
0000
0000
0010
0000
0000
0010
0000
0000
0000
0100
0000
,
0000
0000
1000
0000
0001
0000
0000
0001
0000
0000
0001
0000
0000
0000
0100
0000
,
0000
0000
0010
0000
1000
0000
0000
1000
0000
0000
1000
0000
0000
0000
0001
0000
,
0000
0000
0010
0000
0100
0000
0000
0100
0000
0000
0100
0000
0000
0000
1000
0000
,
0000
0000
0001
0000
0010
0000
0000
0010
0000
0000
0010
0000
0000
0000
0100
0000
,
0000
0000
1000
0000
0001
0000
0000
0001
0000
0000
0001
0000
0000
0000
0100
0000
,
0000
0000
0010
0000
1020
0000
0000
1000
0000
0000
1030
0000
0000
0000
0001
0000
,
0000
0000
0100
0000
0210
0000
0000
0010
0000
0000
0310
0000
0000
0000
1000
0000
,
0000
0000
0001
0000
0012
0000
0000
0010
0000
0000
0013
0000
0000
0000
0100
0000
,
0000
0000
0001
0000
0102
0000
0000
0100
0000
0000
0103
0000
0000
0000
1000
0000
,
0000
0001
2002
0000
0000
0000
0000
0000
,
0000
0000
0000
0000
,
0000
0000
0000
0000
,
0000
0000
0000
0000
,
0000
0000
0000
3003
1001
0000
0000
0000
1000
0000
0001
0010
0001
0000
1000
0100
,
1000
0000
0010
0000
0110
0000
0000
0000
0100
0000
0010
1000
0010
0000
0100
0001
,
0100
0000
0010
0000
1010
0000
0000
0000
1000
0000
0010
0100
0010
0000
1000
0001
,
1000
0000
0100
0000
1100
0000
0000
0000
0100
0000
0010
0001
0010
0000
0100
1000
,
0100
0000
0001
0000
0101
0000
0000
0000
0001
0000
0100
0010
0100
0000
0001
1000
,
0001
0000
0100
0000
0101
0000
0000
0000
0100
0000
0010
1000
0010
0000
0100
0001
,
0100
0000
0010
0000
0110
0000
0000
0000
0100
0000
0001
0010
0001
0000
1000
0100
,
1000
0000
0010
0000
1010
0000
0000
0000
0010
0000
0100
0001
0100
0000
0010
1000
,
0010
0000
0100
0000
1001
0000
0000
0000
0100
0001
0010
0001
1000
0010
0100
0010
,
1000
0001
0100
0000
0101
0000
0000
0000
0100
0010
1000
0100
1000
0001
0010
0001
,
0100
0010
1000
0000
1010
0000
0000
0000
0010
1000
0001
0010
0100
0010
0001
1000
,
0010
0100
0010
0000
0110
0000
0000
0000
0100
0001
1000
0010
0100
0010
1000
0001
,
0010
0100
1000
0000
1100
0000
0000
0000
1000
0001
0100
0001
0010
0100
1000
0001
,
0100
0001
0010
0000
0011
0000
0000
0000
0000
0000
0000
0000
1001
0000
0000
0000
,
1010
0000
0000
0000
0110
0000
0000
0101
0000
0000
0000
1010
0000
0000
1100
0000
,
0000
0001
0110
0000
1000
0110
0000
0100
,
0011
0000
1000
0010
1000
0010
0001
0010
,
0001
0010
0100
0010
0100
0010
1000
0010
,
1000
0010
1000
0100
1000
0100
0010
0100
,
0010
0100
1000
0100
1000
0100
0001
0100
,
0001
0100
0010
0001
0010
0001
0010
0100
,
0010
0100
0010
0001
0010
0001
0010
1000
,
0010
1000
0010
0001
1000
0010
0100
0001
,
1000
0100
0010
1000
0001
0100
1000
0010
,
1000
0001
2002
0000
0000
0000
0000
0000
,
3003
0000
0000
0000
;

//---------------dance-single - ----------------
#NOTES:
     dance-single:
     :
     Medium:
     7:
     0.621,0.658,0.223,0.152,0.066:
0000
0000
0000
0000
,
0000
0000
0000
0000
,
0000
0000
0000
0000
,
0000
0000
0000
0000
,
1000
0100
0000
0100
1000
0010
0100
0001
,
0010
0100
0000
0110
0000
0001
1000
0000
,
2000
0000
3001
0020
0000
0030
0000
0100
,
0000
0100
1000
0000
0001
0010
0001
0000
,
0100
0010
0000
0010
1000
0001
0100
0010
,
1000
0001
0000
1001
0000
0100
0010
0000
,
0200
0000
0310
2000
0000
3000
0000
0001
,
0000
0001
0100
0000
0010
0100
0010
0000
,
1000
0001
1000
0001
0000
0100
0000
0001
,
1000
0010
1000
0010
0000
0010
0000
0100
,
0002
0000
0103
0020
0000
0030
0000
0100
,
0000
0100
0001
0000
0001
1000
0100
0000
,
0010
0100
0010
0001
0000
0001
0000
1000
,
0001
0010
0001
0010
0000
0010
0000
0001
,
0020
0000
0031
0200
0000
0310
0000
0010
,
0000
1000
0000
1000
0000
0001
0000
0001
,
0220
0330
1000
0010
0100
0000
0001
1000
,
0100
0110
0001
0110
,
1000
0000
0001
1000
0010
0000
0100
0001
,
0010
0011
0100
0011
,
1000
0000
0010
1000
0100
0000
0010
0001
,
0100
1010
0001
1010
,
0100
0000
0010
1000
0001
0000
0010
0100
,
1000
1100
0001
1100
,
0010
0000
0100
0001
1000
0000
0100
1000
,
0010
0110
1000
0110
,
0001
0000
1000
0001
0010
0000
0001
1000
,
0100
1100
0010
1100
,
0001
0000
0010
0100
1000
0000
0100
0010
,
0001
0011
1000
0011
,
0100
1001
0010
1001
,
0100
0011
0100
1010
,
0001
0000
0000
0000
1000
0000
0000
0001
0000
0000
1000
0000
0000
0000
0010
0000
,
0000
0000
0100
0000
0100
0000
0000
0010
0000
0000
0100
0000
0000
0000
0001
0000
,
0000
0000
1000
0000
1000
0000
0000
0001
0000
0000
1000
0000
0000
0000
0001
0000
,
0000
0000
0010
0000
0010
0000
0000
0001
0000
0000
1000
0000
0000
0000
0100
0000
,
0000
0000
1000
0000
1000
0000
0000
0001
0000
0000
0010
0000
0000
0000
0001
0000
,
0000
0000
0100
0000
0100
0000
0000
0010
0000
0000
1000
0000
0000
0000
0001
0000
,
0000
0000
0010
0000
0010
0000
0000
0100
0000
0000
1000
0000
0000
0000
0001
0000
,
0000
0000
1000
0000
1000
0000
0000
0100
0000
0000
0010
0000
0000
0000
0001
0000
,
0000
0000
0100
0000
0200
0000
0000
0001
0000
0000
0310
0000
0000
0000
0100
0000
,
0000
0000
0001
0000
0002
0000
0000
1000
0000
0000
0013
0000
0000
0000
0001
0000
,
0000
0000
1000
0000
2000
0000
0000
0010
0000
0000
3100
0000
0000
0000
1000
0000
,
0000
0000
0010
0000
0020
0000
0000
0100
0000
0000
1030
0000
0000
0000
0010
0000
,
0000
0200
0000
0000
0000
0000
0000
0000
,
0000
0000
0000
0000
,
0000
0000
0000
0000
,
0000
0000
0000
0000
,
0000
0300
0100
0000
0001
1000
0001
0100
,
0001
0010
0001
0000
1000
0001
1000
0100
,
1000
0010
1000
0000
0010
0100
0010
0001
,
0010
1000
0010
0000
0100
1000
0100
0001
,
0100
0010
0100
0000
1000
0100
1000
0001
,
1000
0010
1000
0000
0001
0100
0001
1000
,
0001
0010
0001
0000
0100
0001
0100
0010
,
0100
1000
0100
0000
0010
0100
0010
1000
,
0010
0001
0010
0000
1000
0001
0100
0001
,
0010
0001
1000
0000
0100
1000
0010
1000
,
0001
1000
0100
0000
0010
0100
1000
0100
,
0001
0100
0010
0000
1000
0010
0001
0010
,
0100
0010
1000
0000
0001
1000
0001
0100
,
0001
0100
0010
0000
0000
0000
1001
0000
,
0000
0000
0000
0000
1000
0000
0000
1000
0000
0000
0001
0000
0000
0000
0001
0000
,
0000
1000
0010
0000
0010
0100
0000
0100
,
0001
0000
1000
0001
1000
0001
0100
0010
,
0100
0010
1000
0001
1000
0001
0100
0010
,
0100
0010
1000
0010
1000
0010
0100
0001
,
0100
0001
1000
0010
1000
0010
0100
0001
,
0100
0001
1000
0100
1000
0100
0010
0001
,
0010
0001
1000
0100
1000
0100
0010
0001
,
0010
0001
1000
0010
0001
0010
1000
0100
,
0001
0100
1000
0010
0001
0010
1000
0100
,
0001
0100
1000
0000
0000
0000
0000
0000
;

//---------------dance-single - ----------------
#NOTES:
     dance-single:
     :
     Easy:
     5:
     0.405,0.464,0.173,0.386,0.005: // measure 1
0000
0000
0000
0000
,  // measure 2
0000
0000
0000
0000
,  // measure 3
0000
0000
0000
0000
,  // measure 4
0000
0000
0000
0000
,  // measure 5
1000
0000
0001
0100
0000
0100
0010
0000
,  // measure 6
0100
0000
0001
1000
0000
1000
0100
0000
,  // measure 7
2000
0000
3000
0020
0000
0030
0100
0000
,  // measure 8
0001
0000
1000
0000
0010
0100
0010
0000
,  // measure 9
0100
0000
0001
0010
0000
0010
0100
0000
,  // measure 10
0010
0000
0100
1000
0000
1000
0001
0000
,  // measure 11
2000
0000
3000
0002
0000
0003
1000
0000
,  // measure 12
1000
0000
0001
0000
0001
0100
0001
0000
,  // measure 13
1001
0000
0010
0000
0000
1000
0000
0000
,  // measure 14
0001
2000
3000
0010
,  // measure 15
0200
0000
0300
0002
0000
0003
0010
0000
,  // measure 16
0010
0000
0100
0000
0100
1000
0100
0000
,  // measure 17
0110
0000
0001
0000
0000
0100
0000
0000
,  // measure 18
0010
0200
0300
0001
,  // measure 19
2000
0000
3000
0200
0000
0320
0000
0030
,  // measure 20
0000
0002
0000
0003
0000
2000
0000
3000
,  // measure 21
0000
1000
0010
0100
,  // measure 22
0010
0110
0001
0110
,  // measure 23
1000
0010
0100
0010
,  // measure 24
1000
1100
0001
1100
,  // measure 25
0010
0100
0001
0100
,  // measure 26
0010
1010
0100
1010
,  // measure 27
0001
1000
0001
0100
,  // measure 28
0001
1001
0010
1001
,  // measure 29
0100
0010
1000
0010
,  // measure 30
0100
0101
1000
0101
,  // measure 31
0010
1000
0100
1000
,  // measure 32
0001
0011
0100
0011
,  // measure 33
1000
0001
0100
0001
,  // measure 34
1000
1100
0001
1100
,  // measure 35
0010
1000
0001
0100
,  // measure 36
0010
1000
0100
0010
,  // measure 37
0001
0000
2000
0000
0000
0000
0000
3000
,  // measure 38
0000
0001
0200
0000
0000
0000
0000
0000
,  // measure 39
0000
0301
0020
0000
0000
0000
0000
0000
,  // measure 40
0000
0130
2000
0000
0000
0000
0000
0000
,  // measure 41
0000
3001
0020
0000
0000
0000
0000
0000
,  // measure 42
0000
0130
2000
0000
0000
0000
0000
0000
,  // measure 43
0000
3001
0020
0000
0000
0000
0000
0000
,  // measure 44
0000
0031
2000
0000
0000
0000
0000
0000
,  // measure 45
0000
3001
0200
0000
0000
1000
0000
0000
,  // measure 46
0000
0310
2000
0000
0000
0001
0000
0000
,  // measure 47
0000
3100
0020
0000
0000
0100
0000
0000
,  // measure 48
0000
0031
2000
0000
0000
0000
0000
0000
,  // measure 49
0000
3001
0100
0000
0000
0000
0000
0000
,  // measure 50
0000
0000
0000
0000
,  // measure 51
0000
0000
0000
0000
,  // measure 52
0000
0000
0000
0000
,  // measure 53
0000
1000
0002
0000
,  // measure 54
0000
0003
0100
0000
0020
0000
0000
0000
,  // measure 55
0000
0030
1000
0000
0200
0000
0000
0000
,  // measure 56
0000
0300
1000
0000
0002
0000
0000
0000
,  // measure 57
0000
0003
0010
0000
0200
0000
0000
0000
,  // measure 58
0000
0300
1000
0000
0020
0000
0000
0000
,  // measure 59
0000
0030
0100
0000
0002
0000
0000
0000
,  // measure 60
0000
0003
1000
0000
0020
0000
0000
0000
,  // measure 61
0000
0030
1000
0000
0200
0000
0000
0000
,  // measure 62
0000
0300
0010
0000
0002
0000
0000
0000
,  // measure 63
0000
0003
0100
0000
0020
0000
0000
0000
,  // measure 64
0000
0030
0100
0000
0002
0000
0000
0000
,  // measure 65
0000
0003
1000
0000
0200
0000
0000
0000
,  // measure 66
0000
0300
1000
0000
0000
0000
0001
0000
,  // measure 67
0000
0000
0000
0000
0100
0000
0000
1000
0000
0000
0001
0000
0000
0000
0010
0000
,  // measure 68
0000
0100
0001
0000
0010
0100
0000
1000
,  // measure 69
0010
1000
0100
1000
,  // measure 70
0100
0001
0100
0001
,  // measure 71
0100
1000
0010
1000
,  // measure 72
0010
0001
0010
0001
,  // measure 73
0010
1000
0001
0100
,  // measure 74
0010
1000
0001
0100
,  // measure 75
0010
1000
0100
0010
,  // measure 76
0001
1000
0010
0001
,  // measure 77
0010
1010
0000
0000
;
