#TITLE:ΕΛΠΙΣ;
#SUBTITLE:;
#ARTIST:dj TAKA;
#TITLETRANSLIT:Elpis;
#SUBTITLETRANSLIT:;
#ARTISTTRANSLIT:;
#GENRE:;
#CREDIT:;
#BANNER:elips.png;
#BACKGROUND:elips-bg.png;
#LYRICSPATH:;
#CDTITLE:;
#MUSIC:Elpis.mp3;
#OFFSET:-5.848600;
#SAMPLESTART:67.551453;
#SAMPLELENGTH:12.000000;
#SELECTABLE:YES;
#BPMS:0.000000=175.000000
;
#STOPS:
;
#BGCHANGES:;
#KEYSOUNDS:;
#ATTACKS:;

//---------------dance-single - ----------------
#NOTES:
     dance-single:
     :
     Hard:
     9:
     0.554217,0.625489,0.111694,0.178711,0.223389,482.000000,15.000000,24.000000,0.000000,0.000000,0.000000,0.554217,0.625489,0.111694,0.178711,0.223389,482.000000,15.000000,24.000000,0.000000,0.000000,0.000000:
1001
0000
0000
0000
0001
0000
0000
0100
0000
0000
0001
0000
0010
0000
0000
0000
,
0100
0000
0000
0000
1000
0000
0000
0010
0000
0000
0100
0000
0001
0000
0000
0000
,
1000
0000
0000
0000
0001
0000
0000
0100
0000
0000
0010
0000
0100
0000
0000
0000
,
0010
0000
0000
0000
1000
0000
0000
0001
0000
0000
0010
0000
0000
0000
0010
0000
,
0100
0000
1000
0000
0010
0000
0000
0100
0000
0000
0001
0000
0000
1000
0000
0000
,
0100
1000
0010
0100
0001
0010
0001
1000
,
0010
0000
0000
0100
0000
0000
0001
0000
0000
0010
0000
0000
0100
0000
0000
0000
,
1000
0100
0010
0100
1000
0001
0100
0010
,
1000
0010
0001
0010
1000
0100
0010
0001
,
1000
0100
0001
0100
1000
0001
0010
0100
,
1000
0001
0010
0000
0001
1000
0010
0000
,
1000
0001
0100
0001
1000
0100
0010
0001
,
0100
0000
0000
0100
0000
0000
0100
0000
0000
0100
0000
0000
0100
0000
0000
0000
,
0010
0100
0001
0010
0100
1000
0010
0100
,
0001
0000
0000
0001
0000
0000
0001
0000
0000
0001
0000
0000
0001
0000
0000
0000
,
1000
0001
0100
0001
1000
0010
0100
0010
,
1000
0100
0010
0100
1000
0001
0100
0010
,
1000
0001
0010
0001
1000
0010
0100
0001
,
1000
0010
0100
0000
0010
1000
0100
0000
,
1000
0010
0001
0010
1000
0001
0100
0010
,
2002
0000
0000
0000
,
0000
0000
0000
0000
,
3003
0000
0000
0000
,
0000
0000
0000
0000
,
1000
0001
0100
0001
0000
0100
0010
1000
,
0001
0000
0010
0000
0100
1000
0000
0000
1000
0001
0000
0000
0001
0100
0000
0000
,
0010
0000
0100
0001
0010
0000
0100
1000
,
0010
0100
0010
1000
,
0001
0100
0001
1000
0100
0010
0002
0000
,
0023
0230
2300
3002
,
0103
0001
0010
0100
0000
0010
0000
0001
,
0000
0000
0000
1000
0100
0000
0000
0000
0010
0000
0000
0000
0001
0000
0000
0000
,
1000
0100
0001
0100
0000
0010
0001
0100
,
0010
0000
1000
0000
0001
0100
0000
0000
0010
1000
0000
0000
1001
0000
0000
0000
,
0001
0100
0001
0010
1000
0010
0100
0010
,
0001
0100
0010
1000
,
0020
2030
3200
0302
,
0203
2300
3020
2030
,
3001
0000
0001
0100
0000
0001
0000
1000
,
0000
0000
0000
0000
1000
0100
0000
0000
0010
0000
0000
0000
0001
0000
0000
0000
,
1001
0000
0000
0000
1000
0100
0000
0000
0010
0000
0000
0000
0001
0000
0000
0000
,
1001
0000
0000
0000
1000
0100
0000
0000
0010
0000
0000
0000
0001
0000
0000
0000
,
1001
0000
1000
0100
0000
0010
0001
0000
0001
0100
0000
0010
,
1000
0001
0100
0001
1000
0100
1000
0001
0010
0100
1000
0001
,
0020
0000
0000
0000
,
0130
0000
0000
0100
0010
0000
0000
0010
0100
0000
1000
0000
0001
0000
0000
0000
,
0100
0001
1000
0100
0010
0100
1000
0001
,
0010
0100
0010
1000
0010
0100
0010
0100
,
1000
0001
0100
0001
1000
0001
0010
0100
,
1000
0000
0101
0000
0001
0100
0010
1000
,
0001
0000
0011
0000
0010
0100
1000
0001
,
0010
0100
1000
0100
0010
0100
1000
0001
,
0100
0001
0010
0100
1000
0001
0010
0100
,
1000
0000
0000
0010
0100
0000
0000
0000
0001
0000
0000
0000
0011
0000
0000
0000
,
0110
0000
0000
0100
1000
0000
0000
0000
0001
0000
0000
0000
1010
0000
0000
0000
,
1001
0000
0000
0001
0100
0000
0000
0000
0010
0000
0000
0000
1010
0000
0000
0000
,
0101
0000
0000
0001
0010
0000
0000
0000
0100
0000
0000
0000
1100
0000
0000
0000
,
1000
0000
0000
0001
0100
0000
0000
0000
0010
0000
1000
0000
0001
0000
0000
0000
,
0010
0000
0000
0100
1000
0000
0000
0000
0100
0000
0010
0000
0001
0000
0000
0000
,
1000
0000
0000
0010
0100
0000
0000
0000
0010
0000
1000
0000
0001
0000
0000
0000
,
1000
0001
0100
0001
0010
0100
0010
0001
1000
0010
0100
0001
,
0020
0000
0000
0130
0010
0001
0010
0001
,
0100
0010
0100
0001
1000
0100
1000
0100
,
0010
0000
0001
0000
1000
0000
0001
0000
0000
0000
0000
0000
0100
0000
0000
0100
0000
0000
0010
0000
0000
1000
0000
0000
,
0001
0010
1000
0010
0100
0100
0010
0001
,
1000
0010
0001
0010
0100
0010
1000
0001
,
0010
1000
0010
0001
0010
0100
0010
0001
,
1000
0010
0100
0001
0010
0100
0010
0001
,
1000
0010
1000
0001
0010
0100
0010
0001
,
2000
0000
3001
0100
1000
0100
0010
1000
,
0001
0000
0000
1000
0010
0000
0100
0000
0001
0000
0010
0000
0100
0000
1000
0000
,
0001
0000
1000
0100
0000
0100
0010
0000
0010
0001
0000
0001
,
0010
0000
0000
0000
0010
0000
0100
0000
0000
0000
0100
0000
1000
0000
0000
0010
0000
0000
0100
0000
0000
0001
0000
0000
,
0020
0000
0000
0130
0010
0001
1000
0001
,
0100
0000
0000
0010
1000
0000
0100
0000
1000
0000
0001
0000
0100
0000
0010
0000
,
1000
0100
1000
0020
0000
0230
0000
0301
,
0010
1000
0010
0200
0000
2300
0000
0002
,
0000
0000
0000
0000
,
0000
0000
0000
0000
,
0000
0000
0000
0000
,
3003
0000
0000
0000
;

//---------------dance-single - ----------------
#NOTES:
     dance-single:
     :
     Medium:
     7:
     0.387207,0.416992,0.096802,0.126587,0.029785,334.000000,13.000000,17.000000,0.000000,0.000000,0.000000,0.387207,0.416992,0.096802,0.126587,0.029785,334.000000,13.000000,17.000000,0.000000,0.000000,0.000000:
// measure 0
0001
0200
0020
0330
,  // measure 1
0100
0002
2000
3003
,  // measure 2
1000
0200
0020
0330
,  // measure 3
0010
0002
2000
3003
,  // measure 4
0101
0001
0100
0010
,  // measure 5
1000
0100
0010
0000
0010
0100
1000
0000
,  // measure 6
0001
0100
0001
1000
,  // measure 7
0100
0010
0001
0000
0001
1000
0010
0000
,  // measure 8
1000
0010
0001
0010
,  // measure 9
0100
0010
1000
0000
0001
0010
0100
0000
,  // measure 10
0010
0001
0100
1000
,  // measure 11
0100
0000
0010
0000
1000
0001
0100
0001
,  // measure 12
1000
0000
0000
0100
0000
0000
1000
0000
0000
0100
0000
0000
1000
0000
0000
0000
,  // measure 13
0100
0000
0000
0010
0000
0000
0100
0000
0000
0010
0000
0000
0100
0000
0000
0000
,  // measure 14
0010
0000
0000
0001
0000
0000
0010
0000
0000
0001
0000
0000
0010
0000
0000
0000
,  // measure 15
0001
0000
0000
1000
0000
0000
0001
0000
0000
1000
0000
0000
0001
0000
0000
0000
,  // measure 16
1000
0100
0010
0000
0100
0000
1000
0000
,  // measure 17
0010
0100
0001
0000
1000
0000
0010
0000
,  // measure 18
0100
0010
1000
0001
,  // measure 19
0010
0100
1000
0000
0100
0010
0001
1000
,  // measure 20
0020
0000
0000
0000
,  // measure 21
0000
0000
0000
0000
,  // measure 22
0000
0000
0000
0000
0000
0000
0000
0030
,  // measure 23
0000
0000
0000
0000
,  // measure 24
1001
0000
1000
0000
,  // measure 25
0001
1000
0100
1000
,  // measure 26
0001
0000
0100
0000
,  // measure 27
0001
1000
0100
1000
,  // measure 28
0001
0000
0100
0000
,  // measure 29
0010
0000
1000
0000
,  // measure 30
0010
0000
0100
0000
,  // measure 31
0001
0010
1000
0010
,  // measure 32
0110
0010
0001
1000
,  // measure 33
0010
0100
0100
0100
,  // measure 34
0001
1000
0100
1000
,  // measure 35
0001
0001
0010
0010
,  // measure 36
0011
0001
0010
0100
,  // measure 37
0010
0001
0010
0100
,  // measure 38
1000
0001
0100
0010
,  // measure 39
1000
0001
0010
0100
,  // measure 40
1001
0001
0010
0100
,  // measure 41
1001
0001
0010
0100
,  // measure 42
1001
0010
1001
0100
,  // measure 43
1001
0110
1001
0110
,  // measure 44
1001
0000
0000
0000
,  // measure 45
0002
0000
0203
0000
0310
1000
0010
0000
,  // measure 46
0200
0000
0320
0000
1030
0001
0010
0000
,  // measure 47
0100
0010
0001
0010
,  // measure 48
0100
0100
0010
0010
,  // measure 49
0001
0000
0100
0000
0010
1000
0010
0100
,  // measure 50
0001
0000
1000
0000
0010
1000
0001
0100
,  // measure 51
0010
0010
0100
0100
,  // measure 52
0001
1000
0100
0010
,  // measure 53
0001
0000
0010
0000
0100
1000
0010
0100
,  // measure 54
0001
0000
1000
0000
0001
0100
0010
1000
,  // measure 55
0010
0000
0100
0000
0010
1000
0001
0010
,  // measure 56
0100
0000
0010
0000
0100
0010
0001
1000
,  // measure 57
0010
0010
1000
1000
,  // measure 58
0001
0001
0100
0100
,  // measure 59
0001
0010
0100
1000
,  // measure 60
0001
0100
0010
1000
,  // measure 61
0010
0100
0001
0000
0100
0010
1000
0000
,  // measure 62
0010
0100
0010
1000
0001
1000
0010
0000
,  // measure 63
1000
0100
1000
0000
0100
0010
0100
0000
,  // measure 64
0010
0001
0010
0100
1000
0010
0100
0000
,  // measure 65
0010
0100
0001
0000
0001
0100
0010
0000
,  // measure 66
0100
0010
1000
0010
1000
0010
1000
0000
,  // measure 67
0010
0100
0001
0000
1000
0100
0010
0000
,  // measure 68
0100
1000
0010
0100
,  // measure 69
0002
0000
0000
1003
1000
0001
0100
0000
,  // measure 70
0001
1000
0100
0010
0001
0010
0100
1000
,  // measure 71
0010
0100
0001
0010
,  // measure 72
0100
0010
0001
1000
,  // measure 73
0020
0000
0000
0100
0130
0000
0010
0000
,  // measure 74
0100
0001
1000
0000
0001
0010
0100
0000
,  // measure 75
1000
0000
0100
1000
0000
0010
0000
0100
,  // measure 76
0010
1000
0001
0010
0000
0200
0000
2000
,  // measure 77
0000
0000
0000
0000
,  // measure 78
0000
0000
0000
0000
,  // measure 79
0000
0000
0000
0000
,  // measure 80
3300
0000
0000
0000
;

//---------------dance-single - ----------------
#NOTES:
     dance-single:
     :
     Easy:
     4:
     0.280832,0.344019,0.096802,0.059570,0.000000,243.000000,13.000000,8.000000,0.000000,0.000000,0.000000,0.280832,0.344019,0.096802,0.059570,0.000000,243.000000,13.000000,8.000000,0.000000,0.000000,0.000000:
0001
1000
0010
0000
,
1000
0001
0010
0000
,
0001
1000
0010
0000
,
1000
0001
0010
0000
,
0100
0100
0100
0100
,
0010
0001
1000
0010
,
0100
0100
0100
0100
,
0010
1000
0010
0100
,
0001
0010
0100
0010
,
0001
0010
0100
1000
,
0100
0010
0100
1000
,
0100
1000
0010
0100
,
0001
0001
0001
0001
,
0100
0001
1000
0010
,
0100
0100
0100
0100
,
0010
1000
0001
0010
,
0100
0010
0001
0010
,
0100
0010
0001
0010
,
0100
1000
0100
0010
,
0100
1000
0010
0100
,
1001
0000
0000
0000
,
0000
0000
0000
0000
,
0000
0000
0000
0000
,
0000
0000
0000
0000
,
1001
0000
0001
0000
,
0100
0000
0001
0000
,
0010
0000
0001
0000
,
1000
0000
0100
0000
,
1000
0000
0000
0000
,
0001
0000
0000
0000
,
0100
0000
0001
0000
,
1000
0000
0000
0000
,
1001
0000
0001
0000
,
1000
0100
1000
0010
,
0100
0000
0001
0000
,
0010
0000
0100
0000
,
2000
0000
0000
0000
,
3020
0000
0000
0000
,
0230
0000
0000
0000
,
0301
0100
0100
0100
,
0000
0100
0100
0100
,
0000
0100
0100
0100
,
1001
0000
0110
0000
,
1001
1001
1001
1001
,
2002
0000
0000
3003
,
1001
0001
1000
0100
,
1000
0001
1000
0010
,
1000
0001
0010
0001
,
0010
0100
1000
0100
,
0010
0100
1000
0010
,
0100
0001
1000
0010
,
1000
0001
0010
0100
,
0010
0010
0100
0100
,
1100
0100
0010
0001
,
0010
0100
0010
0001
,
1000
0001
0100
0001
,
1000
0001
1000
0001
,
1000
0100
1000
0010
,
1000
0010
0100
0001
,
1000
0001
0010
0100
,
0020
0000
0000
0000
,
0130
0000
0010
0001
,
1000
0010
1000
0001
,
0100
0001
0100
0001
,
0100
0100
0010
0010
,
0100
0001
1000
0100
,
1000
0010
0100
0001
,
1000
0100
0010
0100
,
1000
0001
0100
0001
,
2000
0000
3001
0100
,
0001
0010
0100
0010
,
0001
0001
0010
0010
,
0100
0100
1000
1000
,
0200
0000
1300
0010
,
0001
0010
0100
0001
,
1000
0100
1000
0010
,
0100
0001
0010
0100
,
1001
0000
0000
0000
;

//---------------dance-single - ----------------
#NOTES:
     dance-single:
     :
     Beginner:
     2:
     0.117013,0.229346,0.074463,0.000000,0.000000,100.000000,10.000000,0.000000,0.000000,0.000000,0.000000,0.117013,0.229346,0.074463,0.000000,0.000000,100.000000,10.000000,0.000000,0.000000,0.000000,0.000000:
0001
0000
0000
0000
,
1000
0000
0000
0000
,
0001
0000
0000
0000
,
1000
0000
0000
0000
,
1001
0000
0000
0000
,
0010
0000
0100
0000
,
0001
0000
0000
0000
,
1000
0000
0001
0000
,
0100
0000
0000
0000
,
0001
0000
1000
0000
,
0100
0000
0000
0000
,
1000
0000
0001
0000
,
0010
0000
0000
0000
,
0100
0000
0000
0000
,
0010
0000
0000
0000
,
1000
0000
0000
0000
,
0100
0000
0000
0000
,
1000
0000
0000
0000
,
0010
0000
0100
0000
,
0001
1000
0001
1000
,
1001
0000
0000
0000
,
0000
0000
0000
0000
,
0000
0000
0000
0000
,
0000
0000
0000
0000
,
0001
0000
0000
0000
,
1000
0000
0000
0000
,
0100
0000
1000
0000
,
0001
0000
0000
0000
,
0100
0000
0000
0000
,
0010
0000
0000
0000
,
1000
0000
0000
0000
,
0001
0000
0000
0000
,
1001
0000
0000
0000
,
0001
0000
0000
0000
,
0100
0000
0001
0000
,
0010
0000
0000
0000
,
0100
0000
0000
0000
,
0010
0000
0000
0000
,
0001
0000
0000
0000
,
0000
1000
1000
1000
,
0000
1000
1000
1000
,
0000
1000
1000
1000
,
1001
0000
0110
0000
,
1001
0000
0110
0000
,
0100
0000
0000
0000
,
0110
0000
0000
0000
,
0010
0000
0000
0000
,
1000
0000
0000
0000
,
0001
0000
0000
0000
,
0100
0000
0000
0000
,
0001
0000
0000
0000
,
0010
0000
0000
0000
,
0100
0000
0010
0000
,
0001
0000
0000
0000
,
1000
0000
0000
0000
,
0100
0000
0000
0000
,
1000
0000
0000
0000
,
0010
0000
0000
0000
,
0100
0000
0000
0000
,
0001
0000
0000
0000
,
1000
0000
0000
0000
,
1001
0000
0001
0000
,
0100
0000
0000
0000
,
0010
0000
0000
0000
,
1000
0000
0000
0000
,
0010
0000
0000
0000
,
0100
0000
0001
0000
,
1000
0000
0000
0000
,
0100
0000
0000
0000
,
1000
0000
0001
0000
,
0100
0000
0000
0000
,
0001
0000
0000
0000
,
1000
0000
0100
0000
,
0010
0000
0100
0000
,
1000
0000
0000
0000
,
0001
0000
0000
0000
,
1000
0000
0001
0000
,
1001
0000
0000
0000
;
