#TITLE:Wannabe At My Birthday Party?;
#SUBTITLE:Katy Perry vs. Cash Cash vs. Spice Girls vs. Avril Lavigne vs. Lesley Gore vs. 50 Cent;
#ARTIST:Titus Jones;
#TITLETRANSLIT:;
#SUBTITLETRANSLIT:;
#ARTISTTRANSLIT:;
#CREDIT:Lisek;
#BANNER:[Mash-up] - Wannabe At My Birthday Party.png;
#BACKGROUND:[Mash-up] - Wannabe At My Birthday Party-bg.png;
#LYRICSPATH:;
#CDTITLE:cdtitle.png;
#MUSIC:[Mash-up] - Wannabe At My Birthday Party.ogg;
#OFFSET:-0.259;
#SAMPLESTART:67.753;
#SAMPLELENGTH:14.580;
#SELECTABLE:YES;
#BPMS:0.000=128.000,176.000=64.000,192.000=128.000;
#STOPS:;
#BGCHANGES:0.000=[Mash-up] - Wannabe At My Birthday Party.avi=1.000=1=1=0,
256.000=[Mash-up] - Wannabe At My Birthday Party-bg.png=1.000=1=0=1,
99999=-nosongbg-=1.000=0=0=0 // don't automatically add -songbackground-
;

//---------------dance-single - Lisek----------------
#NOTES:
     dance-single:
     Lisek:
     Hard:
     8:
     0.439,0.463,0.259,0.273,0.089: // measure 1
0000
0000
0000
0000
,  // measure 2
0000
0000
0000
0000
,  // measure 3
1000
0001
1000
0001
,  // measure 4
0100
0010
1000
0001
,  // measure 5
1001
0001
1000
0100
1000
0010
0000
0000
,  // measure 6
0100
0001
0010
0100
0010
0000
0001
0000
,  // measure 7
1000
0010
0100
0010
1000
0100
0010
0000
,  // measure 8
0001
0000
0100
0001
0100
0000
0010
0000
0200
0000
0000
0000
0300
0000
0000
0000
,  // measure 9
0001
0010
0100
0010
0001
0020
0000
0030
,  // measure 10
0100
1000
0001
1000
0010
0000
0200
0000
,  // measure 11
0301
0000
1000
0000
0010
0000
1000
0001
0000
0000
0100
0000
0010
0000
1000
0000
,  // measure 12
0001
0000
0000
0010
0000
0000
0100
0000
0000
0000
1000
0000
0001
0000
0000
0000
,  // measure 13
0101
0000
0000
0000
1001
0000
0000
0000
0001
0000
0100
0010
0000
0000
1000
0000
,  // measure 14
0100
1000
0100
0000
0010
0000
0001
0000
1000
0001
0000
0000
0010
0000
0001
0000
,  // measure 15
0101
0000
0110
0000
0100
0100
0100
0200
,  // measure 16
0010
0300
0010
0000
1000
0001
1000
0000
,  // measure 17
1001
0000
0000
0000
1010
0000
0000
0000
1000
0000
0100
1000
0000
0000
0010
0000
,  // measure 18
1000
0001
1000
0000
0010
0000
0100
0000
0010
1000
0000
0000
1000
0000
0100
0000
,  // measure 19
1100
0000
1010
0000
0010
0010
0010
0020
,  // measure 20
0100
0130
0000
0100
0000
0100
0000
0000
,  // measure 21
0101
0001
1000
0200
0000
0300
0000
0000
,  // measure 22
0110
0010
0001
2000
0000
3000
0000
0000
,  // measure 23
1010
0010
0100
0002
0000
0003
0000
0000
,  // measure 24
0011
0001
0100
0020
0000
0030
0000
0000
,  // measure 25
1100
1000
0010
0000
0110
0100
0001
0000
,  // measure 26
0011
0010
0100
0000
1100
1000
0010
0000
,  // measure 27
0100
0001
0100
1000
0100
0001
0100
1000
,  // measure 28
0100
0000
0000
0000
,  // measure 29
1010
0000
0010
0100
0000
0001
0010
0100
,  // measure 30
0010
0001
1000
0100
0000
0110
0000
0020
,  // measure 31
0000
0001
0100
0031
0000
0011
0000
2000
,  // measure 32
0000
0100
0010
3100
0000
1100
0000
0000
,  // measure 33
0000
2000
3002
0203
,  // measure 34
0320
0000
1030
0001
0100
0010
2000
0000
,  // measure 35
0000
0000
3200
0000
0000
0000
0000
0000
0300
0000
0010
0001
0010
0000
0001
0000
,  // measure 36
0001
0000
1000
0001
0000
1001
0000
0000
,  // measure 37
1000
0010
0100
0010
1000
0000
0100
0000
0010
0000
0001
0000
0000
0000
0000
0001
,  // measure 38
0010
0100
0010
0001
2000
0000
3010
0000
,  // measure 39
0100
0001
0100
0010
0100
0001
0000
1000
,  // measure 40
0000
0100
0000
0000
0010
0000
0001
0000
0100
0000
0000
0000
0101
0000
0000
0000
,  // measure 41
0001
0100
0001
0010
0001
0000
1000
0000
0010
0000
0100
0000
0000
0000
0000
0000
,  // measure 42
0010
0100
1000
0100
0020
0000
1030
0000
,  // measure 43
0001
0010
0100
1000
0001
1000
0010
0100
,  // measure 44
0000
0001
0000
0000
1000
0000
0010
0000
0100
0000
0000
0000
0010
0000
0000
0000
,  // measure 45
2000
0000
0000
3000
1010
0000
0010
0000
0200
0000
0000
0300
0101
0000
0000
0000
,  // measure 46
0002
0000
0000
0003
1001
0000
0001
0000
2000
0000
0000
3000
1100
0000
0000
0000
,  // measure 47
0200
0000
0000
0300
0110
0000
0010
0000
0002
0000
0000
0003
0011
0000
0000
0000
,  // measure 48
0002
0000
0000
0003
1001
0000
0000
0000
1000
0010
0100
0001
1000
0000
0000
0000
,  // measure 49
1000
0000
0100
0000
1000
0000
0010
0000
0100
0000
0010
0000
0000
0000
0000
0010
,  // measure 50
0100
0010
1000
0000
,  // measure 51
0001
0010
0100
1000
0001
0010
0000
0100
,  // measure 52
0000
0010
0000
0000
0001
0000
1000
0000
0001
0000
0000
0000
0100
0000
0000
0000
,  // measure 53
0001
0010
0001
0100
0010
0000
0100
0000
,  // measure 54
0001
0010
0100
0010
,  // measure 55
0001
0000
0010
0000
0100
0000
0010
0000
0001
0000
0100
0000
0010
0100
0001
0100
,  // measure 56
0020
0000
0000
0030
,  // measure 57
0101
0000
0100
0010
0000
1000
0100
0010
,  // measure 58
0001
0010
0100
0010
0000
0110
0000
0200
,  // measure 59
0000
1000
0010
1300
0000
1100
0000
0002
,  // measure 60
0000
0010
0100
0013
0000
0011
0000
0000
,  // measure 61
0000
0002
2003
3020
,  // measure 62
0230
0000
0301
1000
0010
0100
0002
0000
,  // measure 63
0000
0000
0023
0000
0000
0000
0000
0000
0030
0000
0100
1000
0100
0000
1000
0000
,  // measure 64
1000
0000
0001
1000
0000
0010
0000
0000
,  // measure 65
2002
0000
0000
0000
,  // measure 66
0000
0000
0000
0000
,  // measure 67
3003
0000
0000
0000
;

//---------------dance-single - Lisek----------------
#NOTES:
     dance-single:
     Lisek:
     Beginner:
     1:
     0.072,0.146,0.015,0.030,0.000:
0000
0000
0000
0000
,
0000
0000
0000
0000
,
0000
0000
0000
0000
,
0000
0000
0000
0000
,
1000
0000
0000
0000
,
0001
0000
0000
0000
,
1000
0000
0000
0000
,
0001
0000
0000
0000
,
0100
0000
0000
0000
,
0010
0000
0000
0000
,
0100
0000
0000
0000
,
0010
0000
0000
0000
,
1000
0000
0000
0000
,
0100
0000
0000
0000
,
1000
0000
0000
0000
,
0100
0000
0000
0000
,
0010
0000
0000
0000
,
0001
0000
0000
0000
,
0010
0000
0000
0000
,
0001
0000
0000
0000
,
1000
0000
0000
0000
,
0001
0000
0000
0000
,
1000
0000
0000
0000
,
0001
0000
0000
0000
,
1000
0000
0001
0000
,
1000
0000
0001
0000
,
2002
0000
0000
0000
,
3003
0000
0000
0000
,
1000
0000
0000
0000
,
0001
0000
0000
0000
,
0100
0000
0000
0000
,
0010
0000
0000
0000
,
1000
0000
0000
0000
,
0100
0000
0000
0000
,
0010
0000
0000
0000
,
0001
0000
0000
0000
,
1000
0000
0000
0000
,
0001
0000
0000
0000
,
0100
0000
0000
0000
,
0001
0000
0000
0000
,
1000
0000
0000
0000
,
0010
0000
0000
0000
,
0100
0000
0000
0000
,
0010
0000
0000
0000
,
1000
0000
0000
0000
,
0001
0000
0000
0000
,
0100
0000
0000
0000
,
0010
0000
0000
0000
,
1000
0000
0000
0000
,
0100
0000
0000
0000
,
0010
0000
0000
0000
,
0001
0000
0000
0000
,
1000
0000
0000
0000
,
0010
0000
0000
0000
,
0100
0000
0000
0000
,
0001
0000
0000
0000
,
1000
0000
0000
0000
,
0100
0000
0000
0000
,
1000
0000
0000
0000
,
0001
0000
0000
0000
,
0100
0000
0000
0000
,
0010
0000
0000
0000
,
0100
0000
0000
0000
,
0001
0000
0000
0000
,
2002
0000
0000
0000
,
0000
0000
0000
0000
,
3003
0000
0000
0000
;

//---------------dance-single - Lisek----------------
#NOTES:
     dance-single:
     Lisek:
     Medium:
     5:
     0.247,0.317,0.007,0.126,0.004:
0000
0000
0000
0000
,
0000
0000
0000
0000
,
1000
0000
0001
0000
,
0100
0000
0010
0000
,
1000
0100
1000
0000
,
0010
0100
0001
0000
,
1000
0100
0010
0000
,
0001
0010
0100
0000
,
1000
0001
0010
0000
,
0001
1000
0010
0000
,
1000
0100
0010
0001
,
1000
0000
0000
0001
0000
0000
1000
0000
0000
0000
0000
0000
0000
0000
0000
0000
,
1000
0000
0001
0000
1000
0010
1000
0000
,
0001
0000
0100
0000
0010
1000
0010
0000
,
0100
0001
1000
0100
,
2000
0000
0000
3000
,
0001
0000
0010
0000
0001
0100
0001
0000
,
0100
0000
0010
0000
0100
0001
0100
0000
,
0001
1000
0010
0100
,
0020
0000
0000
0030
,
1000
0100
1000
0100
0000
0000
0000
0000
,
0001
0100
0001
0100
0000
0000
0000
0000
,
0001
0010
0001
0010
0000
0000
0000
0000
,
1000
0010
1000
0010
0000
0000
0000
0000
,
1000
0000
0010
0000
,
0100
0000
0001
0000
,
1000
0010
0100
0001
,
1000
0000
0000
0000
,
0001
0000
1000
0001
0000
0000
0100
0000
,
0010
1000
0010
1000
0000
0010
0000
0000
,
0100
0000
0100
0001
0000
0100
0000
0000
,
0010
0000
0010
1000
0000
0010
0000
0000
,
1000
0100
0010
0001
,
1000
0001
0010
0200
,
0000
2300
0000
0000
3000
0000
0000
0000
,
0001
0000
1000
0001
0000
1000
0000
0000
,
0001
0100
0001
0100
0010
0000
0000
0000
,
1000
0010
0100
0000
,
0010
0000
1000
0010
0100
0001
0000
0000
,
0010
0001
1000
0000
,
0001
0100
0001
0100
0010
0000
0000
0000
,
1000
0010
0100
0000
,
0010
1000
0010
0100
,
0001
0100
0010
0100
,
0002
0103
0020
0130
,
0002
0103
0020
0130
,
2000
3010
0200
0310
,
2000
3010
0200
0310
,
1000
0100
1000
0000
,
0001
0100
0010
0000
,
1000
0001
1000
0000
,
0001
0010
0100
0000
,
0010
0001
1000
0000
,
0001
0100
0010
0000
,
1000
0010
0100
0001
,
2000
0000
0000
3000
,
0010
0000
0100
0001
0000
0000
0010
0000
,
0100
1000
0100
1000
0000
0010
0000
0000
,
1000
0000
1000
0010
0000
1000
0000
0000
,
0100
0000
0100
0010
0000
0100
0000
0000
,
1000
0100
0010
0001
,
1000
0001
0010
0200
,
0000
2300
0000
0000
3000
0000
0000
0000
,
0001
0000
1000
0001
0000
1000
0000
0000
,
2002
0000
0000
0000
,
0000
0000
0000
0000
,
3003
0000
0000
0000
;

//---------------dance-single - Lisek----------------
#NOTES:
     dance-single:
     Lisek:
     Easy:
     2:
     0.143,0.244,0.081,0.081,0.000:
0000
0000
0000
0000
,
0000
0000
0000
0000
,
1000
0000
0000
0000
,
0001
0000
0000
0000
,
1000
0000
0010
0000
,
1000
0000
0010
0000
,
0100
0000
0001
0000
,
0100
0000
0001
0000
,
1000
0000
0100
0000
,
1000
0000
0100
0000
,
0010
0000
0001
0000
,
1000
0001
0000
0000
,
1000
0000
0010
0000
,
0100
0000
0010
0000
,
1000
0000
0002
0000
,
0003
0000
0000
0000
,
1000
0000
0010
0000
,
0100
0000
0010
0000
,
1000
0000
0002
0000
,
0003
0000
0000
0000
,
1001
0000
0000
0000
,
0110
0000
0000
0000
,
1001
0000
0000
0000
,
0110
0000
0000
0000
,
1001
0000
1001
0000
,
0110
0000
0110
0000
,
2002
0000
0000
0000
,
3003
0000
0000
0000
,
1000
0000
0001
0000
,
0100
0000
0001
0000
,
1000
0000
0010
0000
,
0100
0000
0010
0000
,
1000
0000
0100
0000
,
0010
0000
0001
0000
,
1000
0000
0001
0000
,
2000
0000
3000
0000
,
0001
0000
0100
0000
,
0001
0001
0001
0000
,
1000
0000
0010
0000
,
1000
1000
1000
0000
,
0001
0000
0100
0000
,
0001
0001
0001
0000
,
1000
0000
0010
0000
,
1000
0000
0001
0000
,
2000
0000
0000
3000
,
0020
0000
0000
0030
,
0200
0000
0000
0300
,
0002
0000
0000
0003
,
1000
1000
1000
0000
,
0010
0000
0100
0000
,
0001
0001
0001
0000
,
1000
0000
0001
0000
,
1000
1000
1000
0000
,
0100
0000
0010
0000
,
0001
0001
0001
0000
,
1001
0000
0000
0000
,
1000
0000
0001
0000
,
0100
0000
0010
0000
,
0100
0000
0001
0000
,
1000
0000
0100
0000
,
1000
0000
0001
0000
,
0010
0000
0100
0000
,
1000
0000
0001
0000
,
0100
0000
0001
0000
,
2002
0000
0000
0000
,
0000
0000
0000
0000
,
3003
0000
0000
0000
;
