#TITLE:No Sleep;
#SUBTITLE:;
#ARTIST:Toy Box;
#TITLETRANSLIT:;
#SUBTITLETRANSLIT:;
#ARTISTTRANSLIT:;
#GENRE:;
#CREDIT:;
#BANNER:No Sleep - Toy Boxbn.png;
#BACKGROUND:No Sleep - Toy Boxbg.png;
#LYRICSPATH:No Sleep - Toy Box.lrc;
#CDTITLE:encorerebirth.png;
#MUSIC:No Sleep - Toy Box.ogg;
#OFFSET:-0.005;
#SAMPLESTART:61.340;
#SAMPLELENGTH:15.280;
#SELECTABLE:YES;
#BPMS:0.000=125.000
;
#STOPS:
;
#BGCHANGES:;
#KEYSOUNDS:;
#ATTACKS:;

//---------------dance-single - Spork!----------------
#NOTES:
     dance-single:
     :
     Beginner:
     1:
     0.089,0.127,0.008,0.095,0.000,66.000,1.000,12.000,0.000,0.000,0.000,0.089,0.127,0.008,0.095,0.000,66.000,1.000,12.000,0.000,0.000,0.000:
0000
0000
0000
0000
,
0000
0000
0000
0000
,
0000
0000
0000
0000
,
0000
0000
0000
0000
,
0002
0000
0000
0000
,
0003
0000
0000
0000
,
2000
0000
0000
0000
,
3000
0000
0000
0000
,
0010
0000
0000
0000
,
0010
0000
1000
0000
,
0001
0000
0000
0000
,
0001
0000
1000
0000
,
0100
0000
0000
0000
,
0100
0000
1000
0000
,
0010
0000
0000
0000
,
0100
0000
0000
0000
,
0001
0000
0000
0000
,
0001
0000
0000
0000
,
1000
0000
0000
0000
,
1000
0000
0000
0000
,
0001
0000
0000
0000
,
0010
0000
0000
0000
,
0100
0000
0000
0000
,
1000
0000
0000
0000
,
0001
0000
0100
0000
,
0001
0000
0000
0000
,
1000
0000
0100
0000
,
1000
0000
0000
0000
,
0001
0000
1000
0000
,
0001
0000
2000
0000
,
0002
0000
0000
0000
,
3003
0000
0000
0000
,
0000
0100
0100
0100
,
0100
0000
0000
0000
,
0000
0010
0010
0010
,
0010
0000
0000
0000
,
1000
0000
0000
0000
,
0100
0000
0000
0000
,
0010
0000
0000
0000
,
0001
0000
1000
0000
,
0002
0000
0000
0000
,
0003
0000
0000
0000
,
0200
0000
0000
0000
,
0300
0000
0000
0000
,
0020
0000
0000
0000
,
0030
0000
0000
0000
,
2000
0000
0000
0000
,
3000
0000
0000
0000
,
2000
0000
0000
0000
,
3000
0000
0000
0000
,
0200
0000
0000
0000
,
0300
0000
0000
0000
,
0020
0000
0000
0000
,
0030
0000
0000
0000
,
0002
0000
0000
0000
,
0003
0000
0000
0000
,
0100
0000
0000
0000
,
0100
0000
0001
0000
,
0010
0000
0000
0000
,
0010
0000
0001
0000
,
1000
0000
0000
0000
,
0001
0000
1000
0000
,
0010
0000
0000
0000
,
0010
0000
1000
0000
,
1001
0000
0000
0000
;

//---------------dance-single - Spork!----------------
#NOTES:
     dance-single:
     :
     Easy:
     3:
     0.217,0.228,0.095,0.174,0.000,158.000,12.000,22.000,0.000,0.000,0.000,0.217,0.228,0.095,0.174,0.000,158.000,12.000,22.000,0.000,0.000,0.000:
0000
0000
0000
0000
,
0000
0000
0000
0000
,
0000
0000
0000
0000
,
0000
0000
0000
0000
,
0010
1000
1000
0001
,
0001
0000
0100
0000
,
0100
0001
0001
1000
,
1000
0000
0010
0000
,
2001
0001
0000
3100
,
0100
1000
0100
0010
,
0001
1000
0000
0010
,
1000
0001
0100
0010
,
1002
1000
0000
0013
,
0010
0001
0010
0100
,
1000
0001
0000
0001
,
0001
1000
0001
1000
,
2000
0000
3010
1000
,
0200
0000
0310
0000
,
0020
0000
0130
1000
,
0002
0000
1003
0000
,
0002
0000
0103
0001
,
0020
0000
0130
0000
,
0200
0000
0310
0001
,
2000
0000
3001
0001
,
0100
0000
0010
0000
,
1000
0001
0010
0000
,
0100
0000
0010
0000
,
0001
1000
0010
0000
,
1000
0000
0001
0000
,
0010
0001
0100
0000
,
0001
0001
1000
1000
,
0100
0000
0100
0000
,
1001
0100
0100
0010
,
0010
1000
0002
0000
,
1003
0010
0010
0100
,
0100
0001
2000
0000
,
3001
0000
0010
0000
,
0200
0000
0300
0000
,
1000
0000
0010
0000
,
0100
0001
2000
0000
,
3002
0000
0000
0000
,
0000
0000
0000
0000
,
0023
0000
0000
0000
,
0000
0000
0000
0000
,
0230
0000
0000
0000
,
0000
0000
0000
0000
,
2300
0000
0000
0000
,
0001
0001
0001
3001
,
2000
0000
0000
0000
,
3020
0000
0000
0000
,
0230
0000
0000
0000
,
0302
1000
1000
1000
,
1003
0100
0000
0100
,
1000
0001
0000
0010
,
0001
1000
0000
0010
,
1000
0100
0010
0010
,
1001
1001
0000
0100
,
0001
0010
0001
1000
,
1001
1001
0000
0000
,
0010
1000
0100
0010
,
0110
0110
0000
0001
,
1000
0100
1000
0010
,
0110
0110
0000
1000
,
0001
0000
0100
0000
,
1001
0000
0000
0000
;

//---------------dance-single - Spork!----------------
#NOTES:
     dance-single:
     :
     Medium:
     6:
     0.327,0.279,0.285,0.151,0.000,234.000,36.000,19.000,0.000,0.000,0.000,0.327,0.279,0.285,0.151,0.000,234.000,36.000,19.000,0.000,0.000,0.000:
0000
0000
0000
0000
,
0000
0000
0000
0000
,
0000
0000
0000
0000
,
0000
0000
0000
0000
,
0010
0001
0101
1000
,
1200
0000
0010
0310
,
0100
1000
1010
0001
,
0021
0000
0130
0000
,
0010
0000
0001
0000
0000
1000
0000
0001
,
0000
1000
0000
0000
1010
0000
0101
0000
,
0010
0000
1000
0000
0000
0001
0000
1000
,
0000
0001
0000
0000
0011
0000
1100
0000
,
1000
0000
0001
0000
0000
0100
0000
0010
,
0000
0100
0000
0000
1010
0000
1001
0000
,
0001
0000
1000
0000
0000
0100
0000
0010
,
0000
0100
0000
0000
0011
0000
1001
0000
,
1000
0100
0010
0001
,
1000
0010
1000
1000
,
0001
0100
0010
1000
,
0001
0000
0010
0000
0001
1000
0001
0000
,
0001
0010
0100
1000
,
0001
0100
0001
0001
,
1000
0100
0010
0001
,
1000
0000
0100
0000
1000
0001
1000
0001
,
0100
0000
0110
0000
0010
1000
0001
0000
,
0010
0001
0200
0000
,
0301
0000
1001
0000
1000
0010
0100
0000
,
0001
1000
0020
0000
,
1030
0100
1000
0000
0100
0010
0100
0000
,
0010
0000
0001
1000
0002
0000
0000
0000
,
0103
0001
1000
0010
,
0220
0000
0000
0330
,
0010
1000
1100
0001
,
0101
0000
0100
0000
0001
1000
0010
0000
,
0100
0001
0011
1000
,
1010
0000
0010
0000
1000
0001
0010
0000
,
0001
0100
0010
1000
,
0002
0000
1003
0001
,
1000
0010
0100
0001
,
2000
0000
0001
0000
3001
1000
0001
0000
,
1000
0000
0200
0000
0000
1300
0000
0000
,
0001
0000
0200
0000
0000
0301
0000
0000
,
1000
0000
0020
0000
0000
1030
0000
0000
,
0002
0010
1000
0103
,
0100
0000
0020
0000
0000
0130
0000
0000
,
0001
0000
0020
0000
0000
0031
0000
0000
,
1000
0000
0200
0000
0000
1300
0000
0000
,
2000
0100
0001
3010
,
1001
0000
0100
0000
0010
1000
0000
1000
,
0010
0000
0100
0000
0001
0010
0000
0010
,
0001
0000
1000
0000
0010
0100
0000
0100
,
0002
1000
0100
0013
,
1001
0000
0100
0000
0010
0001
0000
0001
,
0010
0000
0100
0000
1000
0010
0000
0010
,
1000
0000
0001
0000
0010
0100
0000
0100
,
2000
0001
0010
3100
,
0110
0000
0110
0000
0000
0001
0000
1000
,
0000
0001
0000
0000
1001
0000
1001
0000
,
0110
0000
0110
0000
0000
1000
0000
0001
,
0000
1000
0000
0000
0110
0000
1001
0000
,
1100
0000
1100
0000
0000
0100
0000
0010
,
0000
0100
0000
0000
1001
0000
0110
0000
,
0101
0000
0101
0000
0000
0010
0000
0100
,
0000
0010
0000
0000
0001
0000
1000
0000
,
1001
0000
0000
0000
;

//---------------dance-single - Spork!----------------
#NOTES:
     dance-single:
     :
     Challenge:
     9:
     0.578,0.511,0.436,0.388,0.131,407.000,55.000,49.000,12.000,6.000,4.000,0.578,0.511,0.436,0.388,0.131,407.000,55.000,49.000,12.000,6.000,4.000:
0000
0000
0000
0000
,
0000
0000
0000
0000
,
0000
0000
0000
0000
,
0000
0000
0000
0000
,
0201
0000
0301
0010
1000
0010
0001
0100
,
00M0
0100
1000
0100
0010
0001
0100
0010
,
1020
0000
1030
0100
0001
0100
1000
0010
,
0M00
0000
0010
0000
0001
0000
0010
0000
0100
0000
0100
0010
0100
0000
1000
0000
,
1001
0000
0000
0000
1010
0000
0000
0010
0100
0000
0002
0000
0013
0000
0100
0000
,
M000
0100
0001
0010
0100
2000
3001
0100
,
1001
0000
0000
0000
0011
0000
0000
0100
0010
0000
2000
0000
3100
0000
0010
0000
,
000M
0010
1000
0100
0010
0200
1300
0001
,
0110
0000
0000
0000
0101
0000
0000
0010
0100
0000
2000
0000
3010
0000
0100
0000
,
000M
0100
1000
0010
0100
0002
1003
0100
,
0110
0000
0000
0000
1100
0000
0000
0100
0010
0000
0002
0000
0103
0000
0010
0000
,
M000
0010
0001
1000
0010
0010
0010
0010
,
0210
0000
0000
0000
0001
0000
0300
0001
0010
0000
0010
0000
0100
0000
1000
0000
,
0020
0000
0000
0000
1000
0000
0030
1000
0100
0000
0100
0000
1000
0000
0001
0000
,
0200
0000
0000
0000
0310
0000
0000
0010
0100
0000
0100
0000
0001
0000
0010
0000
,
0020
0000
0000
0000
0130
0000
0000
0100
1000
0000
1000
0000
0001
0000
0100
0000
,
0002
0000
0000
0000
0013
0000
0000
0010
0100
0000
0100
0000
0001
0000
0100
0000
,
2000
0000
0000
0000
3010
0000
0000
0010
0100
0000
0100
0000
1000
0000
0100
0000
,
0002
0000
0000
0000
1003
0000
0000
1000
0010
0000
0010
0000
0001
0000
0010
0000
,
2000
0000
0000
0000
3001
0000
0000
0001
0010
0000
0010
0000
0010
0000
0010
0000
,
0100
0010
0011
0001
0100
0010
1010
0010
,
0100
0001
0010
0100
2000
0001
3001
0010
,
0001
0100
1000
0100
0010
1000
0100
0001
,
0100
0010
0001
1000
0020
0100
0130
0000
,
0010
1000
1100
0100
0010
0001
0101
0100
,
0010
1000
0010
0100
0002
1000
1003
0001
,
0011
0000
0101
0000
0110
0000
1010
1000
,
2200
0000
0000
0000
3300
0000
1000
0000
0010
0000
0100
0010
0100
0000
0001
0000
,
1001
0001
0011
0001
0101
0001
0011
0001
,
0101
0000
1000
0010
0001
0200
1300
0000
,
1001
1000
1100
1000
1010
1000
1100
1000
,
1010
0000
0001
0100
1000
0020
0031
0000
,
0120
0000
1030
0100
0010
0100
1000
0200
,
0001
0010
0010
1300
,
0120
0000
0031
0100
0010
0100
0001
0200
,
1000
0000
0301
0010
1000
0200
0301
0000
,
0101
0000
0202
0000
0000
1000
0303
0001
,
1001
0000
2002
0000
0000
0010
3003
1000
,
1100
0000
2200
0000
0000
0001
3300
0100
,
0110
0000
0000
0000
0110
0000
0000
0010
0001
0000
0001
0000
0001
0000
0001
0000
,
1100
0000
0202
0000
0000
0010
0303
0001
,
0011
0000
2020
0000
0000
0001
3030
1000
,
1001
0000
0220
0000
0000
1000
0330
0010
,
0110
0000
0000
0000
0110
0000
0000
0010
1000
0000
1000
0000
1000
0000
1000
0000
,
0001
0010
1000
0010
0100
0020
003M
0010
,
1000
0100
0001
0100
0010
0200
M300
0100
,
0001
0010
1000
0010
0001
0200
030M
0100
,
1000
0010
0001
0010
1000
0100
0001
0100
,
1000
0000
0001
0000
0100
0000
0010
0100
0001
0000
0020
0000
0130
M000
0100
0000
,
0001
0000
1000
0000
0010
0000
0100
0010
1000
0000
0200
0000
0310
000M
0010
0000
,
1000
0000
0001
0000
0010
0000
0100
0010
0001
0000
0200
0000
0310
M000
0010
0000
,
0110
0000
0000
0000
0110
0000
0000
0100
1000
0000
1000
0000
1000
0000
1000
0000
,
0001
0100
0000
0110
0000
0040
0000
1000
,
0000
0000
0000
0001
0000
0000
0130
0000
0001
0000
0010
0001
0100
0000
0010
1000
,
0100
0010
0000
0110
0000
0400
0000
1000
,
0000
0000
0000
0001
0000
0000
0310
0000
0001
0000
1000
0010
0100
0000
0001
0010
,
0100
0010
0000
1001
0000
0400
0000
0001
,
0000
0000
0000
1000
0000
0000
0310
0000
1000
0000
0100
1000
0010
0000
0100
0001
,
0010
0100
0000
1001
0000
0040
0000
0001
,
0130
0000
0010
0000
0001
0000
0100
0000
0010
0000
0010
0100
0010
0000
1000
0000
,
2002
0000
3003
0000
;

//---------------dance-single - Spork!----------------
#NOTES:
     dance-single:
     :
     Hard:
     7:
     0.448,0.409,0.246,0.341,0.008,322.000,31.000,43.000,0.000,0.000,0.000,0.448,0.409,0.246,0.341,0.008,322.000,31.000,43.000,0.000,0.000,0.000:
0000
0000
0000
0000
,
0000
0000
0000
0000
,
0000
0000
0000
0000
,
0000
0000
0000
0000
,
0010
0001
1001
0100
,
1001
0001
0010
0100
1000
0000
0010
0000
,
0010
1000
1001
0010
,
1001
1000
0100
0010
0001
0000
1000
0000
,
0001
0100
0001
0100
0001
0010
0001
0010
,
0100
0010
0100
0010
0001
0000
1001
0000
,
1000
0010
1000
0010
0100
0010
0100
0010
,
1000
0100
1000
0100
0010
0000
0010
0001
,
1000
0100
1000
0100
1000
0010
1000
0010
,
0100
0010
0100
0010
1000
0000
1001
0000
,
0001
0010
0001
0010
0100
0010
0100
0010
,
0001
0100
0001
0100
0110
0000
0110
0000
,
2000
3001
0100
0001
,
0020
0000
0130
0000
0010
0001
0100
0000
,
0002
1003
0010
1000
,
0200
0000
0310
0000
0100
1000
0001
0000
,
0200
0000
0310
0000
1000
0010
0100
0100
,
0020
0000
0130
0000
0001
1000
0100
0000
,
0200
0000
0310
0000
0001
0010
0100
0100
,
0020
0000
0130
0000
0010
0001
1000
0000
,
1000
0100
1000
0001
1000
0010
1000
0100
,
0100
1000
0010
0100
0001
0000
1000
0000
,
0001
0100
0001
1000
0001
0010
0001
0100
,
0100
0001
0010
0100
1000
0000
0001
0000
,
1000
0100
0010
0001
0100
0010
1000
0010
,
0100
0001
0010
0100
1000
0000
0001
0000
,
0101
1001
1100
0110
,
2002
0000
3003
0000
,
0100
0010
1020
0130
,
0021
0000
0130
1000
0001
1000
0010
0000
,
0010
0100
0201
0310
,
1200
0000
0310
0001
1000
0001
0100
0000
,
0020
1000
0100
0001
,
2030
0001
0001
3001
,
0020
0001
0100
1000
,
0031
0000
0100
0001
1000
0001
0010
0000
,
0002
0000
0200
0003
0000
0010
0000
0010
,
0320
0000
2000
0030
0000
0001
0000
0001
,
3002
0000
0020
0003
0000
0100
0000
0100
,
0230
0000
0010
0300
0011
0000
1001
0000
,
2000
0000
0020
3000
0000
0100
0000
0100
,
0230
0000
0002
0300
0000
1000
0000
1000
,
2003
0000
0200
3000
0000
0010
0000
0010
,
0320
0000
0100
0030
1100
0000
1001
0000
,
0001
0100
0001
0100
0010
1000
0000
0001
,
1000
0100
1000
0100
0010
0001
0000
1000
,
0001
0010
0001
0010
0100
1000
0000
0001
,
2000
0000
0010
3000
0110
0000
1001
0000
,
1000
0010
1000
0010
0100
0001
1000
1000
,
0001
0010
0001
0010
0100
1000
0001
0001
,
1000
0100
1000
0100
0010
0001
1000
1000
,
0002
0000
0100
0003
0110
0000
1001
0000
,
2000
0000
0020
0000
0030
3100
0000
0110
,
0000
0000
0001
1000
0000
0000
0010
0000
0100
0000
0000
0000
0100
0000
0000
0000
,
0002
0000
2000
0000
3000
0013
0000
0011
,
0000
1010
0000
1000
0100
0000
0100
0000
,
2000
0000
0200
0000
0300
3010
0000
0110
,
0000
0000
0001
1000
0000
0000
0100
0000
0010
0000
0000
0000
0010
0000
0000
0000
,
0002
0000
2000
0000
3000
0103
0000
0101
,
0001
1000
0000
0000
0100
0000
0010
0000
,
2002
0000
3003
0000
;

//---------------dance-double - Spork!----------------
#NOTES:
     dance-double:
     :
     Medium:
     5:
     0.293,0.281,0.182,0.174,0.000,214.000,23.000,22.000,0.000,0.000,0.000,0.293,0.281,0.182,0.174,0.000,214.000,23.000,22.000,0.000,0.000,0.000:
00000000
00000000
00000000
00000000
,
00000000
00000000
00000000
00000000
,
00000000
00000000
00000000
00000000
,
00000000
00000000
00000000
00000000
,
00000100
00000001
00000010
00001000
,
00020000
00000000
00031000
01000000
,
00100000
10000000
01000000
00010000
,
00002000
00000000
00023000
00000000
,
00030100
00001100
00000000
00000100
,
00001000
00000001
00000100
00000010
,
00010000
00011000
00000000
00001000
,
01000000
00100000
10000000
00010000
,
00100000
00110000
00000000
00100000
,
00010000
10000000
00100000
01000000
,
00001000
00011000
00000000
00010000
,
00000200
00000000
00020300
00000000
,
00030001
00000100
00000001
00000001
,
00001000
00000010
00001000
00000000
,
00001000
00000100
00000010
00000100
,
00020000
00000000
00032000
00000000
,
10003000
01000000
10000000
10000000
,
00010000
00100000
00010000
00000000
,
00010000
01000000
00100000
01000000
,
00002000
00000000
00000000
00000000
00013000
00001000
00010000
00000000
,
00000100
00000010
00000001
00000100
,
00001000
00000100
00000010
00011000
,
00100000
01000000
10000000
00100000
,
00010000
00100000
01000000
00011000
,
01000000
00100000
10000000
01000000
,
00010000
01000000
00100000
00011000
,
00020000
00030020
00000230
00000302
,
00002003
00000000
00003001
00000000
,
00001000
00000010
00000110
00000010
,
00001010
00001000
00000100
01000000
,
00010000
00100000
01100000
00100000
,
00110000
00010000
01000000
00000100
,
00010000
00010000
00001000
00010000
,
00020000
00000000
00030010
00010000
,
00001000
00001000
01000000
00001000
,
00001000
00010000
00000010
00100000
,
00001000
00002000
00000000
00013000
,
01000000
02000000
00000000
03100000
,
00001000
00002000
00000000
00003100
,
00000010
00000010
00010000
00001000
,
00010000
00020000
00000000
00031000
,
00000100
00000200
00000000
00001300
,
00010000
00020000
00000000
01030000
,
00100000
00100000
00001000
00010000
,
00001000
00000000
01000000
00000000
00000000
01000000
00000000
01000000
,
00010000
00000000
00100000
00000000
00000000
00100000
00000000
00100000
,
00001000
00000000
00010000
00000000
00000000
00010000
00000000
00010000
,
01000000
00010000
00001000
00001000
,
00010000
00000000
00000010
00000000
00000000
00001010
00000000
00000010
,
00001000
00000000
00000100
00000000
00000000
00010100
00000000
00000100
,
00010000
00000000
00001000
00000000
00000000
00011000
00000000
00001000
,
00000010
00001000
00010000
00010000
,
00011000
00011000
00000000
00001000
,
01000000
00100000
10000000
01000000
,
01100000
01100000
00000000
00010000
,
10000000
00100000
00010000
00001000
,
00011000
00011000
00000000
00010000
,
00000010
00000100
00000001
00000010
,
00000110
00000110
00000000
00001000
,
00000001
00000000
00000100
00001000
,
00022000
00000000
00033000
00000000
;

//---------------dance-double - Spork!----------------
#NOTES:
     dance-double:
     :
     Easy:
     3:
     0.222,0.230,0.111,0.206,0.000,156.000,14.000,26.000,0.000,0.000,0.000,0.222,0.230,0.111,0.206,0.000,156.000,14.000,26.000,0.000,0.000,0.000:
00000000
00000000
00000000
00000000
,
00000000
00000000
00000000
00000000
,
00000000
00000000
00000000
00000000
,
00000000
00000000
00000000
00000000
,
10000000
01000000
00100000
00010000
,
01000000
00000000
00000000
00000000
,
00000001
00000010
00000100
00001000
,
00000010
00000000
00000000
00000000
,
00012000
00000000
01000000
00000000
,
00010000
00000000
00103000
00001000
,
00020000
00000000
00000100
00000000
,
00001000
00000000
00030010
00000010
,
00021000
00000000
00000010
00000000
,
00001000
00000000
00030100
00010000
,
00002000
00000000
00100000
00000000
,
00010000
00000000
01003000
01000000
,
00100000
10000000
01000000
00000000
,
00100000
00010000
01000000
00000000
,
00100000
10000000
00010000
00100000
,
00002000
00000000
00023000
00000000
,
00030100
00001000
00000010
00000000
,
00000100
00000001
00000010
00000000
,
00000100
00001000
00000010
00010000
,
00002000
00000000
00013000
00010000
,
00001000
00000000
10010000
00000000
,
10000000
00010000
00100000
01000000
,
00010000
00000000
00001001
00000000
,
00000001
00000100
00000010
00000000
,
00011000
00000000
00000100
00000000
,
00011000
00000000
01000000
00000000
,
00100000
01000000
00010000
10000000
,
20020000
00000000
30030000
00000000
,
10000000
00100000
01000000
00010000
,
00100000
00002000
00010000
00003010
,
00000001
00000100
00000010
00001000
,
00000100
00020000
00001000
01030000
,
01100000
00000000
00011000
00000000
,
00000110
00000000
00001000
00000001
,
00000110
00000000
00011000
00000000
,
01100000
00010000
10000000
01000000
,
02000000
00000000
00000000
00000000
,
03200000
00000000
00000000
00000000
,
00300020
00000000
00000000
00000000
,
00000130
00000001
00001000
00000001
,
00000020
00000000
00000000
00000000
,
00000230
00000000
00000000
00000000
,
02000300
00000000
00000000
00000000
,
03100000
10000000
00010000
10000000
,
00200000
00000000
01300000
00000000
,
00002000
00000000
00013000
00000000
,
00000200
00000000
00000310
00000000
,
00000001
00001000
00000001
00000001
,
00000200
00000000
00000310
00000000
,
00020000
00000000
00031000
00000000
,
00200000
00000000
01300000
00000000
,
10000000
00010000
10000000
10000000
,
00100000
00000000
00100000
00000000
,
00100000
00000000
00100000
00001000
,
00000010
00000000
00001000
00000000
,
00000001
00000000
00001000
00000000
,
00000100
00000000
00000100
00000000
,
00000100
00000000
00000100
00010000
,
01000000
00000000
00010000
00000000
,
00020000
00000000
00030010
00010000
,
00022000
00000000
00033000
00000000
;

//---------------dance-double - Spork!----------------
#NOTES:
     dance-double:
     :
     Hard:
     8:
     0.456,0.409,0.285,0.198,0.016,342.000,36.000,25.000,0.000,0.000,0.000,0.456,0.409,0.285,0.198,0.016,342.000,36.000,25.000,0.000,0.000,0.000:
00000000
00000000
00000000
00000000
,
00000000
00000000
00000000
00000000
,
00000000
00000000
00000000
00000000
,
00000000
00000000
00000000
00000000
,
00000100
00000001
00000010
00000001
00000100
00000001
00000010
00000001
,
00000100
00000100
00001000
00010000
,
00100000
10000000
01000000
10000000
00100000
10000000
01000000
10000000
,
00100000
00000000
00000000
00000000
00100000
00000000
00000000
00000000
00010000
00000000
00000000
00010000
00001000
00000000
00000000
00000000
,
00011000
00000000
00010100
00000000
00001000
00000010
00000100
00000001
,
00000010
00000100
00010000
00000010
00001000
00000000
00001000
00000100
,
00011000
00000000
01001000
00000000
00010000
00100000
01000000
10000000
,
00100000
01000000
00001000
00100000
00010000
10000000
00100000
00010000
,
00011000
00000000
00101000
00000000
00010000
01000000
00100000
10000000
,
01000000
00100000
00001000
01000000
00010000
00000000
00010000
00100000
,
00011000
00000000
00010010
00000000
00001000
00000100
00000010
00000001
,
00000100
00000010
00010000
00000100
00001000
00001000
00001000
00001000
,
00000001
00000000
00000010
00000001
00000000
00000100
00000000
00001000
,
00000000
01000000
00000000
00010000
00000000
00010000
00100000
01000000
,
10000000
00000000
00010000
10000000
00000000
01000000
00000000
00010000
,
00001000
00000000
00000000
00000000
00001000
00000000
00000000
01000000
00100000
00000000
10000000
00000000
00010000
00000000
00010000
00000000
,
10000000
00000000
01000000
10000000
00000000
00100000
00000000
00010000
,
00000000
00000010
00000000
00001000
00000000
00001000
00000100
00000010
,
00000001
00000000
00001000
00000001
00000000
00000100
00000000
00001000
,
00010000
00000000
00000000
00000000
00010000
00000000
00000000
00000100
00000010
00000000
00000010
00000000
00000010
00000000
00000010
00000000
,
00000001
00000100
00000001
00000010
00000100
00010000
00001000
00000100
,
00001000
00010000
01000000
10000000
00010000
00000000
00100000
01000000
,
10000000
00100000
10000000
01000000
00100000
00001000
00010000
00100000
,
00010000
00001000
00000010
00000001
00001000
00000000
00000010
00000000
,
00001000
00000100
00000010
00000100
00010000
00001000
01000000
00100000
,
01000000
00001000
00010000
00000010
00000100
00000000
00000001
00000000
,
00001010
00011000
00110000
00011000
,
00002200
00000000
00003300
00000000
,
00000100
00001000
00000010
00001000
00000100
00001000
00000010
00001000
,
00000100
00000000
00000010
00000100
00010000
00001000
00100000
00000000
,
00100000
00010000
01000000
00010000
00100000
00010000
01000000
00010000
,
00100000
00000000
01000000
00100000
00001000
00010000
00000100
00000000
,
00020000
00000000
00031000
00000010
00000001
00000010
00001000
00010000
,
00002000
01000000
01003000
00001000
,
00002000
00000000
00013000
01000000
10000000
01000000
00010000
00001000
,
01000000
00000000
00100000
01000000
00001000
00010000
00000010
00000000
,
00002000
00000000
00000002
00003000
00000000
00000010
00000000
00000013
,
00000200
00000000
00000020
00000300
00000000
00000001
00000000
00000031
,
00002000
00000000
00000020
00003000
00000000
00010000
00000000
00010030
,
00011000
00001100
00011000
01010000
,
00020000
00000000
20000000
00030000
00000000
01000000
00000000
31000000
,
00200000
00000000
02000000
00300000
00000000
10000000
00000000
13000000
,
00020000
00000000
02000000
00030000
00000000
00001000
00000000
03001000
,
00011000
00110000
00011000
00001010
,
00010000
00000200
00000010
00000000
00000000
00010000
00000300
00010000
,
00001000
02000000
00100000
00000000
00000000
00001000
03000000
00001000
,
00010000
00000020
00000100
00000000
00000000
00010000
00000030
00010000
,
00011000
00001100
00011000
01010000
,
00001000
00200000
10000000
00000000
00000000
00001000
00300000
00001000
,
00010000
00000020
00000001
00000000
00000000
00010000
00000030
00010000
,
00001000
02000000
10000000
00000000
00000000
00001000
03000000
00001000
,
00011000
00000000
00000000
00000000
00110000
00000000
00000000
00001000
00010000
00000000
00010000
00000000
00010000
00000000
00010000
00000000
,
00000010
00000000
00000100
00001001
00000000
00000100
00000001
00000011
,
00000001
00001000
00000000
00000001
00000100
00000000
00010000
00000000
,
01000000
00000000
00100000
10010000
00000000
00100000
10000000
11000000
,
10000000
00010000
01000000
00010000
00100000
00000000
00001000
01000000
,
00010000
00000000
10000000
01100000
00000000
00100000
01000000
01010000
,
01000000
00001000
00000000
10000000
01000000
00000000
00010000
00000000
,
00000100
00000000
00001000
00000110
00000000
00000010
00000100
00001100
,
00000100
00000010
00000001
00000100
,
00002002
00000000
00003003
00000000
;

//---------------dance-double - Spork!----------------
#NOTES:
     dance-double:
     :
     Challenge:
     9:
     0.567,0.511,0.507,0.206,0.055,411.000,64.000,26.000,13.000,8.000,0.000,0.567,0.511,0.507,0.206,0.055,411.000,64.000,26.000,13.000,8.000,0.000: // measure 0
00000000
00000000
00000000
00000000
,  // measure 1
00000000
00000000
00000000
00000000
,  // measure 2
00000000
00000000
00000000
00000000
,  // measure 3
00000000
00000000
00000000
00000000
,  // measure 4
00020000
00200000
00301000
00200000
,  // measure 5
00331000
00000000
00100000
00001000
00010000
00000000
00010000
00000100
,  // measure 6
00002000
00000020
00010030
00000020
,  // measure 7
00013030
00000000
00000000
00000000
00000010
00000000
00010000
00000000
00001000
00000000
00000000
00001000
00010000
00000000
00000100
00000000
,  // measure 8
00011000
00001000
00100000
01000000
10000000
0010M000
00100000
00010000
,  // measure 9
01000000
00001000
00010000
00000010
00001000
000M0100
00000100
00000010
,  // measure 10
00010000
00000100
00001000
00000001
00000100
0000M010
00000010
00000100
,  // measure 11
00010000
00001000
01000000
00001000
00010000
0000010M
00000100
00000010
,  // measure 12
00011000
00010000
00000100
00000010
00000001
000M0100
00000100
00001000
,  // measure 13
00000010
00010000
00001000
01000000
00010000
0010M000
00100000
01000000
,  // measure 14
00001000
00100000
00010000
10000000
00100000
010M0000
01000000
00100000
,  // measure 15
00001000
00010000
00000010
00010000
00011000
00011000
00011000
00011000
,  // measure 16
02001000
00000000
03001000
00010000
01000000
00010000
00000100
00001000
,  // measure 17
00000002
00000000
00000013
00000010
00001000
00000010
00000100
00010000
,  // measure 18
00002000
00000000
00003100
00000001
00000100
00010000
01000000
00001000
,  // measure 19
00020000
00000000
01030000
01000000
00010000
01000000
00100000
00001000
,  // measure 20
00010000
00000000
00010000
00001000
00000100
00001000
01000000
00010000
,  // measure 21
20000000
00000000
30100000
00100000
00010000
00100000
01000000
00001000
,  // measure 22
00020000
00000000
00130000
10000000
00100000
00001000
00000010
00010000
,  // measure 23
00002000
00000000
00003010
00000000
00000110
00000110
00000110
00000110
,  // measure 24
00001000
00000000
00000001
00000010
00000001
00000000
00000100
00000000
00000010
00000000
00010000
00000000
00001000
00000000
00000100
00000000
,  // measure 25
00001000
00010000
00000010
00010000
00100000
01000000
10010000
01000000
,  // measure 26
00010000
00000000
10000000
01000000
10000000
00000000
00100000
00000000
01000000
00000000
00001000
00000000
00010000
00000000
01000000
00000000
,  // measure 27
00010000
00001000
00100000
00001000
00000010
00000100
00001001
00000000
,  // measure 28
00000001
00000000
00001000
00000010
00001000
00000000
00000001
00000000
00000100
00000000
00001000
00010000
00001000
00000000
00010000
00000000
,  // measure 29
01000000
00000000
00010000
00001000
00010000
00000000
00001000
00000000
00000100
00000000
00000010
00000000
00001001
00000000
00001000
00000000
,  // measure 30
00000002
00000000
00002003
00000000
00023000
00000000
10030000
00010000
,  // measure 31
10010000
00000000
00000000
00000000
00000000
00000000
00010000
00000000
01000000
00000000
00100000
01000000
00100000
00000000
01000000
00000000
,  // measure 32
00020000
20000000
30100000
20000000
,  // measure 33
30130000
00000000
10000000
01000000
00010000
00001000
00000100
00000001
,  // measure 34
00002000
00000002
00000013
00000002
,  // measure 35
00003013
00000000
00000001
00000100
00001000
00010000
01000000
10000000
,  // measure 36
00010000
00000000
10000000
00010000
10000000
00000000
00100000
00000000
00010000
00000000
00001000
00000000
00000010
00000000
00000100
00000000
,  // measure 37
00020000
00001000
01000000
00030100
,  // measure 38
00001000
00000000
00000001
00001000
00000001
00000000
00000010
00000000
00001000
00000000
00010000
00000000
00100000
00000000
01000000
00000000
,  // measure 39
00002000
00000000
00103000
01000000
10000000
00010000
01000000
00000000
,  // measure 40
01100000
00000000
01100000
00000000
10000000
01000000
10000000
00010000
,  // measure 41
01010000
00000000
01010000
00000000
00100000
00001000
00010000
00000010
,  // measure 42
00001010
00000000
00001010
00000000
00000100
00010000
00001000
00000010
,  // measure 43
00000110
00000110
00000011
00001010
,  // measure 44
00000110
00000000
00000110
00000000
00000001
00000010
00000001
00001000
,  // measure 45
00001010
00000000
00001010
00000000
00000100
00010000
00001000
01000000
,  // measure 46
01010000
00000000
01010000
00000000
00100000
00001000
00010000
01000000
,  // measure 47
01100000
01100000
11000000
01010000
,  // measure 48
00011000
00010000
00000100
00000010
00000001
000M0100
00000100
00001000
,  // measure 49
00000010
00010000
00001000
01000000
00010000
0010M000
00100000
01000000
,  // measure 50
00001000
00100000
00010000
10000000
00100000
010M0000
01000000
00100000
,  // measure 51
00110000
00011000
00001010
00001100
,  // measure 52
00011000
00001000
00100000
01000000
10000000
0010M000
00100000
00010000
,  // measure 53
01000000
00001000
00010000
00000010
00001000
000M0100
00000100
00000010
,  // measure 54
00010000
00000100
00001000
00000001
00000100
0000M010
00000010
00000100
,  // measure 55
00001100
00000000
00011000
00000000
00011000
00011000
00011000
00011000
,  // measure 56
00010100
00000000
01001000
00010000
00000000
00100000
01000000
10010000
,  // measure 57
00100000
00000000
00010000
01000000
00000000
00000000
00001000
00000000
00011000
00000000
00000000
00000000
00100100
00000000
00000000
00000000
,  // measure 58
00010010
00000000
00101000
00010000
00000000
01000000
00100000
10010000
,  // measure 59
00100000
00000000
10000000
01000000
00000000
00000000
01000000
00000000
00010000
00000000
00001000
00010000
00001000
00000000
00010000
00000000
,  // measure 60
01001000
00000000
00010100
00001000
00000000
00000010
00000100
00001001
,  // measure 61
00000100
00000000
00000001
00000010
00000000
00000000
00001000
00000000
00011000
00000000
00000000
00000000
01000010
00000000
00000000
00000000
,  // measure 62
00010100
00000000
01001000
00010000
00000000
00100000
01000000
10010000
,  // measure 63
01000000
00000000
00010000
00000000
00100000
00000000
01000000
00000000
00010000
00000000
00001000
00010000
00001000
00000000
00000100
00000000
,  // measure 64
00022000
00000000
00033000
00000000
;
