#TITLE:ナイショの話;
#SUBTITLE:;
#ARTIST:ClariS;
#TITLETRANSLIT:Naisho no Hanashi;
#SUBTITLETRANSLIT:;
#ARTISTTRANSLIT:;
#GENRE:;
#CREDIT:;
#BANNER:[Duet] - Naisho no Hanashi-bn.png;
#BACKGROUND:[Duet] - Naisho no Hanashi-bg.png;
#LYRICSPATH:;
#CDTITLE:;
#MUSIC:[Duet] - Naisho no Hanashi.mp3;
#OFFSET:0.637000;
#SAMPLESTART:57.198002;
#SAMPLELENGTH:20.000000;
#SELECTABLE:YES;
#BPMS:0.000000=194.000000
;
#STOPS:
;
#BGCHANGES:;
#KEYSOUNDS:;
#ATTACKS:;

//---------------dance-single - ----------------
#NOTES:
     dance-single:
     :
     Beginner:
     2:
     0.169989,0.199737,0.000000,0.000000,0.000000,105.000000,0.000000,0.000000,0.000000,0.000000,0.000000,0.169989,0.199737,0.000000,0.000000,0.000000,105.000000,0.000000,0.000000,0.000000,0.000000,0.000000:
0000
0000
0000
0000
,
0000
0000
0000
0000
,
0000
0000
0000
0000
,
0001
0000
0000
0000
,
1000
0000
0000
0000
,
0001
0000
0000
0000
,
0100
0100
0100
0000
,
0000
0001
0000
0001
,
0000
1000
0000
1000
,
0000
0001
0000
0001
,
0000
1000
0000
1000
,
0000
0010
0000
0010
,
0000
0100
0000
0100
,
0000
0010
0000
0010
,
0000
0100
0100
0000
,
1000
0000
0000
0000
,
0001
0000
0000
0000
,
1000
0000
0000
0000
,
0001
0000
0000
0000
,
0100
0000
0000
0000
,
0001
0000
0000
0000
,
0100
0000
0000
0000
,
0001
0000
0000
0000
,
1000
0000
0000
0000
,
0100
0000
0000
0000
,
0010
0000
0000
0000
,
0001
0000
0000
0000
,
0010
0000
0000
0000
,
0100
0000
0000
0000
,
1000
0000
0000
0000
,
0001
0000
0001
0000
,
0001
0000
0000
0000
,
0000
0000
0000
0000
,
1000
0000
0000
0000
,
0010
0000
0000
0000
,
0100
0000
0000
0000
,
0001
0000
0000
0000
,
1000
0000
0000
0000
,
0010
0000
0000
0000
,
1000
0000
0000
0000
,
0001
0000
0000
0000
,
0001
0000
0000
0000
,
0001
0000
0000
0000
,
0010
0000
0000
0000
,
0010
0000
0000
0000
,
0100
0000
0000
0000
,
0100
0100
0100
0000
,
1000
0000
1000
0000
,
0001
0000
0001
0000
,
1000
0000
1000
0000
,
0010
0000
0010
0000
,
0100
0000
0100
0000
,
0001
0000
0001
0000
,
1000
0000
1000
0000
,
0001
0000
0001
0000
,
0100
0000
0100
0000
,
0001
0000
0001
0000
,
0100
0000
0100
0000
,
0001
0000
0001
0000
,
1000
0000
1000
0000
,
0010
0000
0010
0000
,
0100
0000
0100
0000
,
0010
0000
0010
0000
,
1000
0010
0000
0010
,
0000
0010
0000
0010
,
0000
0010
0000
0010
,
0000
0010
0000
0010
,
0000
0010
0000
0010
,
0000
0010
0000
0010
,
0000
0010
0000
0010
,
0000
0010
0010
0000
;

//---------------dance-single - ----------------
#NOTES:
     dance-single:
     :
     Hard:
     8:
     0.553679,0.559264,0.589295,0.113326,0.198321,280.000000,52.000000,10.000000,0.000000,0.000000,0.000000,0.553679,0.559264,0.589295,0.113326,0.198321,280.000000,52.000000,10.000000,0.000000,0.000000,0.000000:
0000
0000
0000
0000
,
0000
0000
0000
0000
,
0000
0000
0000
0000
,
0100
0100
0001
0001
,
1000
0000
0000
1000
0000
0000
0001
0000
0000
0001
0000
1000
,
0100
0100
0010
0010
,
0001
0001
1001
0000
,
1000
1001
0001
0101
,
0100
0000
0000
0001
0000
0100
0000
0000
0100
0001
0000
0000
,
0001
1001
1000
1010
,
0010
0000
0000
1000
0000
0010
0000
0000
0010
1000
0000
0000
,
0001
1001
0010
0110
,
0100
0000
0000
0010
0000
0100
0000
0000
0100
0010
0000
0000
,
1000
1100
0010
0011
,
0001
0110
1001
0000
,
1000
0000
0001
0010
0000
0000
0100
0000
,
1000
0000
0010
0100
0000
0000
0001
0000
,
1000
0000
0001
0010
0000
0000
0100
0000
,
1000
0000
0100
0010
0000
0000
0100
0000
,
1000
0000
0001
0010
0000
0000
0100
0000
,
1000
0000
0010
0100
0000
0000
0001
0000
,
1000
0001
0100
0001
,
0001
0000
0010
0100
0000
0100
1000
0000
0000
1001
0000
0000
,
0001
0000
0100
1000
0000
0000
0100
0000
,
0001
0000
0010
1000
0000
0000
0010
0000
,
0001
0000
0100
1000
0000
0000
0100
0000
,
0001
0000
0010
0100
0000
0000
1000
0000
,
0001
1000
0001
1000
,
0010
0100
0010
0100
,
0001
1001
1000
1001
,
0001
0000
0000
0010
0000
0100
1000
0000
0001
0010
0000
0000
,
0200
0000
0000
1000
0000
0000
1300
0000
,
0000
0020
0000
0000
0130
0000
0110
0000
,
0200
0000
0000
0001
0000
0000
0301
0000
,
0000
0002
0000
0000
1003
0000
1100
0000
,
0200
0000
0000
1000
0000
0000
1300
0000
,
0000
0020
0000
0000
0130
0000
0100
0000
,
0001
1000
0001
1000
,
0010
0100
0010
0100
,
2000
0000
3100
0000
,
0002
0000
0013
0000
,
2000
0000
3010
0000
,
0002
0000
0103
0000
,
0001
0000
0000
0101
0000
0001
0100
0000
0000
0100
0000
0000
,
0001
0000
0000
1001
0000
0001
1000
0000
0000
1010
0000
0000
,
1000
0000
0100
0010
0000
0010
0001
0000
0000
0011
0000
0000
,
0001
0000
1000
0000
0100
0010
0100
0000
0000
1000
0000
1000
,
0001
1001
0001
0011
,
0001
0000
0000
0001
0000
0100
0000
0000
0100
0001
0000
0000
,
1000
1001
1000
1010
,
1000
0000
0000
0010
0000
1000
0000
0000
1000
0010
0000
0000
,
0100
0101
0100
0110
,
0010
0000
0000
1000
0000
0010
0000
0000
0010
1000
0000
0000
,
1000
1010
1000
1001
,
0001
0000
0100
0001
0000
0000
0001
0000
0010
0001
0000
0000
,
1000
1100
0010
0011
,
1000
0000
0000
0001
0000
1000
0000
0000
1000
0001
0000
0000
,
0001
0011
0100
1100
,
1000
0000
0000
1000
0000
0001
0000
0000
0001
1000
0000
0000
,
0010
0110
0001
1001
,
1000
0000
0000
0010
0000
0100
0000
0000
0100
0010
0000
0000
,
0100
0110
1000
1010
,
0001
0000
0001
1000
0000
0000
0010
0000
0010
1000
0000
0000
,
1000
1001
1000
1100
,
1000
1001
1000
1100
,
0001
0101
0001
1001
,
0001
0101
0001
1001
,
0100
0101
0100
1100
,
0100
0101
0100
1100
,
0010
1010
0010
0011
,
0001
0011
1001
0000
;

//---------------dance-single - ----------------
#NOTES:
     dance-single:
     :
     Medium:
     6:
     0.458161,0.439422,0.566630,0.226652,0.000000,213.000000,50.000000,20.000000,0.000000,0.000000,0.000000,0.458161,0.439422,0.566630,0.226652,0.000000,213.000000,50.000000,20.000000,0.000000,0.000000,0.000000:
// measure 0
0000
0000
0000
0000
,  // measure 1
0000
0000
0000
0000
,  // measure 2
0000
0000
0000
0000
,  // measure 3
0000
0100
0000
0001
,  // measure 4
0000
1000
0000
0001
,  // measure 5
0100
0010
0000
0100
,  // measure 6
0010
1000
1001
0000
,  // measure 7
1000
1001
0000
0101
,  // measure 8
0100
0101
0000
1001
,  // measure 9
0001
1001
0000
1010
,  // measure 10
0010
1010
1000
0001
,  // measure 11
0001
1001
0000
0110
,  // measure 12
0100
0110
0000
1010
,  // measure 13
1000
1010
0010
0100
,  // measure 14
0100
0001
1001
0000
,  // measure 15
1000
0000
0001
0010
0000
0000
0100
0000
,  // measure 16
1000
0000
0010
0100
0000
0000
0001
0000
,  // measure 17
1000
0000
0001
0010
0000
0000
0100
0000
,  // measure 18
1000
0000
0100
0010
0000
0000
0100
0000
,  // measure 19
1000
0000
0001
0010
0000
0000
0100
0000
,  // measure 20
1000
0000
0010
0100
0000
0000
0001
0000
,  // measure 21
1000
0001
0100
0001
,  // measure 22
0001
0110
1100
1001
,  // measure 23
0001
0000
0100
1000
0000
0000
0100
0000
,  // measure 24
0001
0000
0010
1000
0000
0000
0010
0000
,  // measure 25
0001
0000
0100
1000
0000
0000
0100
0000
,  // measure 26
0001
0000
0010
0100
0000
0000
1000
0000
,  // measure 27
0001
1000
0001
1000
,  // measure 28
0010
0100
0010
0100
,  // measure 29
0001
1000
1000
1000
,  // measure 30
0002
0000
0023
0000
,  // measure 31
0130
0000
0000
1000
0000
0000
1000
0000
,  // measure 32
0000
0010
0000
0000
0100
0000
0010
0000
,  // measure 33
0100
0000
0000
0001
0000
0000
0001
0000
,  // measure 34
0000
1000
0000
0000
0001
0000
0100
0000
,  // measure 35
0100
0000
0000
0010
0000
0000
0010
0000
,  // measure 36
0000
1000
0000
0000
0001
0000
0001
0000
,  // measure 37
1000
0001
1000
0001
,  // measure 38
0100
0010
0100
0010
,  // measure 39
0002
0000
0000
0000
,  // measure 40
0013
0000
0100
0000
,  // measure 41
0002
0000
0000
0000
,  // measure 42
1003
0000
0010
0000
,  // measure 43
1000
1000
0010
0010
,  // measure 44
1000
1000
0001
0001
,  // measure 45
1000
0100
1000
1000
,  // measure 46
0001
1000
1001
0000
,  // measure 47
2000
3001
2000
3100
,  // measure 48
1010
0000
1010
0000
,  // measure 49
0002
1003
0002
0103
,  // measure 50
0101
0000
0101
0000
,  // measure 51
0020
1030
0020
0130
,  // measure 52
0101
0000
0101
0000
,  // measure 53
0002
0103
0002
1003
,  // measure 54
1010
0000
1010
0000
,  // measure 55
0002
0013
0200
1300
,  // measure 56
1001
0000
1001
0000
,  // measure 57
2000
3100
0020
0031
,  // measure 58
1001
0000
1001
0000
,  // measure 59
0200
0310
2000
3001
,  // measure 60
0101
0000
0101
0000
,  // measure 61
0020
0130
0002
1003
,  // measure 62
1010
0000
1010
0000
,  // measure 63
0001
1001
0000
0011
,  // measure 64
0000
1001
0000
0011
,  // measure 65
0100
1010
0000
1001
,  // measure 66
0000
1010
0000
1001
,  // measure 67
0010
0110
0000
1001
,  // measure 68
0000
0110
0000
1001
,  // measure 69
0100
0101
0000
1100
,  // measure 70
0000
1100
1001
0000
;

//---------------dance-single - ----------------
#NOTES:
     dance-single:
     :
     Easy:
     3:
     0.305980,0.319579,0.373976,0.226652,0.000000,136.000000,33.000000,20.000000,0.000000,0.000000,0.000000,0.305980,0.319579,0.373976,0.226652,0.000000,136.000000,33.000000,20.000000,0.000000,0.000000,0.000000:
0000
0000
0000
0000
,
0000
0000
0000
0000
,
0000
0000
0000
0000
,
0100
0000
0000
0000
,
0001
0000
0000
0000
,
0100
0000
0000
0000
,
0010
0000
1001
0000
,
1001
0000
0001
0000
,
0110
0000
0100
0000
,
1001
0000
0010
0000
,
1010
0000
1000
0000
,
1001
0000
0010
0000
,
0110
0000
0100
0000
,
0101
0000
0010
0000
,
1001
0001
1001
0000
,
1000
0000
0000
0010
0000
0000
0000
0000
,
1000
0000
0000
0100
0000
0000
0000
0000
,
1000
0000
0000
0010
0000
0000
0000
0000
,
1000
0000
0000
0001
0000
0000
0000
0000
,
0001
0000
0000
0010
0000
0000
0000
0000
,
0001
0000
0000
0100
0000
0000
0000
0000
,
0001
0000
1000
0000
,
0001
0001
0001
0000
,
1001
0000
0000
1000
0000
0000
0000
0000
,
0001
0000
0000
0100
0000
0000
0000
0000
,
0001
0000
0000
1000
0000
0000
0000
0000
,
0001
0000
0000
0100
0000
0000
0000
0000
,
1001
0000
1001
0000
,
0110
0000
0110
0000
,
1001
0000
1000
0000
,
0002
0000
0023
0000
,
0130
0000
0000
0000
,
1000
0000
0000
0000
,
0010
0000
0000
0000
,
0100
0000
0000
0000
,
0001
0000
1000
0000
,
0010
0000
0100
0000
,
0001
0001
0001
0000
,
1000
1000
1000
0000
,
0002
0000
0000
0000
,
0013
0000
0100
0000
,
2000
0000
0000
0000
,
3010
0000
1000
0000
,
0001
0000
0100
0000
,
0001
0000
1000
0000
,
0001
0001
0001
0000
,
1000
0001
1001
0000
,
2000
3000
0002
0003
,
1000
0000
1000
0000
,
0002
0003
2000
3000
,
0001
0000
0001
0000
,
0020
0030
0200
0300
,
1000
0000
1000
0000
,
0020
0030
0200
0300
,
0001
0000
0001
0000
,
0002
0003
2000
3000
,
1001
0000
1001
0000
,
2000
3000
0020
0030
,
1010
0000
1010
0000
,
0200
0300
2000
3000
,
1100
0000
1100
0000
,
0002
0003
0020
0030
,
0011
0000
0011
0000
,
0001
1000
0000
1000
,
0000
1000
0000
0010
,
1000
0010
0000
0010
,
0000
0010
0000
1000
,
0010
0110
0000
1010
,
0000
0101
0000
1001
,
0000
0101
0000
0011
,
0000
1001
1001
0000
;
