#TITLE:Don't Stop the One that Got Away;
#SUBTITLE:;
#ARTIST:Katy Perry vs. Journey;
#CREDIT:crusher189;
#MUSIC:[Duet] - Don't Stop the One that Got Away.ogg;
#SELECTABLE:YES;
#BACKGROUND:[Duet] - Don't Stop the One that Got Away-bg.png;
#BANNER:[Duet] - Don't Stop the One that Got Away.png;
#CDTITLE:;
#OFFSET:-0.512834;
#SAMPLESTART:66.520;
#SAMPLELENGTH:14.725;
#BPMS:0=130.051;
#STOPS:79=0.11551,79.4167=0.154036,86.4167=0.11551,86.8333=0.154036,93.8333=0.11551,94.25=0.154036,101.25=0.11551,101.667=0.154036,108.667=0.11551,109.083=0.154036,116.083=0.11551,116.5=0.154036,170.5=0.23102;

//---------------dance-single - ----------------
#NOTES:
     dance-single:
     :
     Easy:
     2:
     0.000,0.000,0.000,0.000,0.000:
0000
0000
0000
0000
,
0000
0000
0000
1000
,
0000
1000
0000
0001
,
0000
0001
0000
0100
,
0000
0100
0000
0010
,
0000
0010
0000
1000
,
0000
1000
0000
0001
,
0000
0001
0000
1000
,
0000
1000
0000
0010
,
0000
0010
0000
1000
,
0000
1000
0000
0100
,
0000
0100
0000
1000
,
0000
1000
0000
0001
,
0000
0001
0000
0100
,
0000
0100
0000
0010
,
0000
0010
0000
1000
,
0000
1000
0000
0001
,
0000
0001
0000
0100
,
0000
0100
0000
0001
,
0000
0000
0000
0000
0000
0000
0000
0000
0000
0000
0000
0000
0001
0000
0000
0000
0000
0000
0000
0000
0000
0000
0000
0000
0000
0000
0000
0000
0000
0000
0000
0000
0000
0000
0000
0000
1000
0000
0000
0000
0000
1000
0000
0000
0000
0000
0000
2000
,
0000
0000
0000
0000
,
0000
0000
0000
0000
0000
0000
0000
0000
0000
0000
0000
0000
0000
0000
0000
0000
0000
0000
0000
0000
0000
0000
0000
0000
0000
0000
3000
0000
0000
0001
0000
0000
0000
0000
0001
0000
0000
0000
0000
0000
0002
0000
0000
0000
0000
0000
0000
0000
,
0000
0000
0000
0000
,
0000
0000
0000
0000
0000
0000
0000
0000
0000
0000
0000
0000
0000
0000
0000
0000
0000
0000
0000
0003
0000
0000
1000
0000
0000
0000
0000
1000
0000
0000
0000
0000
0000
2000
0000
0000
0000
0000
0000
0000
0000
0000
0000
0000
0000
0000
0000
0000
,
0000
0000
0000
0000
,
0000
0000
0000
0000
0000
0000
0000
0000
0000
0000
0000
0000
3000
0000
0000
0001
0000
0000
0000
0000
0001
0000
0000
0000
0000
0000
0002
0000
0000
0000
0000
0000
0000
0000
0000
0000
0000
0000
0000
0000
0000
0000
0000
0000
0000
0000
0000
0000
,
0000
0000
0000
0000
,
0000
0000
0000
0000
0000
0003
0000
0000
1000
0000
0000
0000
0000
1000
0000
0000
0000
0000
0000
2000
0000
0000
0000
0000
0000
0000
0000
0000
0000
0000
0000
0000
0000
0000
0000
0000
0000
0000
0000
0000
0000
0000
0000
0000
0000
0000
0000
0000
,
0000
0000
0000
0000
0000
0000
0000
0000
0000
0000
0000
0000
0000
0000
0000
0000
0000
0000
0000
0000
0000
0000
0000
3000
,
0000
0001
0000
0000
0000
0000
0001
0000
0000
0000
0000
0000
0002
0000
0000
0000
0000
0000
0000
0000
0000
0000
0000
0000
0000
0000
0000
0000
0000
0000
0000
0000
0000
0000
0000
0000
0000
0000
0000
0000
0000
0000
0000
0000
0000
0000
0000
0000
,
0000
0000
0000
0000
0000
0000
0003
1000
,
0000
0000
0000
1000
0000
0000
0000
0010
,
0000
0000
0000
0010
0000
0000
0000
0100
,
0000
0000
0000
0100
0000
0000
0000
0001
,
0000
0000
0000
0001
0000
0000
0000
1000
,
0000
0000
0000
1000
0000
0000
0000
0100
,
0000
0000
0000
0100
0000
0000
0000
0010
,
0000
0000
0000
0010
0000
0000
0000
0001
,
0000
0000
0000
0001
0000
0000
0000
0100
,
0000
0000
0000
0100
0000
0000
0000
0010
,
0000
0000
0000
0010
0000
0000
0000
1000
,
0000
0000
0000
1000
0000
0000
0000
0001
,
0000
0000
0000
0001
0000
1000
0001
0000
,
0000
0001
0000
0100
,
0000
0100
0000
0010
,
0000
0010
0000
1000
,
0000
1000
0000
0100
,
0000
0100
0000
0010
,
0000
0010
0000
0001
,
0000
0001
0000
0100
,
0000
0100
0000
0010
,
0000
0010
0000
1000
,
0000
1000
0000
0100
,
0000
0100
0000
0010
,
0000
0010
0000
0001
,
0000
0001
0000
0100
,
0000
0100
0000
0010
,
0000
0010
0000
1000
,
0000
1000
0000
0100
,
0000
0100
0000
0010
,
0000
0010
0000
0001
,
0000
0001
0000
1000
,
0000
1000
0000
0002
,
0000
0000
0000
0000
,
0000
0000
0000
0000
,
0000
0000
0000
0000
,
0000
0000
0000
1003
,
0000
1000
0000
0100
,
0000
0100
0000
0010
,
0000
0010
0000
0001
,
0000
0001
0000
0100
,
0000
0100
0000
0010
,
0000
0010
0000
1000
,
0000
1000
0000
0001
,
0000
0001
0000
1000
,
0000
1000
0000
0010
,
0000
0010
0000
1000
,
0000
1000
0000
0001
,
0000
0001
0000
0000
,
0000
0000
0000
0000
;

//---------------dance-single - ----------------
#NOTES:
     dance-single:
     :
     Medium:
     4:
     0.000,0.000,0.000,0.000,0.000:
0000
0000
0000
0000
,
0000
0000
0000
1000
,
0010
1000
0100
1000
,
0010
0100
0001
0100
,
0010
1000
0100
1000
,
0010
1000
0001
1000
,
0010
1000
0001
1000
,
0010
0100
0010
1000
,
0100
1000
0001
0100
,
0010
1000
0001
0100
,
0001
1000
0010
1000
,
0001
0010
0001
1000
,
0100
1000
0010
1000
,
0100
1000
0001
1000
,
0100
1000
0010
0100
,
0001
1000
0100
1000
,
0010
0100
0001
0100
,
0010
0100
0001
1000
,
0001
0010
0001
1000
,
0100
0000
0000
0000
0000
0000
0000
0000
0000
0000
0000
0000
1000
0000
0000
0000
0000
0000
0000
0000
0000
0000
0000
0000
0010
0000
0000
0000
0000
0000
0000
0000
0000
0000
0000
0000
0100
0000
0000
0000
0000
0001
0000
0000
0000
0000
0000
1000
,
0000
0000
0000
0000
0000
0001
0000
0000
0000
0000
0000
0000
0000
0000
0000
0000
0000
1000
0000
0000
0000
0000
0000
0000
0000
0000
0000
0000
0000
0010
0000
0000
0000
0000
0000
0000
0000
0000
0000
0000
0000
1000
0000
0000
0000
0000
0000
0000
,
0000
0000
0000
0000
0000
0100
0000
0000
0000
0000
0000
0000
0000
0000
0000
0000
0000
1000
0000
0000
0000
0000
0000
0000
0000
0000
0000
0000
0000
0001
0000
0000
0000
0000
0100
0000
0000
0000
0000
0000
0001
0000
0000
0000
0000
0000
1000
0000
,
0000
0000
0000
0000
0000
0001
0000
0000
0000
0000
0000
0100
0000
0000
0000
0000
0000
0001
0000
0000
0000
0000
0000
0010
,
0000
0000
0000
0000
0000
0000
0000
0000
0000
0000
0001
0000
0000
0000
0000
0000
0000
0000
0000
0000
0000
0000
0100
0000
0000
0000
0000
0010
0000
0000
0000
0000
0000
1000
0000
0000
0000
0000
0000
0001
0000
0000
0000
0000
0000
0000
0000
0000
,
0000
0100
0000
0000
0000
0010
0000
0000
0000
1000
0000
0000
0000
0001
0000
0000
,
0000
0000
0000
0100
0000
0000
0000
0000
0000
0000
0000
0000
0000
0000
0000
0010
0000
0000
0000
0000
0100
0000
0000
0000
0000
0000
0001
0000
0000
0000
0000
0000
1000
0000
0000
0000
0000
0000
0000
0000
0000
0000
0000
0000
0010
0000
0000
0000
,
0000
0000
0100
0000
0000
0010
0000
0000
1000
0000
0000
0001
,
0000
0000
0000
0000
0000
0000
0000
0000
0100
0000
0000
0000
0000
0010
0000
0000
0000
0000
0000
1000
0000
0000
0000
0000
0000
0010
0000
0000
0000
0000
0000
0000
0000
0000
0000
0000
0000
0100
0000
0000
0000
0000
0000
0000
0000
0000
0000
0000
,
0000
0010
0000
0000
0000
0000
0000
0000
0000
0000
0000
0000
0000
1000
0000
0000
0000
0000
0000
0000
0000
0000
0000
0000
0000
0001
0000
0000
0000
0000
0000
0000
0000
0000
0000
0000
0000
0100
0000
0000
0000
0000
0000
0000
0000
0000
0000
0000
,
0000
0001
0000
0000
0000
0000
1000
0000
0000
0000
0000
0000
0010
0000
0000
0000
0000
0000
1000
0000
0000
0000
0000
0000
0000
0000
0000
0000
0000
0000
0100
0000
0000
0000
0000
0000
0000
0000
0000
0000
0000
0000
1000
0000
0000
0000
0000
0000
,
0000
0010
0000
0100
0000
0001
0000
2000
,
0000
0000
0000
3002
0000
0000
0000
0203
,
0000
0000
0000
0302
0000
0000
0000
0103
,
0000
0010
0000
1000
0000
0001
0000
0100
,
0000
0001
0000
1000
0000
0100
0000
1000
,
0000
0010
0000
1000
0000
0001
0000
1000
,
0000
0001
0000
0100
0000
0010
0000
1000
,
0000
0010
0000
0100
0000
0001
0000
1000
,
0000
0010
0000
0100
0000
0001
0000
0100
,
0000
0010
0000
1000
0000
0100
0000
1000
,
0000
0010
0000
0100
0000
0001
0000
1000
,
0000
0010
0000
1000
0000
0001
0000
1000
,
0000
0010
0000
0100
0000
0010
1000
0000
,
0010
1000
0001
1000
,
0010
0100
0001
1000
,
0010
0100
0001
0100
,
0010
1000
0001
0100
,
0010
1000
0100
1000
,
0010
0100
0001
1000
,
0010
1000
0001
0010
,
0001
1000
0100
1000
,
0010
1000
0100
1000
,
0010
1000
0010
1000
,
0010
1000
0001
0100
,
0010
0100
0001
1000
,
0100
1000
0010
1000
,
0100
1000
0010
0100
,
0001
1000
0010
0100
,
0010
1000
0001
0100
,
0001
1000
0001
0010
,
0100
1000
0001
0100
,
0010
1000
0001
1000
,
0100
0000
0000
1000
0000
0000
0001
0000
0000
1000
0000
0100
,
0000
1000
0001
0000
0100
0000
0001
0000
,
1000
0100
1000
0010
,
0100
0001
0100
0001
,
1000
0100
1000
0001
,
0100
0010
1000
0001
,
0100
0010
1000
0001
,
1000
0001
0100
0010
,
1000
0010
0100
0001
,
0100
0010
1000
0001
,
0100
0010
1000
0001
,
1000
0001
0100
0010
,
1000
0001
0100
0001
,
0100
0010
1000
0010
,
0100
0001
0010
0001
,
0010
0100
1000
0010
,
0100
0001
1000
0000
,
0000
0000
0000
0000
;

//---------------dance-single - ----------------
#NOTES:
     dance-single:
     :
     Hard:
     9:
     0.000,0.000,0.000,0.000,0.000:
0000
0000
0000
0000
,
0000
0000
0000
1000
,
0010
0000
1000
0100
0100
0000
1000
0000
,
0010
0000
0100
0001
0001
0000
0100
0001
,
0010
0100
1000
0001
0100
0010
1000
0100
,
0010
0000
0001
0000
1000
0000
0001
0000
0001
0000
1000
0100
1000
0000
0001
0000
,
0010
0001
1000
0100
0001
0100
1000
0100
,
0010
0000
0001
0000
0100
0000
0010
0000
0010
0000
1000
0001
1000
0000
0001
0000
,
0100
0010
0100
0001
1000
0001
0010
0100
,
1000
0000
0100
0000
0001
0000
0100
0000
1000
0000
0001
0000
0100
0010
0000
1000
,
0000
0001
0010
0000
0001
0000
0000
0100
0000
0000
0010
0000
1000
0100
0000
0010
,
0000
0001
0100
0000
0010
0000
1000
0000
1000
0000
0001
0010
0001
0000
1000
0000
,
0100
0010
0001
1000
0010
0100
0001
0010
,
0100
0000
1000
0000
0001
0000
1000
0000
1000
0000
0001
0010
0001
0000
1000
0000
,
0100
1000
0001
0100
0010
1000
0100
0010
,
0001
0000
1000
0000
0010
0000
0100
0000
0100
0000
0001
0010
0001
0000
1000
0000
,
0010
1000
0010
0100
0001
1000
0100
0010
,
0001
0010
0100
0010
0001
0100
0010
1000
,
1001
0020
2030
3002
,
0203
0000
0000
0000
0000
0000
0000
0000
0000
0000
0000
0000
0302
0000
0000
0000
0000
0000
0003
0000
0000
2000
0000
0000
0000
0000
0000
3000
0000
0000
0002
0000
0000
0000
0000
0000
1103
0000
0000
0000
0000
1010
0000
0000
0000
0000
0000
0102
,
0000
0000
0000
0000
0000
1000
0000
0000
0000
0000
0000
0000
0000
0000
0000
0000
0000
1000
0000
0000
0000
0000
0000
0000
0000
0000
0000
0000
0000
0010
0000
0000
0000
0000
0000
0000
0000
0000
0000
0000
0000
1000
0000
0000
0000
0000
0000
0000
,
0000
0000
0000
0000
0000
0100
0000
0000
0000
0000
0000
0000
0000
0000
0010
0000
0000
0000
0000
0000
0000
0000
0000
1000
0000
0000
0003
0000
0000
1001
0000
0000
0000
0000
0011
0000
0000
0000
0000
0000
2100
0000
0000
0000
0000
0000
0001
0000
,
0000
0000
0000
0000
0000
0010
0000
0000
0000
0000
0000
0100
0000
0000
0000
0000
0000
0001
0000
0000
0000
0000
0000
0100
,
0000
0000
0000
0000
0000
0000
0000
0010
0000
0000
0000
0000
0000
0000
0000
0000
0010
0000
0000
3000
0000
0000
0110
0000
0000
0000
0000
0101
0000
0000
0000
0000
0000
0012
0000
0000
0000
0000
0000
1000
0000
0000
0000
0000
0000
0000
0000
0000
,
0000
0010
0000
0000
0000
0100
0000
0000
0000
1000
0000
0000
0000
0010
0000
0000
,
0100
0000
0000
0000
0000
0000
0000
0000
0000
0100
0000
0000
0003
0000
0000
0110
0000
0000
0000
0000
1010
0000
0000
0000
0000
0000
2100
0000
0000
0000
0000
0000
0001
0000
0000
0000
0000
0000
0000
0000
0000
0000
0000
0000
0100
0000
0000
0000
,
0000
0000
0000
0000
0000
0000
0000
0000
0010
0000
0000
0000
0000
0000
0000
0000
0000
0000
0000
0000
0100
0000
0000
0000
0000
0000
0000
0000
0000
0000
0000
0000
0001
0000
0000
0000
0000
0000
0000
0000
0000
0010
0000
0000
0000
0000
0000
0000
,
0000
0000
0010
0000
0000
3000
0000
0000
0110
0000
0000
0000
0000
1100
0000
0000
0000
0000
0000
1020
0000
0000
0000
0000
0000
0100
0000
0000
0000
0000
0000
0000
0000
0000
0000
0000
0000
1000
0000
0000
0000
0000
0000
0000
0000
0000
0000
0000
,
0000
0100
0000
0000
0000
0000
0000
0000
0000
0000
0000
0000
0000
1000
0000
0000
0000
0000
0000
0000
0000
0000
0000
0000
0000
0100
0000
0000
0000
0000
0000
0000
0000
0000
1000
0000
0000
0000
0000
0000
0000
0000
0000
1000
0000
0000
0030
0000
,
0000
1001
0000
0000
0000
0000
0101
0000
0000
0000
0000
0000
2010
0000
0000
0000
0000
0000
0001
0000
0000
0000
0000
0000
0000
0000
0000
0000
0000
0000
0010
0000
0000
0000
0000
0000
0000
0000
0000
0000
0000
0000
0001
0000
0000
0000
0000
0000
,
0000
0000
0100
0000
0000
0000
0010
0000
0000
0001
0000
0000
0001
3000
0002
0000
,
0000
0203
0320
0000
0000
2030
3002
0000
,
0000
0023
0230
0000
0000
2300
3002
0010
,
0000
0000
0100
0000
0000
0000
1003
0000
0000
0000
0001
0000
0000
0000
0010
0001
,
0000
0100
0000
0010
0000
1000
0001
0000
0100
0000
0010
0000
1000
0000
0001
0000
,
0000
0000
0100
0000
0000
0010
1000
0000
1000
0000
0010
0000
0100
0000
0001
0000
,
1000
0000
0001
0010
0000
0100
1000
0000
0000
0000
0001
0000
0010
0000
0002
0000
,
0000
0000
0203
0000
0000
0300
0010
0000
1000
0000
0001
0000
0100
0000
2000
0000
,
0000
0000
3100
0000
0002
0000
0000
0000
2003
3200
2300
0000
0000
0000
3010
0000
,
0000
0000
0100
0000
0000
0010
1000
0000
1000
0000
0010
0000
0100
0000
0001
0000
,
1000
0000
0001
0010
0000
0100
1000
0000
0010
0000
0100
0000
0001
0000
0010
0000
,
0100
1000
0100
0001
0100
1000
0010
2000
,
0000
0000
0000
0000
0000
0000
3002
0000
0103
0010
0200
0000
0001
0000
0300
0000
,
0100
0000
0000
0010
1000
0000
1000
0000
0010
0000
0100
0000
0001
0000
1000
0000
,
0001
0010
0000
0100
1000
0000
0000
0000
0001
0000
0010
0000
0002
0000
0000
0000
,
0203
0000
0000
0300
0010
0000
1000
0000
0001
0000
0100
0000
2000
0000
0000
0000
,
3100
0000
0002
0000
0000
0000
2003
3200
2300
0000
0000
0000
3010
0000
0000
0000
,
0100
0000
0000
0010
1000
0000
1000
0000
0010
0000
0100
0000
0001
0000
1000
0000
,
0001
0010
0000
0100
1000
0000
0010
0000
0100
0000
0001
0000
0010
0000
0100
0000
,
1000
0100
0001
0100
1000
0010
0200
0000
,
0320
2030
0000
3002
0000
0203
0310
1000
,
0100
0010
0001
1000
0010
0100
0001
0010
,
0100
0000
1000
0000
0001
0000
1000
0000
0100
0000
1000
0010
1000
0000
0001
0000
,
0100
0001
1000
0100
0001
0100
1000
0010
,
0100
0000
0001
0000
0010
0000
0100
0000
0010
0000
0001
1000
0001
0000
0010
0000
,
0001
0100
0010
1000
0100
0001
0100
1000
,
0010
0000
0100
0000
0001
0000
0010
0000
0100
0000
1000
0100
0010
0000
0001
0000
,
0100
0010
1000
0100
0010
0001
0100
1000
,
0100
0000
0001
0000
0010
0000
0001
0000
1000
0000
0010
0100
0010
0000
1000
0100
,
1000
0000
0001
0010
0001
0000
1000
0010
1000
0000
0100
1000
0100
0000
0010
0001
,
0010
0000
0001
0100
0001
0000
1000
0100
1000
0000
0010
0100
0010
0000
0100
0001
,
0100
0000
0001
0010
0001
0000
1000
0100
1000
0000
0001
0100
0001
0000
1000
0010
,
1000
0000
0000
0000
0000
0000
0001
0000
0000
0010
0000
0000
0001
0000
0000
0000
0000
0000
1000
0000
0000
0100
0000
0000
1000
0000
0000
0000
0000
0000
0001
0000
0000
0000
0000
0000
0101
0000
0000
0000
0000
0000
0000
0000
0011
0000
0000
0000
,
0000
0000
1000
0000
0001
0000
0000
0100
0000
0000
0010
0000
1000
0100
0000
0010
,
0000
0001
0100
0000
0010
0000
0000
1000
0000
0000
0001
0000
0100
0010
0000
1000
,
0000
0001
0010
0000
0001
0000
0000
0100
0000
0000
0010
0000
1000
0100
0000
0010
,
0000
0001
0100
0000
0010
0000
0000
1000
0000
0000
0001
0000
1000
0000
0100
0000
,
0010
0001
0100
0001
0001
1000
0001
0100
,
0010
1000
0010
0100
0100
0001
1000
0100
,
0001
0100
1000
0010
0010
0100
0001
0100
,
1000
0100
0001
0010
0010
0001
1000
0100
,
0010
0001
0100
0001
0001
1000
0001
0100
,
0010
1000
0010
0100
0100
0001
1000
0100
,
0001
0100
1000
0010
0010
0100
0001
0100
,
1000
0100
0001
0010
0010
0001
1000
0000
,
0010
0000
0100
0001
0001
0000
0100
0000
,
0010
0000
1000
0100
0100
0000
1000
0000
,
0100
0000
0010
0001
0001
0000
0100
0000
,
0010
0000
1000
0001
0001
0000
0000
0000
,
0000
0000
0000
0000
;
