#TITLE:The Bad Touch;
#SUBTITLE:;
#ARTIST:Bloodhound Gang;
#TITLETRANSLIT:;
#SUBTITLETRANSLIT:;
#ARTISTTRANSLIT:;
#CREDIT:;
#BANNER:[20th Century] - TBT-bn.png;
#BACKGROUND:[20th Century] - TBT-bg.png;
#LYRICSPATH:;
#CDTITLE:;
#MUSIC:[20th Century] - TBT.mp3;
#OFFSET:0.000;
#SAMPLESTART:56.560;
#SAMPLELENGTH:12.800;
#SELECTABLE:YES;
#BPMS:0.000=123.000;
#STOPS:;
#BGCHANGES:0.000=[20th Century] - TBT.avi=1.000=1=1=0,
260.000=[20th Century] - TBT-bg.png=1.000=0=0=1,
99999=-nosongbg-=1.000=0=0=0 // don't automatically add -songbackground-
;

//---------------dance-single - ----------------
#NOTES:
     dance-single:
     :
     Easy:
     3:
     0.198,0.242,0.127,0.037,0.000:
0000
0000
0000
0000
,
0000
0000
0000
0000
,
0000
0000
0000
0000
,
0000
0000
0000
0000
,
0000
0000
0000
0000
,
0100
1000
1000
0000
,
0100
0001
0001
0000
,
0010
0100
0100
0000
,
0001
1000
1000
0000
,
1001
0000
0001
0000
,
0100
0000
0010
0000
,
1000
0000
1000
0000
,
0001
0000
0100
0000
,
0010
0000
1000
0000
,
0100
0000
0001
0000
,
0010
0000
1000
0000
,
0100
0100
0100
0000
,
0110
0000
0010
0000
,
1000
0000
0001
0000
,
0100
0000
0001
0000
,
1000
0000
0100
0100
,
1000
0000
0100
0000
,
0001
0000
0010
0000
,
1000
0000
0010
0000
,
1000
0001
1000
1000
,
1001
0000
0100
0001
,
0100
0001
0000
0000
,
0110
0000
0010
0000
,
1000
0100
0001
0000
,
1001
0000
0100
1000
,
0100
1000
0000
0000
,
0110
0000
0010
0000
,
1000
0010
0001
0000
,
1100
1000
0010
1000
,
0100
1000
0001
0100
,
0001
0010
0001
1000
,
0200
0000
0000
0310
,
0101
0001
0010
0001
,
0100
0001
1000
0100
,
1000
0010
1000
0001
,
0200
0000
0000
0310
,
1001
0000
0001
0000
,
0001
0000
1000
0000
,
1000
0000
0010
0000
,
0010
1000
0100
0000
,
0110
0000
0100
0000
,
0100
0000
0001
0000
,
0001
0000
1000
0000
,
2000
0001
0001
3001
,
1001
0000
1000
0010
,
1000
0100
0000
0000
,
0110
0000
0010
0000
,
1000
0001
1000
0000
,
1001
0000
0001
0100
,
0001
0010
0000
0000
,
0110
0000
0100
0000
,
0100
1000
0001
0000
,
0101
0001
0010
0001
,
0100
0001
1000
0100
,
1000
0010
1000
0001
,
0020
0000
0000
0130
,
1010
0010
1000
0100
,
1000
0010
0001
0100
,
0001
0010
0001
1000
,
0200
0000
0000
0310
,
0110
0000
0000
0000
;

//---------------dance-single - Copied from----------------
#NOTES:
     dance-single:
     Copied from:
     Medium:
     6:
     0.387,0.387,0.276,0.156,0.000:
0000
0000
0000
0000
,
0000
0000
0000
0000
,
0000
0000
0000
0000
,
0000
0000
0000
0000
,
0000
0000
0000
0000
,
0020
1030
0001
0101
,
2000
3010
0001
0110
,
0200
0310
0001
1100
,
0002
0000
1003
0000
1000
0100
0001
0000
,
1001
0100
1001
0010
,
0100
1000
0001
0000
0010
0001
1000
0000
,
0001
0010
1000
0100
,
0001
0100
1000
0010
0100
0010
1000
0000
,
2100
3001
0102
1003
,
0100
0000
1000
0020
0000
0000
0130
0000
,
1001
0000
0010
0000
1000
0100
0001
0000
,
0100
0001
0100
1000
0100
0001
0010
0000
,
0110
0100
1100
1000
,
1001
0001
0101
0100
,
0110
0000
0010
0000
1010
0000
1000
0001
,
1000
0000
0100
0000
0010
1000
0100
1000
,
0100
0000
1000
0010
1000
0001
0100
0001
,
0100
0000
1000
0000
0100
0001
0010
0000
,
1000
0000
0001
0000
0100
0000
1000
0010
,
0002
1000
1000
1003
,
1001
0000
0010
0000
0100
1000
0001
0000
,
0001
0100
0001
0100
0000
0100
0010
0000
,
0120
1030
0210
0301
,
1000
0000
0100
0000
0001
1000
0100
0000
,
1001
0000
0010
0000
0100
0010
1000
0000
,
1000
0001
1000
0001
0000
0001
0010
0000
,
0120
1030
0210
0301
,
1000
0001
0010
0000
0001
1000
0010
0000
,
1100
0000
1000
0001
0010
0000
0010
1000
,
0100
0000
0100
1000
0001
0000
0001
0010
,
0100
0000
0100
1000
0001
1000
0010
0000
,
0200
0010
0310
0110
,
0101
0000
0001
0100
0010
0000
0010
1000
,
0100
0000
0100
0001
1000
0000
1000
0010
,
0001
0000
0001
0100
1000
0100
0001
0000
,
0200
0010
0310
0110
,
1001
1000
0100
0000
0001
0000
0100
0000
,
0001
0100
1000
0001
,
1000
0001
0010
1000
,
0100
0001
1000
0010
0100
0000
0000
0000
,
0110
0100
0001
0000
0100
0000
1000
0000
,
0100
0010
0001
0100
,
0001
0000
0010
0000
1000
0000
0100
0010
,
2000
0001
0001
3001
,
1001
0000
0100
0000
1000
0001
0010
0000
,
0010
1000
0010
1000
0000
1000
0100
0000
,
0120
1030
0210
0301
,
1000
0010
0100
0000
0010
0100
0001
0000
,
1001
0000
0010
0000
0001
1000
0100
0000
,
0100
0001
0010
0001
0000
0001
0100
0000
,
0120
1030
0210
0301
,
0100
0001
1000
0000
0001
1000
0100
0000
,
0101
0000
0001
1000
0010
0000
0010
1000
,
0100
0000
0100
0010
1000
0000
1000
0100
,
0001
0000
0001
0010
1000
0000
1000
0001
,
0020
0100
0130
0110
,
1010
0000
0010
0001
1000
0000
1000
0010
,
0100
0000
0100
0010
0001
0000
0001
1000
,
0100
0000
0100
1000
0010
0000
0010
1000
,
0200
0010
0310
1001
,
0110
0000
0000
0000
;

//---------------dance-single - Copied from Copied f----------------
#NOTES:
     dance-single:
     Copied from Copied f:
     Hard:
     8:
     0.512,0.508,0.328,0.171,0.134: // measure 1
0000
0000
0000
0000
,  // measure 2
0000
0000
0000
0000
,  // measure 3
0000
0000
0000
0000
,  // measure 4
0000
0000
0000
0000
,  // measure 5
0000
0000
0000
0000
,  // measure 6
0200
0000
1300
0000
0010
1000
1100
0000
,  // measure 7
0020
0000
1030
0000
0001
0010
1010
0000
,  // measure 8
0020
0000
0130
0000
0001
0100
0101
0000
,  // measure 9
0002
0000
1003
0010
1000
0100
0001
1000
,  // measure 10
1002
0000
0103
0100
2001
0000
3010
0010
,  // measure 11
0100
1000
0001
1000
0100
0001
0100
0000
,  // measure 12
1000
0001
0010
0000
0010
1000
0100
0000
,  // measure 13
0001
0010
1000
0010
0100
0010
1000
0000
,  // measure 14
2100
0000
3001
0100
0102
0000
1003
0010
,  // measure 15
0100
0001
1000
0020
0000
0000
0130
0010
,  // measure 16
1001
0000
0010
1000
1100
0000
0101
0000
,  // measure 17
0100
0001
0100
1000
0100
0001
0010
0100
,  // measure 18
0101
0000
0100
1000
1100
0000
1000
0010
,  // measure 19
1010
0000
0010
0001
0101
0000
0100
1000
,  // measure 20
1100
0000
1000
0001
1001
0000
1000
0100
,  // measure 21
1000
0010
0100
0000
0010
1000
0001
1000
,  // measure 22
0100
0010
0001
0010
0100
1000
0001
1000
,  // measure 23
0100
0000
1000
0001
0100
0000
0010
0100
,  // measure 24
1000
0100
0001
1000
0001
0010
1000
0010
,  // measure 25
0002
0000
1000
0000
1000
0000
1003
0001
,  // measure 26
1001
0000
0010
0000
0100
1000
0001
0000
,  // measure 27
0001
0100
0001
0100
1000
0100
0010
0000
,  // measure 28
0120
1000
1030
0010
0210
0001
0301
0100
,  // measure 29
1000
0000
0100
0000
0001
1000
0100
0000
,  // measure 30
1001
0000
0010
0000
0100
0010
1000
0000
,  // measure 31
1000
0001
1000
0001
0100
0001
0010
0000
,  // measure 32
0120
1000
1030
0010
0210
0001
0301
0100
,  // measure 33
1000
0001
0010
0000
0001
1000
0010
0000
,  // measure 34
1100
0000
0100
0000
1000
0000
0100
1000
0000
1000
0100
0000
0010
0000
0001
0000
,  // measure 35
0101
0000
0001
0000
0100
0000
0001
0100
0000
0100
0001
0000
0100
0000
0010
0000
,  // measure 36
0110
0000
0100
0000
1000
0000
0001
1000
0000
1000
0001
0000
1000
0000
0001
0000
,  // measure 37
0200
0000
0000
0010
0000
0000
0010
0000
0000
0010
0000
0000
0310
0100
0001
0000
,  // measure 38
0101
0000
0001
0000
0100
0000
0001
0100
0000
0100
0001
0000
0100
0000
1000
0000
,  // measure 39
1100
0000
1000
0000
0100
0000
1000
0100
0000
0100
1000
0000
0100
0000
0010
0000
,  // measure 40
0011
0000
0010
0000
0001
0000
0010
0001
0000
0001
0010
0000
0001
0000
1000
0000
,  // measure 41
0200
0000
0000
0010
0000
0000
0010
0000
0000
0010
0000
0000
0310
1000
0001
0000
,  // measure 42
1001
1000
0100
0000
0001
0000
0100
0000
,  // measure 43
0001
1000
0001
0100
0010
0000
1000
0000
,  // measure 44
0100
1000
0001
0100
0010
0001
1000
0001
,  // measure 45
0100
0001
1000
0010
0100
0000
1010
0000
,  // measure 46
0110
0100
0001
0000
0100
0000
1000
0000
,  // measure 47
0100
1000
0010
1000
0001
0000
1000
0000
,  // measure 48
0010
0100
0010
0001
1000
0001
0100
0010
,  // measure 49
2000
0000
0001
0000
0001
0000
3001
1000
,  // measure 50
1001
0000
0100
0000
1000
0001
0010
0000
,  // measure 51
0001
1000
0010
1000
0001
1000
0100
0000
,  // measure 52
0120
1000
1030
0010
0210
0001
0301
0100
,  // measure 53
1000
0010
0100
0000
0010
0100
0001
0000
,  // measure 54
1001
0000
0010
0000
0001
1000
0100
0000
,  // measure 55
0100
0001
0010
0001
1000
0001
0100
0000
,  // measure 56
0120
1000
1030
0100
0210
0001
0301
0010
,  // measure 57
0100
0010
1000
0000
0001
1000
0100
0000
,  // measure 58
0101
0000
0001
0000
0100
0000
0001
0100
0000
0100
0001
0000
0010
0000
1000
0000
,  // measure 59
1100
0000
1000
0000
0100
0000
1000
0100
0000
0100
1000
0000
0100
0000
0001
0000
,  // measure 60
1001
0000
1000
0000
0001
0000
1000
0001
0000
0001
1000
0000
0100
0000
0001
0000
,  // measure 61
0020
0000
0000
0100
0000
0000
0100
0000
0000
0100
0000
0000
0130
0010
1000
0000
,  // measure 62
1010
0000
0010
0000
1000
0000
0010
1000
0000
1000
0010
0000
1000
0000
0010
0000
,  // measure 63
0110
0000
0100
0000
0010
0000
0100
0010
0000
0010
0100
0000
1000
0000
0001
0000
,  // measure 64
0101
0000
0100
0000
0001
0000
0100
0001
0000
0001
0100
0000
0010
0000
1000
0000
,  // measure 65
0200
0000
0000
0010
0000
0000
0010
0000
0300
0010
0000
0000
0010
0100
0001
0000
,  // measure 66
1001
0000
0000
0000
;
