#TITLE:Holiday;
#SUBTITLE:;
#ARTIST:Madonna;
#TITLETRANSLIT:;
#SUBTITLETRANSLIT:;
#ARTISTTRANSLIT:;
#GENRE:;
#CREDIT:hooky;
#BANNER:[20th Century] - Holiday.png;
#BACKGROUND:[20th Century] - Holiday-bg.png;
#LYRICSPATH:;
#CDTITLE:;
#MUSIC:[20th Century] - Holiday.ogg;
#OFFSET:-0.775000;
#SAMPLESTART:24.973997;
#SAMPLELENGTH:16.605000;
#SELECTABLE:YES;
#DISPLAYBPM:116.000000;
#BPMS:0.000000=115.730000
;
#STOPS:
;
#BGCHANGES:;
#KEYSOUNDS:;
#ATTACKS:;

//---------------dance-single - ----------------
#NOTES:
     dance-single:
     :
     Hard:
     7:
     0.344969,0.333737,0.152428,0.120338,0.032090,267.000000,19.000000,15.000000,0.000000,0.000000,0.000000,0.344969,0.333737,0.152428,0.120338,0.032090,267.000000,19.000000,15.000000,0.000000,0.000000,0.000000:
// measure 0
0000
0000
0000
0000
,  // measure 1
0000
0000
0000
0000
,  // measure 2
0000
0000
0000
0000
,  // measure 3
0000
0000
0000
0110
,  // measure 4
1000
0100
0010
0000
0001
0001
0100
0000
,  // measure 5
0010
0010
1000
0000
0100
0000
0010
0000
,  // measure 6
0001
0100
0010
0000
1000
0100
1000
0000
,  // measure 7
0010
0100
0001
0000
1000
0000
1000
0000
,  // measure 8
0010
0100
0010
1000
0100
0010
0001
1000
,  // measure 9
0001
0100
1000
0100
0001
0000
0011
0000
,  // measure 10
1000
0010
0100
0001
0010
0100
1000
0001
,  // measure 11
1000
0010
0001
0010
1000
0000
1100
0000
,  // measure 12
0010
0100
0001
0000
1000
0010
0100
0001
,  // measure 13
0001
0000
0000
0001
0000
0000
1000
0000
1000
0000
0000
1000
0000
0000
0010
0000
,  // measure 14
0100
0001
0010
0000
0001
0001
0100
0000
,  // measure 15
0020
0000
1000
2000
0000
0000
3030
0000
,  // measure 16
0100
0010
0001
0000
0100
0010
1000
0100
,  // measure 17
0100
0000
0000
0100
0000
0000
0010
0000
0010
0000
0000
0010
0000
0000
0001
0000
,  // measure 18
0100
0000
0110
0000
0010
1000
0100
0000
,  // measure 19
0011
1100
2002
3003
,  // measure 20
0100
0010
1000
0000
0100
0010
0001
0000
,  // measure 21
0100
0010
0100
0010
0000
0100
0100
0000
,  // measure 22
0010
1000
0100
0001
0010
1000
0100
0001
,  // measure 23
0000
0100
0100
0000
1000
0000
1100
0000
,  // measure 24
0010
1000
0001
0000
0010
0001
0100
0000
,  // measure 25
0010
1000
0100
0000
1000
0010
0001
0000
,  // measure 26
0010
1000
0100
0000
1000
0000
1000
0000
,  // measure 27
0220
0000
0300
0000
0100
0100
0130
0000
,  // measure 28
0002
0010
1000
0100
,  // measure 29
0010
0010
0100
0013
,  // measure 30
2000
0100
0001
0010
,  // measure 31
0100
0100
0010
3100
,  // measure 32
1000
0010
0100
0000
0001
0010
0001
0000
,  // measure 33
0100
0010
1000
0000
0100
0010
0001
0000
,  // measure 34
0100
0000
0100
0010
1000
0100
1000
0010
,  // measure 35
0200
0000
0000
0020
0000
0000
0330
0000
,  // measure 36
0100
0010
1000
0000
0001
0100
0010
1000
,  // measure 37
1200
1000
0010
0301
,  // measure 38
0010
0001
0100
0000
0010
0010
1000
0000
,  // measure 39
0100
0100
0100
0000
0001
0100
1000
0000
,  // measure 40
0010
0100
1000
0000
0100
0001
0010
0000
,  // measure 41
0001
0000
0000
0001
0000
0000
2000
0000
0000
0000
3000
0000
0100
0000
1000
0000
,  // measure 42
0010
0000
0110
0000
0100
0001
0010
0000
,  // measure 43
1100
0011
2002
3003
,  // measure 44
0100
0010
1000
0100
0100
1000
0010
0000
,  // measure 45
0100
0000
0000
0100
0000
0000
0100
0000
0001
0000
0000
0001
0000
0000
0001
0000
,  // measure 46
0010
0001
0100
0001
0010
1000
0010
0001
,  // measure 47
0200
0000
0010
0310
1000
0100
0001
0100
,  // measure 48
1000
0000
0010
0000
0100
0001
0010
0000
,  // measure 49
0001
0000
0000
0100
0000
0000
0100
0000
0010
0000
0000
0000
0110
0000
0000
0000
,  // measure 50
0010
1000
0100
0000
0010
0001
0100
0000
,  // measure 51
1010
0101
0110
1000
,  // measure 52
1001
0000
0000
0000
;

//---------------dance-single - ----------------
#NOTES:
     dance-single:
     :
     Medium:
     5:
     0.255575,0.229444,0.072203,0.112315,0.000000,200.000000,9.000000,14.000000,0.000000,0.000000,0.000000,0.255575,0.229444,0.072203,0.112315,0.000000,200.000000,9.000000,14.000000,0.000000,0.000000,0.000000:
0000
0000
0000
0000
,
0000
0000
0000
0000
,
0000
0000
0000
0000
,
0000
0000
0000
0110
,
1000
0100
1000
1000
,
0010
0000
0100
0001
0010
0000
0010
0000
,
0001
0000
0100
0000
0010
1000
0100
0000
,
1000
1000
1001
0000
,
0100
0000
0010
0000
1000
0100
1000
0000
,
0010
0100
0101
0000
,
0001
0000
0010
0000
0001
0100
0010
0000
,
1000
0100
1100
0000
,
1000
0010
0100
0000
0001
0000
0001
0000
,
0200
0310
0020
0130
,
0010
1000
0100
0000
1000
0000
1000
0000
,
0002
0000
0000
0200
0000
0000
0303
0000
,
0100
0001
0010
0001
,
0200
0310
0020
0130
,
0010
1000
0100
0000
1000
0000
1000
0000
,
0010
0010
0110
0000
,
0001
0010
0001
0001
,
0100
0000
0010
0000
1000
1000
1000
0000
,
0100
1000
0010
0100
,
0001
0010
0001
0000
0100
0001
0100
0000
,
0010
1000
0100
0000
1000
0000
1000
0000
,
0010
0100
0001
0000
,
1000
0010
0100
0100
,
0001
0010
0001
0000
0100
0000
0100
0000
,
0020
0000
1000
0000
,
0100
0000
0001
0030
,
0200
0000
0010
0000
,
1000
0000
0001
0300
,
0100
0010
1000
1000
,
0001
0010
0001
0001
,
0100
0010
1000
0000
0100
0000
0100
0000
,
1000
0010
0100
0001
0000
0000
0001
0000
,
0010
0001
0100
0000
0010
0000
0010
0000
,
2000
3100
0020
0031
,
0100
0100
0010
0010
,
0010
1000
0100
0000
1000
0010
0100
0000
,
0001
0000
0001
0000
0010
0001
0100
0000
,
0020
0130
0200
0310
,
1000
0001
1000
0000
0010
0100
0010
0000
,
1000
0010
0100
0000
0101
0000
0000
0000
,
0010
0010
1000
1000
,
0100
1000
0010
0000
0100
0000
0100
0000
,
0001
0010
0001
0000
0100
0000
0100
0000
,
0010
1000
0100
0000
1000
0000
1000
0000
,
0010
0100
0001
0000
0010
0000
0010
0000
,
0002
1000
2000
3003
,
0010
0010
0110
0000
,
0100
0100
0110
0000
,
1001
0000
0000
0000
;

//---------------dance-single - ----------------
#NOTES:
     dance-single:
     :
     Easy:
     3:
     0.171911,0.146010,0.104293,0.016045,0.000000,135.000000,13.000000,2.000000,0.000000,0.000000,0.000000,0.171911,0.146010,0.104293,0.016045,0.000000,135.000000,13.000000,2.000000,0.000000,0.000000,0.000000:
0000
0000
0000
0000
,
0000
0000
0000
0000
,
0000
0000
0000
0000
,
0000
0000
0000
1001
,
0100
0000
0100
0100
,
0010
0000
0010
0010
,
1000
0000
1000
1000
,
0001
0000
1001
0000
,
0100
0010
1000
1000
,
0010
0100
0001
0000
,
0001
0001
0010
0100
,
1000
1000
0001
0000
,
0100
0100
0010
0000
,
0010
0010
0100
0000
,
0001
0010
0100
0000
,
1000
0010
0100
0000
,
0100
0001
0010
0000
,
0001
0001
1000
1000
,
0110
0000
0000
0010
,
0010
0000
1001
0000
,
0110
0000
0010
0000
,
1000
0100
1000
0000
,
0010
0100
0001
0000
,
0010
0010
0001
0000
,
0100
0010
1000
0000
,
0100
1000
0010
0000
,
0100
0000
0101
0000
,
0011
0000
1001
0000
,
0110
0000
0010
0000
,
1000
0000
0100
0000
,
1000
0000
0010
0000
,
0100
0000
0001
0000
,
0010
0001
0100
0000
,
0100
0010
1000
0000
,
0100
0000
1000
0010
,
2002
0000
0000
3003
,
0100
0010
1000
0000
,
0100
0010
0001
0000
,
0100
0100
0010
0000
,
0010
0010
1000
0000
,
0001
1000
0001
0000
,
0100
0010
1000
0000
,
0100
0000
0100
0000
,
0010
0010
0110
0000
,
0010
1000
0100
0000
,
0010
0001
0100
0000
,
0010
0010
0100
0000
,
0001
0010
0100
0000
,
0010
1000
0100
0000
,
1000
0010
0100
0000
,
0001
0000
0100
0000
,
0010
1000
0011
0000
,
1001
0000
0000
0000
;

//---------------dance-single - ----------------
#NOTES:
     dance-single:
     :
     Beginner:
     1:
     0.099709,0.104293,0.064180,0.000000,0.000000,79.000000,8.000000,0.000000,0.000000,0.000000,0.000000,0.099709,0.104293,0.064180,0.000000,0.000000,79.000000,8.000000,0.000000,0.000000,0.000000,0.000000:
0000
0000
0000
0000
,
0000
0000
0000
0000
,
0000
0000
0000
0000
,
0000
0000
0000
0000
,
1000
0000
0000
0000
,
1000
0000
0000
0000
,
0001
0000
0000
0000
,
0001
0000
0000
0000
,
1000
1000
1000
0000
,
0000
0000
0000
0000
,
0001
0001
0001
0000
,
0000
0000
0000
0000
,
0010
0000
0000
0000
,
0100
0000
0000
0000
,
0010
0000
0000
0000
,
0100
0000
0000
0000
,
1000
0000
0001
0000
,
1000
0000
0001
0000
,
0100
0000
0000
0000
,
0010
0000
0010
0000
,
1000
0000
1000
0000
,
0001
0000
0001
0000
,
1000
0000
0001
0000
,
1001
0000
0000
0000
,
0110
0000
0010
0000
,
0100
0000
0000
0000
,
1000
0000
0001
0000
,
0110
0000
0000
0000
,
1001
0000
1000
0000
,
0001
0000
0000
0000
,
0100
0000
0010
0000
,
0100
0000
0000
0000
,
0110
0000
0010
0000
,
0100
0000
0000
0000
,
0001
0000
1000
0000
,
1001
0000
0000
0000
,
0100
0000
0010
0000
,
0100
0000
0001
0000
,
1000
0000
0010
0000
,
1000
0000
0100
0000
,
1000
0000
0001
0000
,
0010
0000
0001
0000
,
0100
0000
0000
0000
,
0010
0010
0010
0000
,
1000
0000
0001
0000
,
1000
0000
0001
0000
,
0100
0000
0010
0000
,
0100
0000
0010
0000
,
1000
0000
0100
0000
,
1000
0000
0010
0000
,
0110
0000
0000
0000
,
0010
0010
0010
0000
,
1001
0000
0000
0000
;
