#TITLE:ride;
#SUBTITLE:;
#ARTIST:Sonitus Vir;
#TITLETRANSLIT:;
#SUBTITLETRANSLIT:;
#ARTISTTRANSLIT:;
#GENRE:Nightmare Carvinal;
#CREDIT:;
#BANNER:[12th Week] - ride.png;
#BACKGROUND:[12th Week] - ride-bg.png;
#LYRICSPATH:;
#CDTITLE:cdtitle.png;
#MUSIC:[12th Week] - ride.mp3;
#OFFSET:-0.200000;
#SAMPLESTART:27.588572;
#SAMPLELENGTH:13.754290;
#SELECTABLE:YES;
#DISPLAYBPM:70.000000:170.000000;
#BPMS:0.000000=70.000000
,62.000000=66.000000
,62.333332=59.000000
,63.000000=53.000000
,63.333332=47.000000
,63.666668=41.000000
,64.000000=85.000000
,82.000000=87.720001
,83.000000=93.239998
,84.000000=89.519997
,84.333336=93.379997
,84.666664=94.199997
,85.333336=95.459999
,86.000000=99.040001
,86.333336=98.660004
,87.000000=101.500000
,87.666664=94.220001
,88.000000=108.940002
,88.333336=105.279999
,88.666664=106.480003
,89.000000=109.860001
,90.000000=115.080002
,90.666664=112.040001
,91.666664=124.100006
,92.000000=125.559998
,92.666664=130.779999
,93.333336=133.020004
,94.333336=133.619995
,95.000000=137.020004
,96.000000=152.259995
,97.333336=150.440002
,99.333336=155.899994
,99.666664=163.520004
,101.000000=46.599998
,104.000000=72.000000
,135.000000=64.000000
,135.333328=54.000000
,135.666672=44.000000
,136.000000=54.000000
,138.000000=90.000000
,156.000000=91.000000
,156.333328=92.000000
,156.666672=93.000000
,157.000000=94.000000
,157.333328=96.489998
,157.666672=97.980003
,158.000000=99.959999
,158.333328=101.449997
,158.666672=102.940002
,159.000000=100.000000
,159.333328=101.000000
,159.666672=102.000000
,160.000000=103.000000
,160.333328=104.000000
,160.666672=105.000000
,161.000000=106.000000
,161.333328=107.000000
,161.666672=108.000000
,162.000000=109.000000
,162.333328=110.000000
,162.666672=111.000000
,163.000000=112.000000
,163.333328=113.000000
,163.666672=114.000000
,164.000000=115.000000
,164.333328=116.000000
,164.666672=117.000000
,165.000000=124.000000
,165.333328=124.999992
,165.666672=125.999992
,166.333328=126.500000
,166.666672=129.000000
,167.000000=131.500000
,167.333328=136.500000
,168.000000=139.000000
,168.333328=141.500000
,168.666672=144.000000
,169.000000=146.500000
,169.333328=149.000000
,169.666672=151.500000
,170.000000=154.000000
,170.666672=155.000000
,171.333328=157.000000
,172.000000=161.000000
,173.000000=163.000000
,174.000000=165.000000
,175.000000=170.000000
;
#STOPS:
;
#BGCHANGES:;
#KEYSOUNDS:;
#ATTACKS:;

//---------------dance-single - S-CHALLENGE----------------
#NOTES:
     dance-single:
     xRGTMx-CSP:
     Challenge:
     10:
     0.616125,0.568958,0.521660,0.036737,1.000000,511.000000,71.000000,5.000000,0.000000,0.000000,0.000000,0.616125,0.568958,0.521660,0.036737,1.000000,511.000000,71.000000,5.000000,0.000000,0.000000,0.000000:
0000
0000
0000
0000
,
0000
0000
0000
0000
,
0000
0000
0000
0000
,
0000
0000
0000
0000
,
0001
0000
1010
0100
0000
0011
0100
0000
1001
1000
0010
0100
,
0001
0000
1100
0010
0000
0101
0010
1000
0100
1001
0000
0001
,
1000
0000
0011
0100
0000
1010
0100
0000
1001
0001
0010
0100
,
1000
0000
0101
0010
0000
1100
0010
0001
0100
1001
0000
0001
,
1000
0000
0010
0000
0010
0000
0100
0000
0001
0000
1000
0100
1000
0000
0001
0000
0100
0000
0100
0000
0010
0000
1000
0000
,
0001
0000
0010
0000
0001
0100
0001
0000
1000
0000
0100
1000
0100
0000
0010
0000
0001
0000
1010
0000
0100
0000
0001
0000
,
1000
0000
0100
0000
0100
0000
0010
0000
0001
0000
1000
0010
1000
0000
0001
0000
0010
0000
0010
0000
0100
0000
1000
0000
,
0001
0000
0100
0000
0001
0010
0001
0000
1000
0000
0010
1000
0010
0000
0100
0000
0001
0000
2100
0000
0000
0000
0000
0000
,
3001
0000
0100
0010
0100
0000
0001
0000
0011
0000
1100
0000
1000
0000
0010
0100
0010
0000
1000
0000
1100
0000
0011
0000
,
0001
0000
0100
0010
1000
0000
0001
0000
0011
0000
1010
0000
1100
0000
1000
0000
0001
0000
0101
0000
0001
0000
1000
0000
,
1010
0000
0100
0000
0001
0000
0011
0000
0000
0000
0010
0100
1000
0000
0101
0000
0010
0000
1010
0000
0000
0000
0000
0000
,
0011
0000
0000
0000
0100
0000
0000
0000
1000
0000
0000
0000
1010
0000
0000
0000
0000
0000
0000
0000
0010
0000
0100
0000
0001
0000
0000
0000
1000
0000
0000
0000
0100
0000
0010
0100
0010
0000
0000
0000
0110
0000
0000
0000
1001
0000
0000
0000
,
1010
0000
0010
0000
0100
0000
0101
0000
0001
0000
1000
0100
1000
0000
0001
0000
0100
0000
0110
0000
0010
0000
1000
0000
,
0001
0000
0010
0000
0001
0100
0001
0000
1000
0000
0100
1000
0100
0010
0001
0010
0001
1000
0010
1000
0010
0100
0010
0000
,
0100
0000
0001
0000
1000
0000
1001
0000
0001
0000
0010
0100
0010
0000
0001
0000
1000
0000
1010
0000
0010
0000
0100
0000
,
0001
0000
0010
0000
0001
0100
0010
0000
1000
0000
0100
0000
1000
0010
1000
0010
0100
0010
0100
0001
0100
0001
1000
0000
,
1100
0000
0100
0000
0010
0000
0011
0000
0001
0000
1000
0010
1000
0000
0001
0000
0010
0000
0110
0000
0100
0000
1000
0000
,
0001
0000
0100
0000
0001
0010
0001
0000
1000
0000
0010
1000
0010
0100
0001
0100
0001
1000
0100
1000
0100
0010
0100
0000
,
0010
0000
0001
0000
1000
0000
1001
0000
0001
0000
0100
0010
0100
0000
0001
0000
1000
0000
1100
0000
0100
0000
0010
0000
,
0011
0001
0100
0010
1000
0010
0100
0001
0010
0100
1000
0100
,
0010
0001
0100
1000
0100
0001
0010
1000
0010
0001
0100
0010
,
1000
0100
0010
0002
0000
0000
0003
0000
0000
0000
0000
0000
,
0001
0000
0100
0000
0010
0000
1010
0000
0000
0000
0100
0001
1000
0000
0100
0000
0010
0000
0011
0000
2000
0000
0000
0000
,
0010
0000
0000
3000
0100
1000
0001
0000
0000
0000
0100
0001
1000
0000
0100
0000
0010
0002
0100
0000
0003
0000
0000
0000
,
1000
0000
0010
0000
0100
0000
0101
0000
0000
0000
0010
1000
0001
0000
0020
0000
0130
0000
1100
0000
0001
0000
0000
0000
,
0100
0000
0001
0000
0010
0001
1000
0000
0000
0000
0010
1000
0001
0000
0010
0000
0100
0000
1001
0000
0000
0000
0000
0000
,
1000
0000
0001
0010
0100
0000
1100
0000
1000
0000
0001
0000
1000
0000
0001
0100
0010
0000
1010
0000
1000
0000
0001
0000
,
0010
0000
0100
1000
0100
0000
0110
0000
0010
0000
0001
0000
1000
0000
0010
0000
0001
0000
0010
0000
1000
0000
0001
0000
,
0011
0000
0100
0000
1000
0000
1010
0000
0000
0000
0010
0100
0001
0000
1000
0000
0100
0000
0110
0000
0000
0000
0000
0000
,
0011
0000
0100
0000
1000
0000
1010
0000
0000
0000
0010
0100
0010
0000
1000
0000
0100
0000
0110
0000
0010
0000
0001
0000
,
0000
0000
0000
0000
0000
0000
0000
0000
0000
0000
0000
0000
0000
0000
0000
0000
0000
0000
0000
0000
0000
0000
0000
0000
0000
0000
0000
0000
0000
0000
0000
0000
0000
0000
0000
0000
0000
0000
0000
0000
0000
0000
0000
0000
0000
0000
0000
0000
0000
0000
0000
0000
0000
0000
0000
1000
0000
0000
0000
0010
0000
0000
0000
1000
0000
0000
0000
0000
0000
0000
0000
0100
0000
0000
0000
0000
0000
0000
0000
0010
0000
0000
0000
0000
0000
0000
0000
0000
0000
0000
0000
0000
0000
0000
0000
0000
0011
0000
0000
0000
0000
0000
0000
0000
0000
0000
0000
0000
0000
0000
0000
0000
0010
0000
0000
0000
0000
0000
0000
0000
0000
0000
0000
0000
0000
0000
0000
0000
0100
0000
0000
0000
0000
0000
0000
0000
0000
0000
0000
0000
0000
0000
0000
0000
1100
0000
0000
0000
0000
0000
0000
0000
0000
0000
0000
0000
0000
0000
0000
0000
1000
0000
0000
0000
0000
0000
0000
0000
0000
0000
0000
0000
0000
0000
0000
0000
0001
0000
0000
0000
0000
0000
0000
0000
0010
0000
0000
0000
0000
0000
0000
0000
,
0001
0000
0100
0000
0010
0000
1010
0000
1000
0000
0001
0000
1000
0000
0100
0000
0010
0100
1000
0000
0001
0000
0100
0010
,
1000
0001
0010
0001
1000
0100
1000
0001
0100
0001
1000
0000
1010
0000
0010
0000
0100
0000
0101
0000
0001
0000
1000
0010
,
1000
0000
0100
0000
0010
0000
0011
0000
0001
0000
1000
0000
0001
0000
0100
0000
0010
0100
0001
0000
1000
0000
1001
0000
,
0001
1000
0010
1000
0001
0100
0001
1000
0100
1000
0001
0000
0101
0000
0001
0000
1000
0000
1100
0000
1000
0000
0001
0010
,
0001
0000
1000
0000
0010
0000
1010
0000
1000
0000
0100
0000
0010
0000
0001
0000
0010
0100
1000
0000
0001
0000
0100
0010
,
1000
0010
0100
0001
0010
0100
1000
0100
0010
0001
1000
0000
1010
0000
0010
0000
0100
0000
0101
0000
0001
0000
0010
0100
,
0010
0001
1000
0010
0100
0001
0011
0010
0100
1000
0100
0001
,
0100
1000
0010
0001
0010
1000
0100
0010
0001
0010
1000
0010
,
0001
0100
0010
1000
0001
0010
0100
1000
0001
0101
0000
0000
,
0110
1001
0000
0000
;

//---------------dance-single - S-EXPERT----------------
#NOTES:
     dance-single:
     xRGTMx-ESP:
     Hard:
     9:
     0.487022,0.438911,0.036737,0.007347,1.000000,458.000000,5.000000,1.000000,0.000000,0.000000,0.000000,0.487022,0.438911,0.036737,0.007347,1.000000,458.000000,5.000000,1.000000,0.000000,0.000000,0.000000:
0000
0000
0000
0000
,
0000
0000
0000
0000
,
0000
0000
0000
0000
,
0000
0000
0000
0000
,
0001
0000
0001
0100
0000
0001
1000
0000
1000
0100
0000
1000
,
0001
0000
0001
0010
0000
0010
0001
0100
0001
1000
0000
0001
,
1000
0000
1000
0100
0000
1000
0001
0000
0001
0100
0000
0001
,
1000
0000
1000
0010
0000
0010
1000
0100
1000
0001
0000
0000
,
1000
0000
0100
0000
0100
0000
0010
0000
0000
0000
0001
0010
0001
0000
0100
0000
0100
0000
0010
0000
0000
0000
0000
0000
,
1000
0000
0000
0000
0100
1000
0001
0000
0000
0000
0100
0001
1000
0000
0100
0000
0010
0000
1001
0000
0000
0000
0000
0000
,
0001
0000
0010
0000
0010
0000
0100
0000
0000
0000
1000
0100
1000
0000
0010
0000
0010
0000
0100
0000
0000
0000
0000
0000
,
0001
0000
0000
0000
0010
0001
1000
0000
0000
0000
0010
1000
0001
0000
0010
0000
0100
0000
1001
0000
0000
0000
0000
0000
,
1000
0000
0010
0100
0010
0000
1000
0000
0100
0000
0010
0000
0001
0000
0010
0100
0010
0000
0001
0000
0100
0000
0010
0000
,
1000
0000
0100
0010
0001
0000
1000
0000
0010
0000
0100
0000
0001
0000
0010
0000
1000
0000
0010
0000
0001
0000
1000
0000
,
0010
0000
0010
0000
0100
0000
0001
0000
0000
0000
1000
0100
1000
0000
0001
0000
0001
0000
0100
0000
0000
0000
0000
0000
,
0010
0000
0010
0000
1000
0000
0001
0000
0000
0000
0010
0001
0010
0000
0100
0000
1000
0000
0001
0000
0001
0000
0100
0000
,
0001
0000
0010
0000
0010
0000
0100
0000
1000
0000
0001
0100
0001
0000
0100
0000
0010
0000
0010
0000
1000
0000
0001
0000
,
1000
0000
0100
0000
0010
0100
0010
0000
0001
0000
0100
0001
0100
0000
0010
0000
1000
0000
0001
0000
1000
0000
0100
0000
,
1000
0000
0010
0000
0010
0000
0100
0000
0001
0000
1000
0100
1000
0000
0100
0000
0010
0000
0010
0000
0001
0000
1000
0000
,
0001
0000
0100
0000
0010
0100
0010
0000
1000
0000
0100
1000
0100
0000
0010
0000
0001
0000
1000
0000
0001
0000
0100
0000
,
0001
0000
0010
0000
0010
0000
0100
0000
1000
0000
0010
1000
0010
0000
0100
0000
0001
0000
0001
0000
1000
0000
0100
0000
,
0010
0000
0100
0000
1000
0100
0010
0000
0001
0000
0010
0100
1000
0000
0001
0000
0100
0000
0010
0000
1000
0000
0001
0000
,
1000
0000
0010
0000
0010
0000
0100
0000
0001
0000
0010
0001
0010
0000
0100
0000
1000
0000
1000
0000
0001
0000
0100
0000
,
0001
0010
0100
0010
0100
1000
0001
0100
0010
0100
0010
1000
,
0001
0010
0100
1000
0100
0010
0001
0100
0010
1000
0010
0100
,
0001
1000
0001
2000
0000
0000
3000
0000
0000
0000
0000
0000
,
1000
0000
0010
0000
1000
0000
0100
0000
0000
0000
0010
0100
0010
0000
0001
0000
0100
0000
0001
0000
0000
0000
0000
0000
,
1000
0000
0000
0000
0100
1000
0010
0000
0000
0000
0100
0001
1000
0000
0100
0000
0010
0001
1000
0000
0000
0000
0000
0000
,
0001
0000
0010
0000
0001
0000
0100
0000
0000
0000
0010
0100
0010
0000
1000
0000
0100
0000
1000
0000
0000
0000
0000
0000
,
0001
0000
0000
0000
0100
0001
0010
0000
0000
0000
0100
1000
0001
0000
0100
0000
0010
0000
1001
0000
0000
0000
0000
0000
,
1000
0000
0100
0010
0100
0000
1000
0000
0010
0000
0010
0000
0100
0000
0001
0010
0001
0000
0100
0000
0100
0000
0010
0000
,
1000
0000
0100
0010
0100
0000
1000
0000
0010
0000
0100
0000
0001
0000
0010
0000
1000
0000
0010
0000
0001
0000
1000
0000
,
0010
0000
0010
0000
0100
0000
0001
0000
0000
0000
1000
0100
1000
0000
0010
0000
0100
0000
0100
0000
0000
0000
0000
0000
,
0001
0000
0010
0000
0010
0000
0100
0000
0000
0000
1000
0100
0010
0000
0001
0000
0100
0000
0010
0000
0010
0000
1000
0000
,
0000
0000
0000
0000
0000
0000
0000
0000
0000
0000
0000
0000
1000
0000
0100
0000
0100
0000
0010
0000
0001
0000
1000
0010
,
1000
0000
0010
0000
0100
0000
0100
0000
0001
0000
1000
0000
0001
0000
0010
0000
0100
0010
0100
0000
1000
0000
0010
1000
,
0010
0000
0100
0000
0001
0000
1000
0000
0001
0000
0010
0000
0001
0000
0100
0000
0100
0000
0010
0000
1000
0000
0001
0010
,
0001
0000
0010
0000
0100
0000
0100
0000
1000
0000
0001
0000
1000
0000
0010
0000
0100
0010
0100
0000
0001
0000
0010
0001
,
0010
0000
0100
0000
1000
0000
0001
0000
1000
0000
0010
0000
1000
0000
0100
0000
0100
0000
0010
0000
0001
0000
0100
0001
,
0100
0000
0010
0000
1000
0000
1000
0000
0001
0000
0010
0000
0100
0000
0010
0000
0001
0010
0100
0000
1000
0000
0100
0010
,
0001
0000
1000
0000
0010
0000
0100
0000
0001
0000
1000
0000
0001
0000
0100
0000
0100
0000
0010
0000
1000
0000
0100
1000
,
0100
0010
0001
0001
1000
0010
1000
0100
0010
0001
0010
0100
,
1000
0010
0100
0001
0100
0010
1000
0100
0010
0100
0010
0001
,
1000
0010
0100
0010
0100
0001
1000
0100
0010
0001
0000
0000
,
0110
1001
0000
0000
;

//---------------dance-single - S-DIFFICULT----------------
#NOTES:
     dance-single:
     xRGTMx-DSP:
     Medium:
     7:
     0.320133,0.292607,0.014695,0.007347,0.529007,302.000000,2.000000,1.000000,0.000000,0.000000,0.000000,0.320133,0.292607,0.014695,0.007347,0.529007,302.000000,2.000000,1.000000,0.000000,0.000000,0.000000:
0000
0000
0000
0000
,
0000
0000
0000
0000
,
0000
0000
0000
0000
,
0000
0000
0000
0000
,
1000
0100
0001
0010
,
1000
0000
0000
0100
0000
0000
0010
0000
0001
1000
0000
0000
,
0001
0100
1000
0010
,
0001
0000
0000
0100
0000
0000
0010
0000
1000
0001
0000
0000
,
1000
0000
1000
0100
0000
0100
0010
0001
0010
0001
0000
0000
,
1000
0000
1000
0010
0000
0010
0100
0001
0100
0001
0000
0000
,
0001
0000
0001
0010
0000
0010
0100
1000
0100
1000
0000
0000
,
0001
0000
0001
0100
0000
0100
0010
1000
0010
1000
0000
0000
,
0001
0000
0001
0010
0000
0010
0100
0000
0100
1000
0000
1000
,
0001
0000
0001
0100
0000
0100
0010
0000
0010
1000
0000
1000
,
0001
0000
0010
0100
0000
1000
0100
0000
0010
0001
0000
0001
,
0100
0000
0010
1000
0000
0010
0100
0000
0000
0001
0000
0000
,
1000
0000
1000
0100
0000
0100
0010
0001
0100
0001
0000
0000
,
1000
0000
1000
0010
0000
0010
0100
0001
0010
0001
0000
1000
,
0001
0000
0001
0100
0000
0100
0010
1000
0100
1000
0000
0000
,
0001
0000
0001
0010
0000
0010
0100
1000
0010
1000
0000
0000
,
1000
0000
0100
0010
0000
0001
0010
0100
1000
0001
0000
0000
,
1000
0000
0010
0100
0000
0001
0100
0010
1000
0001
0000
0100
,
0001
0000
0010
0100
0000
1000
0100
0010
0001
1000
0000
1000
,
0001
0000
0001
0010
0000
0010
0100
0000
0100
1000
0000
1000
,
0100
0000
0100
0010
0000
0010
0001
0000
0001
0100
0000
0100
,
0010
0000
0010
2000
0000
0000
3000
0000
0000
0000
0000
0000
,
0001
0000
0001
0010
0000
0010
0100
1000
0100
1000
0000
0000
,
0001
0000
0001
0100
0000
0100
0010
1000
0010
1000
0000
0000
,
1000
0000
1000
0100
0000
0100
0010
0001
0010
0001
0000
0000
,
1000
0000
1000
0010
0000
0010
0100
0001
0100
0001
0000
0000
,
1000
0000
1000
0100
0000
0100
0010
0000
0010
0001
0000
0001
,
1000
0000
1000
0010
0000
0010
0100
0000
0100
0001
0000
0001
,
1000
0000
0100
0010
0000
0001
0010
0000
0100
1000
0000
1000
,
0010
0000
0100
0001
0000
0100
0010
0000
0000
1000
0010
1000
,
0000
0000
0000
0000
0000
0000
0001
0000
0001
0010
0000
0010
,
0100
1000
0010
1000
0000
0000
0001
0000
0001
0100
0000
0100
,
0010
1000
0100
1000
0000
0001
1000
0000
1000
0010
0000
0010
,
0100
0001
0010
0001
0000
0000
1000
0000
1000
0100
0000
0100
,
0010
0001
0100
0001
0000
0000
0001
0000
0010
0100
0000
1000
,
0100
0010
0001
1000
0000
0000
0001
0000
0100
0010
0000
1000
,
0010
0100
0001
1000
0000
0010
1000
0000
0100
0010
0000
0001
,
0010
0100
1000
0001
0000
0001
1000
0000
1000
0100
0000
0100
,
0010
0000
0010
0001
0000
0001
0010
0000
0010
0100
0000
0100
,
1000
0000
1000
0010
0000
0010
0100
0000
0100
0001
0000
0000
,
0110
1001
0000
0000
;

//---------------dance-single - S-BASIC----------------
#NOTES:
     dance-single:
     xRGTMx-BSP:
     Easy:
     4:
     0.164790,0.130048,0.014695,0.007347,0.000000,154.000000,2.000000,1.000000,0.000000,0.000000,0.000000,0.164790,0.130048,0.014695,0.007347,0.000000,154.000000,2.000000,1.000000,0.000000,0.000000,0.000000:
0000
0000
0000
0000
,
0000
0000
0000
0000
,
0000
0000
0000
0000
,
0000
0000
0000
0000
,
0001
0001
0100
0000
,
1000
1000
0100
0000
,
0001
0001
0010
0000
,
1000
1000
0010
0000
,
0001
0001
0100
0100
,
0010
0010
1000
0100
,
1000
1000
0100
0100
,
0010
0010
0001
0100
,
0001
0001
1000
1000
,
0001
0001
1000
1000
,
0010
0010
0100
0100
,
0010
0010
0100
0100
,
0001
0010
0001
0010
,
0100
1000
0100
1000
,
0001
0100
0001
0100
,
0010
1000
0010
1000
,
0001
0010
0100
0010
,
0001
0100
0010
0010
,
1000
0100
0010
0100
,
1000
0010
0100
0100
,
0001
0010
0100
1000
,
0001
0002
0003
0000
,
1000
1000
0100
0100
,
0010
0010
0001
0100
,
0001
0001
0100
0100
,
0010
0010
1000
0100
,
1000
1000
0001
0001
,
1000
1000
0001
0001
,
0010
0010
0100
0100
,
0010
0010
0100
0100
,
0000
0000
1000
0010
,
1000
0010
0100
0001
,
0100
0001
1000
0100
,
1000
0100
0010
0001
,
0010
0001
1000
0010
,
0100
0010
1000
0100
,
0010
0010
0001
0100
,
0010
0100
0001
0010
,
0100
0100
1000
0010
,
0100
0001
1000
0001
,
0110
1001
0000
0000
;

//---------------dance-single - S-BEGINNER----------------
#NOTES:
     dance-single:
     xRGTMx-BEG:
     Beginner:
     2:
     0.076622,0.081280,0.007347,0.007347,0.000000,71.000000,1.000000,1.000000,0.000000,0.000000,0.000000,0.076622,0.081280,0.007347,0.007347,0.000000,71.000000,1.000000,1.000000,0.000000,0.000000,0.000000:
0000
0000
0000
0000
,
0000
0000
0000
0000
,
0000
0000
0000
0000
,
0000
0000
0000
0000
,
1000
0000
0000
0000
,
1000
0000
0000
0000
,
0001
0000
0000
0000
,
0001
0000
0000
0000
,
0100
0000
0100
0000
,
0100
0000
0000
0000
,
0010
0000
0010
0000
,
0010
0000
0000
0000
,
1000
0000
1000
0000
,
0001
0000
0000
0000
,
0001
0000
0001
0000
,
1000
0000
1000
0000
,
0001
0000
0010
0000
,
0100
0000
1000
0000
,
0001
0000
0100
0000
,
0010
0000
1000
0000
,
0001
0000
0010
0000
,
1000
0000
0100
0000
,
0001
0000
0100
0000
,
1000
0000
0010
0000
,
0001
0000
0100
0000
,
0001
0002
0003
0000
,
0010
0000
0010
0000
,
0010
0000
0000
0000
,
0100
0000
0100
0000
,
0100
0000
0000
0000
,
0001
0000
0001
0000
,
1000
0000
0000
0000
,
1000
0000
1000
0000
,
0001
0000
0001
0000
,
0000
0000
1000
0000
,
0100
0000
0010
0000
,
0001
0000
1000
0000
,
0010
0000
0100
0000
,
0001
0000
1000
0000
,
0100
0000
0001
0000
,
0010
0000
1000
0000
,
0010
0000
0001
0000
,
0100
0000
1000
0000
,
0010
0000
1000
0001
,
0000
1001
0000
0000
;
