#TITLE:attack in the minor key;
#SUBTITLE:;
#ARTIST:Mr.T;
#TITLETRANSLIT:;
#SUBTITLETRANSLIT:;
#ARTISTTRANSLIT:;
#GENRE:ELECTRO SHOCK;
#CREDIT:;
#BANNER:[Jubeat] - attack in the minor key (ddrstepper).png;
#BACKGROUND:[Jubeat] - attack in the minor key (ddrstepper)-bg.png;
#LYRICSPATH:;
#CDTITLE:;
#MUSIC:[Jubeat] - attack in the minor key (ddrstepper).ogg;
#OFFSET:-0.142;
#SAMPLESTART:19.154;
#SAMPLELENGTH:11.707;
#SELECTABLE:YES;
#BPMS:0.000=82.000
,10.000=164.000
,106.000=82.000
,122.000=164.000
;
#STOPS:
;
#BGCHANGES:;
#KEYSOUNDS:;
#ATTACKS:;

//---------------dance-single - ----------------
#NOTES:
     dance-single:
     :
     Hard:
     9:
     0.722,0.872,0.531,0.369,0.355,462.000,59.000,41.000,0.000,0.000,0.000,0.722,0.872,0.531,0.369,0.355,462.000,59.000,41.000,0.000,0.000,0.000: // measure 0
0000
0000
0000
0000
,  // measure 1
2000
0000
0000
0000
3020
0000
0000
0000
0230
0000
0000
0000
0302
0000
0000
0000
0023
0000
0000
0000
0030
0000
0100
0010
0200
0000
0000
0000
0000
0000
0000
0000
,  // measure 2
2000
0000
0000
3300
1000
0010
0100
0000
,  // measure 3
0100
0001
0010
0000
0010
0100
1000
0000
,  // measure 4
1000
0100
0010
0000
0010
0001
0100
0000
,  // measure 5
0100
0010
1000
0000
1000
0100
0001
0100
,  // measure 6
1000
0010
0100
0000
0001
0100
0010
0000
,  // measure 7
0010
1000
0100
0000
0100
0010
0001
0000
,  // measure 8
0001
0100
1000
0000
1000
0100
0001
0000
,  // measure 9
0001
1000
0001
0000
0001
0010
0100
1000
,  // measure 10
0010
0000
0001
0000
0010
0000
1010
0000
1000
0000
0000
1001
0000
0000
0001
0000
,  // measure 11
0010
0000
0000
0110
0000
0000
0100
0000
1000
0000
0000
0000
1100
0000
1000
0000
,  // measure 12
0010
0000
0000
0110
0000
0000
0100
0000
0001
0000
0000
0000
0101
0000
0100
0000
,  // measure 13
0001
0000
0000
0011
0000
0000
0010
0000
0100
0000
0000
0000
1100
0000
1000
0000
,  // measure 14
0001
0000
0000
1001
0000
0000
1000
0000
0010
0000
0000
1010
0000
0000
1000
0000
,  // measure 15
0001
0000
0000
1001
0000
0000
0001
0000
0010
0000
0000
0000
0011
0000
0001
0000
,  // measure 16
1000
0000
0000
1001
0000
0000
0001
0000
0100
0000
0000
0000
0110
0000
0010
1000
,  // measure 17
0010
0000
1000
0000
0001
0010
1000
0001
,  // measure 18
0100
0000
1000
0000
0001
0000
1001
0000
1000
0000
0000
0010
0000
0000
0100
0000
,  // measure 19
0001
0000
0000
0010
0000
0000
0100
0000
1000
0000
0000
0000
1100
0000
0000
0000
,  // measure 20
0100
0000
0000
0010
0000
0000
0001
0000
0100
0000
0000
0110
0000
0000
0010
0000
,  // measure 21
1000
0000
0000
1010
0000
0000
0010
0000
1000
0000
0000
0000
1001
0000
0000
0000
,  // measure 22
0002
0000
0010
0000
0010
0000
0013
0000
0011
0000
0000
0001
0000
0000
0100
0000
,  // measure 23
0110
0000
0000
0010
0000
0000
1000
0000
1010
0000
0000
0010
0000
0000
1000
0000
,  // measure 24
1001
0000
0000
0001
0000
0000
0010
0000
0021
0000
0000
0000
0032
0000
0000
0000
,  // measure 25
0203
0000
0320
0000
1030
0100
0010
0100
,  // measure 26
1000
0000
0010
0000
0100
0000
0010
0000
2000
0000
0000
0010
3020
0000
0000
0100
,  // measure 27
0230
0000
0000
0000
0000
0000
0001
0000
0302
0000
0000
0000
0023
0000
0000
0000
0130
0000
0000
1000
0000
0000
0010
0000
0001
0000
0000
0010
0000
0000
1000
0000
,  // measure 28
0002
0000
0000
1000
1000
0000
1000
0000
1003
0000
1100
0000
0100
0000
0110
0000
,  // measure 29
0010
0011
0001
0101
0100
0010
1000
0001
,  // measure 30
0010
0000
0100
0000
0010
0000
0100
0000
1000
0001
1000
0001
1000
0001
1000
0001
0000
0000
2000
0000
3000
0000
0000
0000
2002
0000
3003
0000
0000
0000
0002
0000
,  // measure 31
0003
2002
0000
3003
1000
0010
1000
0100
,  // measure 32
1000
0000
0001
0000
0010
0000
0001
0000
2000
0000
0000
3002
0000
0000
0203
0000
,  // measure 33
0320
0000
0130
0010
2000
0000
3100
0010
,  // measure 34
0001
0000
0100
0000
0001
0000
0010
0000
0200
0000
0000
2300
0000
0000
3020
0000
,  // measure 35
0230
0000
0000
0000
0310
0000
1000
0001
1000
0000
0000
0000
1010
0000
0000
0000
,  // measure 36
0010
0000
0100
0000
0010
0000
1000
0000
0200
0000
0000
0320
0000
0000
0032
0000
,  // measure 37
0203
0000
0301
0010
0100
1000
0100
1000
,  // measure 38
0010
1000
0010
1000
0010
0100
0010
0100
,  // measure 39
0001
1000
0001
1000
0001
1000
0001
1000
0001
0000
0100
0000
0001
0000
0100
0000
,  // measure 40
0010
0100
0010
0100
0010
1000
0100
0001
,  // measure 41
0100
0000
1100
0000
1000
0001
1000
0001
,  // measure 42
1000
0100
1000
0100
1000
0010
0001
0010
,  // measure 43
1000
0000
1010
0000
0010
0001
1000
0100
,  // measure 44
0001
0010
1000
0001
0100
1000
0010
0100
,  // measure 45
0002
0000
1000
1000
1003
0000
1001
0000
,  // measure 46
0001
0010
0100
1000
0010
0000
0100
0001
,  // measure 47
0010
0001
0010
0001
1000
0001
1000
0001
1000
0000
0010
0000
0100
0000
0001
0000
,  // measure 48
0010
0000
0001
0000
0100
0000
0010
0000
1010
0000
0000
1000
0000
0000
0100
0000
,  // measure 49
0110
0000
0000
0010
0000
0000
0001
0000
0101
0000
0000
0000
0001
0000
0010
0000
,  // measure 50
0011
0000
0000
0110
0000
0000
1100
0000
1010
0000
0000
0000
0010
0000
0110
0000
,  // measure 51
0101
0000
0001
1001
1000
0100
0010
0001
,  // measure 52
0100
0001
0100
0001
0100
0010
0100
0010
1000
0000
0000
1010
0000
0000
1000
0000
,  // measure 53
0001
0000
0000
1001
0000
0000
0001
0000
0010
0000
0000
0000
0011
0000
0010
0000
,  // measure 54
0100
0000
0000
1000
0000
0000
0010
0000
0100
0000
0000
0000
0010
0000
1000
0000
,  // measure 55
0001
0000
0001
0010
0001
0100
1000
0100
,  // measure 56
0001
0000
0010
0000
0100
0000
1000
0000
0001
0000
0000
0101
0000
0000
0001
0000
,  // measure 57
1000
0000
0000
1001
0000
0000
1000
0000
0100
0000
0000
0000
1100
0000
0000
0000
,  // measure 58
0100
0000
0000
0010
0000
0000
0001
0000
1000
0000
0001
1000
0000
0000
0001
0000
,  // measure 59
0100
0000
0010
0100
0000
0000
0010
0000
1000
0000
0000
0000
1100
0000
0000
0000
,  // measure 60
0100
0000
0001
0000
0100
0000
1000
0000
0010
0000
0000
0110
0000
0000
0010
0000
,  // measure 61
1000
0000
0000
1001
0000
0000
1000
0000
0100
0000
0000
1100
0000
0000
0100
0000
,  // measure 62
0010
0000
0000
0011
0000
0000
0001
0000
1000
0000
0001
0000
0100
0000
0001
0000
,  // measure 63
1000
0010
1000
0001
0010
1000
0001
0100
,  // measure 64
1000
0000
0010
0000
0100
0000
0001
0000
0010
0000
0000
0011
0000
0000
0010
0000
,  // measure 65
0100
0000
0000
1100
0000
0000
1000
0000
0010
0000
0000
0000
1010
0000
0010
0100
,  // measure 66
0010
0000
0000
0000
0000
0000
0000
0000
0000
0110
0000
0000
0000
0000
0000
0000
0000
0000
0100
0000
0000
0000
0000
0000
0001
0000
0000
0000
0000
0000
0000
0000
0002
0000
0000
0000
0000
0000
0000
0000
0013
0000
0000
0000
0100
0000
0000
0000
,  // measure 67
1000
0000
2000
0000
3010
0100
0002
0000
0000
0000
0000
0000
,  // measure 68
0000
0000
0000
0000
,  // measure 69
0000
0003
0000
0000
;

//---------------dance-single - ----------------
#NOTES:
     dance-single:
     :
     Challenge:
     10:
     0.887,1.000,0.243,0.396,0.828,619.000,27.000,44.000,0.000,0.000,0.000,0.887,1.000,0.243,0.396,0.828,619.000,27.000,44.000,0.000,0.000,0.000: // measure 0
0000
0000
0000
0000
,  // measure 1
0002
0000
0000
0000
0023
0000
0000
0000
0230
0000
0000
0000
2300
0000
0000
0000
3020
0000
0000
0000
0000
0030
0100
0010
0200
0000
0000
0000
0000
0000
0000
0000
,  // measure 2
0002
0000
0000
0000
0000
0000
0303
0000
0001
0000
0010
0000
0100
0000
0000
0100
,  // measure 3
1000
0000
0010
0000
0100
0000
0000
0100
0010
0000
1000
0000
0001
0000
0000
0001
,  // measure 4
0010
0000
0001
0000
1000
0000
0000
1000
0010
0000
0100
0000
0001
0000
0000
0001
,  // measure 5
0010
0000
0100
0000
1000
0000
0000
1000
0010
0000
0100
0000
0001
0000
0000
0001
,  // measure 6
0100
0000
1000
0000
0100
0000
0001
0000
0010
0000
0100
0000
1000
0000
0000
1000
,  // measure 7
0100
0000
0001
0000
0100
0000
0000
0100
1000
0000
0010
0000
0001
0000
0000
0001
,  // measure 8
0010
0000
1000
0000
0100
0000
0000
0100
0001
0000
0100
0000
1000
0000
0000
1000
,  // measure 9
0010
0000
0100
0000
0001
1000
0001
1000
0001
0000
0010
0000
0100
1000
0000
0010
,  // measure 10
0100
0001
1000
0000
0001
0000
1001
0000
1000
0000
0001
0200
0000
0000
0310
0000
,  // measure 11
1000
0000
0100
0020
0000
0000
0031
0000
1000
0000
0000
0000
1010
0000
0010
1000
,  // measure 12
0010
0000
0010
0100
0000
0100
0001
0000
0010
0000
0000
0000
0011
0000
0010
0100
,  // measure 13
1000
0000
0001
1000
0000
0001
0100
0000
0010
0000
1000
0000
0100
0000
0010
0001
,  // measure 14
0100
0000
0001
0010
0000
0100
1000
0000
0010
0000
0010
0200
0000
0000
0301
0000
,  // measure 15
0010
0000
0010
0200
0000
0000
1300
0000
0010
0000
0100
0000
0010
0000
1000
0100
,  // measure 16
0010
0000
0001
0100
0000
0001
0010
0000
0100
0000
1000
0000
0010
0000
0100
0010
,  // measure 17
1000
0000
0100
0000
0010
0000
0001
0000
0100
0001
0010
0100
1000
0010
0100
0001
,  // measure 18
1000
0100
0001
0100
1000
0010
0001
0010
1000
0000
1000
0020
0000
0000
0130
0000
,  // measure 19
0001
0000
0001
0020
0000
0000
0130
0000
1000
0000
0100
0000
0010
0000
0001
0100
,  // measure 20
0001
0000
0010
0100
0000
1000
0010
0000
0100
0001
0100
0001
0000
0001
0010
0000
,  // measure 21
0100
1000
0100
1000
0000
1000
0001
0000
0100
0000
1000
0000
0001
0000
0010
0000
,  // measure 22
2000
0000
0001
0000
0001
0000
3001
0000
1000
0000
0010
2000
0000
0000
3001
0000
,  // measure 23
1000
0000
0001
2000
0000
0000
3001
0000
0010
0000
0001
0020
0000
0000
0031
0000
,  // measure 24
1000
0000
0001
2000
0000
0000
3001
0000
0010
0000
1000
0000
0001
0000
0100
0000
,  // measure 25
1000
0010
0001
1000
0100
0001
0010
0100
,  // measure 26
1000
0000
0001
0000
0100
0000
0010
0000
2000
0000
0000
0100
0100
0000
0000
0001
,  // measure 27
0001
0000
0000
0000
0000
0000
0010
0000
3020
0000
0000
0000
0230
0000
0000
0000
0301
0000
0000
0011
0000
0000
0010
0000
0100
0000
0000
1100
0000
0000
1000
0000
,  // measure 28
0002
0000
0000
0000
1003
0000
0010
0000
0100
0000
1000
0000
0100
0000
0001
0000
1000
0000
0000
1000
0010
0000
0100
0000
0001
0000
0000
0001
0100
0000
0001
0000
,  // measure 29
0010
0000
0000
0010
0100
0000
0010
0000
0100
0000
0000
0100
1000
0000
0100
0000
1000
0000
0000
0000
0001
0000
0100
0001
0100
0000
0100
0010
0000
0010
1000
0000
,  // measure 30
0100
0000
0010
0000
0001
0000
0100
0000
0010
1000
0001
0010
0100
1000
0001
1000
0000
0000
2020
0000
3030
0000
0000
0000
0220
0000
0330
0000
0000
0000
0202
0000
,  // measure 31
0000
0303
2002
0000
3003
0000
0001
0000
1000
0000
0010
0000
0100
0000
0010
0000
,  // measure 32
1000
0000
0100
0000
0001
0000
0100
0000
1000
0000
1000
0020
0000
0000
0130
0001
,  // measure 33
0010
0000
0100
0000
1000
0000
0100
0010
0001
0000
0100
0000
0010
0000
1000
0010
,  // measure 34
0001
0000
0010
0000
1000
0000
0100
0000
0010
0000
0010
0002
0000
0000
0103
0010
,  // measure 35
1000
0000
0001
0000
0010
0000
0100
1000
0100
0000
0000
0100
1000
0000
0000
1000
,  // measure 36
0010
0000
0100
0000
0010
0000
1000
0000
0100
0000
0000
0110
0000
0000
0010
0001
,  // measure 37
0010
0000
0001
0000
0100
0000
0010
1000
0001
0000
0010
0000
1000
0000
0010
0001
,  // measure 38
0010
0000
0002
0000
1000
0000
1000
0000
1003
0000
1000
0010
0000
0010
0100
0000
,  // measure 39
0001
0010
0100
1000
0010
0100
0001
1000
0001
0000
0100
0000
0001
0000
0010
0000
,  // measure 40
0001
0000
0100
0000
1000
0000
0100
0000
0001
0000
0001
0020
0000
0000
0130
1000
,  // measure 41
0010
0000
0100
0000
0001
0000
1000
0001
0010
0000
0001
0000
1000
0000
0001
0010
,  // measure 42
1000
0000
0010
0000
0001
0000
1000
0000
0010
0000
0000
1010
0000
0000
1000
0000
,  // measure 43
0100
0010
0002
0000
0013
1000
0010
0001
,  // measure 44
0100
1000
0100
0001
0010
0100
1000
0010
,  // measure 45
0200
0000
0001
0001
0301
0100
1000
0001
,  // measure 46
0010
0000
1000
0000
0100
0000
0001
0000
0100
1000
0100
1000
0001
1000
0001
1000
,  // measure 47
0001
0100
0001
0100
0010
0100
0010
0100
0010
1000
0100
0010
0001
0100
0010
1000
,  // measure 48
0001
0010
0100
1000
0001
0010
0100
1000
0001
0000
0000
0011
0000
0000
0010
0000
,  // measure 49
0100
0000
0000
0110
0000
0000
0100
0000
1000
0000
0000
0000
1100
0000
1000
0010
,  // measure 50
0100
0000
0000
0110
0000
0100
0001
0000
1000
0000
0000
0000
0011
0000
0001
0010
,  // measure 51
0100
0000
1100
0100
0010
0001
0100
1000
,  // measure 52
0100
0001
1000
0001
1000
0001
1000
0001
1000
0000
1000
0200
0000
0000
0310
0000
,  // measure 53
0001
0000
0001
0200
0000
0000
0310
0000
1000
0000
0100
0000
0001
0000
0100
1000
,  // measure 54
0100
0000
0100
2000
0000
0000
3010
0000
0100
0000
0001
0000
1000
0000
0100
0010
,  // measure 55
0001
0000
1000
0000
0010
0000
0100
0000
0001
0100
0001
0100
0001
1000
0001
1000
,  // measure 56
0010
0100
0001
1000
0010
0100
0001
1000
0001
0000
0001
2000
0000
0000
3100
0000
,  // measure 57
0010
0000
0010
0002
0000
0000
0103
0000
0001
0000
0010
0000
0100
0000
1000
0010
,  // measure 58
0100
0000
0010
2000
0000
0000
3100
0000
0010
0001
0010
0001
0000
0010
0001
0000
,  // measure 59
0100
0001
0100
0001
0000
0100
0001
0000
0100
0000
0010
0000
1000
0000
0001
0000
,  // measure 60
0100
0000
1000
0000
0100
0000
0001
0000
1000
0000
0000
1010
0000
0000
0010
0000
,  // measure 61
0100
0000
0000
0110
0000
0000
0100
0000
0001
0000
0000
0101
0000
0000
0001
0000
,  // measure 62
0010
0000
0000
0011
0000
0000
0010
0000
0100
0000
1000
0000
0100
0000
0010
0000
,  // measure 63
0001
0010
1000
0010
0001
0010
0100
1000
,  // measure 64
0001
1000
0001
1000
0001
1000
0001
1000
0001
0000
0000
0101
0000
0000
0100
0000
,  // measure 65
0010
0000
0000
0110
0000
0000
0010
0000
1000
0000
0000
0000
1010
0000
1000
0100
,  // measure 66
0010
0000
0000
0000
0000
0000
0000
0000
0000
0001
0000
0000
0000
0000
0000
0000
0000
0000
1000
0000
0000
0000
0000
0000
1001
0000
0000
0000
0000
0000
0000
0000
0011
0000
0000
0000
0000
0000
0000
0000
0010
0000
0000
0000
0100
0000
0000
0000
,  // measure 67
1000
0000
1100
0000
1000
0020
0200
0000
0000
0000
0000
0000
,  // measure 68
0000
0000
0000
0000
,  // measure 69
0000
0330
0000
0000
;

//---------------dance-single - ----------------
#NOTES:
     dance-single:
     :
     Medium:
     8:
     0.512,0.561,0.198,0.189,0.157,355.000,22.000,21.000,0.000,0.000,0.000,0.512,0.561,0.198,0.189,0.157,355.000,22.000,21.000,0.000,0.000,0.000: // measure 0
0000
0000
0000
0000
,  // measure 1
1000
0000
1000
0000
0001
0000
0001
0000
0100
0000
0000
0010
0200
0000
0000
0000
,  // measure 2
0020
0000
0000
0330
0010
0000
1010
0000
,  // measure 3
1000
1100
0100
0110
,  // measure 4
0010
0011
0001
1001
,  // measure 5
1000
1001
0001
0101
,  // measure 6
1000
0000
1010
0000
0010
0100
0010
0000
,  // measure 7
0100
0001
0100
0000
0001
0010
0001
0000
,  // measure 8
0010
0100
0010
0000
0100
1000
0100
0000
,  // measure 9
1000
0010
1000
0000
0001
0010
0100
1000
,  // measure 10
0010
0100
0001
0001
1000
0000
0001
0000
,  // measure 11
0100
0000
0010
0000
1000
0000
0100
1000
,  // measure 12
0100
0000
0000
1000
0000
0000
0010
0000
0100
0000
0000
0000
0001
0000
0010
0000
,  // measure 13
0001
0000
0100
0001
0100
0000
0010
0000
,  // measure 14
1000
0000
0000
0100
0000
0000
0010
0000
0001
0000
0000
0000
0100
0000
0000
0000
,  // measure 15
0001
0000
0010
0100
1000
0000
0010
0100
,  // measure 16
0001
0000
1000
0000
0100
0000
0010
0100
,  // measure 17
0010
0001
0200
2300
,  // measure 18
3020
0032
0103
0010
,  // measure 19
1000
0000
0100
0000
0010
0000
0001
0010
,  // measure 20
0001
0000
0000
0100
0000
0000
0001
0000
0010
0000
0000
0100
0000
0000
1000
0000
,  // measure 21
0010
0000
0000
0100
0000
0000
0001
0000
2000
0000
0000
0000
0000
0000
0000
0000
,  // measure 22
0001
0001
0001
0001
3001
0000
0011
0000
,  // measure 23
0010
0110
0100
1100
,  // measure 24
1000
1010
0010
0100
,  // measure 25
0001
0000
0010
0000
0100
0000
1000
0001
,  // measure 26
0100
0000
0010
0000
1000
0000
0001
0000
0010
0000
0000
0100
0010
0000
0000
0100
,  // measure 27
1000
0000
0000
0010
1000
0000
0010
0000
0110
0000
0100
0000
0101
0000
0001
0000
,  // measure 28
1001
0000
0000
0000
1000
0001
1000
0001
1000
0000
1000
0000
0100
0000
0100
0000
,  // measure 29
0010
0000
0010
0000
0001
0000
0001
0000
0100
0000
0000
0010
1000
0000
0001
0000
,  // measure 30
0010
0100
0010
0100
1000
0001
1000
0001
0000
2000
0000
0000
3002
0000
0000
0203
,  // measure 31
0000
0020
0000
0330
0010
0000
1000
0000
,  // measure 32
0100
0001
0100
0000
1000
0000
0010
0000
,  // measure 33
0100
0000
0001
0010
,  // measure 34
0001
0100
1000
0000
0100
0000
0001
0000
,  // measure 35
1000
0000
0000
0001
0010
0000
0100
0000
,  // measure 36
1000
0000
0000
0000
1000
0000
0000
0000
0010
0000
0000
0100
0000
0000
0001
0000
,  // measure 37
0010
0000
0000
0001
1000
0000
0010
0000
,  // measure 38
0100
0000
0000
0000
0100
0000
0000
0000
0001
0000
0000
0010
0000
0000
0100
0000
,  // measure 39
1000
0000
0001
0010
,  // measure 40
0001
0100
0010
0000
1000
0000
0001
0000
,  // measure 41
0010
0000
0000
0100
1000
0000
0010
0100
,  // measure 42
0001
0000
0000
0000
0010
0000
0001
0000
1000
0000
0000
0002
0000
0000
0000
0000
,  // measure 43
1000
0000
1000
0000
0103
0010
0100
0000
,  // measure 44
0010
1000
0010
0000
1000
0100
0010
0001
,  // measure 45
1000
0001
0100
1000
,  // measure 46
0100
0000
0001
0000
1000
0100
1000
0001
,  // measure 47
0100
0001
1000
0001
0010
0000
0100
0000
,  // measure 48
1000
0010
0100
0001
0020
0030
0001
0000
,  // measure 49
0100
0000
0010
1000
0020
0030
1000
0000
,  // measure 50
0001
0000
0000
0001
0000
0000
0001
0000
0020
0000
0030
0000
0001
0000
0100
0000
,  // measure 51
0002
0003
0100
0010
0200
0000
0320
0000
,  // measure 52
2030
3002
1003
1100
,  // measure 53
0100
0110
0010
0011
,  // measure 54
0001
0000
0000
0100
0000
0000
0010
0000
1000
0000
0000
0000
0010
0000
1000
0000
,  // measure 55
0100
0000
0010
0001
0100
0000
0001
0000
,  // measure 56
0010
1000
0100
0101
,  // measure 57
0001
1001
1000
1100
,  // measure 58
0100
0000
0000
1000
0000
0000
0010
0000
0001
0000
0000
1000
0000
0000
0100
0000
,  // measure 59
0001
0000
0000
1000
0000
0000
0001
0000
0010
0000
0000
0000
0110
0000
0000
0000
,  // measure 60
0100
1000
0100
0010
0001
0000
0001
0000
,  // measure 61
1000
0000
0000
0000
1000
0000
0000
0000
0001
0000
0000
1000
0000
0000
0010
0000
,  // measure 62
0100
0000
0000
0001
0000
0000
0010
0000
0001
0000
0000
0000
0001
0000
0000
0000
,  // measure 63
1000
0000
1000
0000
0010
1000
0100
1000
,  // measure 64
0010
0000
0100
0000
0001
0000
0010
0000
0100
0000
0000
0100
0000
0000
1000
0000
,  // measure 65
0010
0000
0000
0010
0000
0000
0100
0000
0001
0000
0000
0000
0010
0000
0100
0000
,  // measure 66
1000
0000
0000
0000
0000
0000
0000
0000
0000
1000
0000
0000
0000
0000
0000
0000
0000
0000
0001
0000
0000
0000
0000
0000
1000
0000
0000
0000
0000
0000
0000
0000
1000
0000
0000
0000
0000
0000
0000
0000
0010
0000
0000
0000
0000
0000
0000
0000
,  // measure 67
0100
0000
0100
0000
0001
0000
2000
0000
0000
0000
0000
0000
,  // measure 68
0000
0000
0000
0000
,  // measure 69
0000
3000
0000
0000
;

//---------------dance-single - ----------------
#NOTES:
     dance-single:
     :
     Easy:
     5:
     0.371,0.436,0.261,0.216,0.004,236.000,29.000,24.000,0.000,0.000,0.000,0.371,0.436,0.261,0.216,0.004,236.000,29.000,24.000,0.000,0.000,0.000: // measure 0
0000
0000
0000
0000
,  // measure 1
1000
0010
1000
0001
2000
0000
3200
0000
,  // measure 2
0020
0000
0000
0330
0010
0000
0010
0000
,  // measure 3
0001
0001
0100
0100
,  // measure 4
0010
0010
1000
1000
,  // measure 5
0001
0001
0010
0100
,  // measure 6
1000
1001
0001
0001
,  // measure 7
0010
0010
0001
0001
,  // measure 8
1000
1000
0010
0010
,  // measure 9
1000
1000
0001
1000
,  // measure 10
0001
1000
0001
0010
,  // measure 11
0001
0100
0010
0000
,  // measure 12
1000
1000
0001
0000
,  // measure 13
0010
0000
0001
0100
,  // measure 14
0010
1000
0001
0001
,  // measure 15
1000
1000
0100
0000
,  // measure 16
0010
0010
0010
0000
,  // measure 17
0001
0000
1000
0010
,  // measure 18
0001
0010
1000
0100
,  // measure 19
0010
0001
0100
0000
,  // measure 20
0010
0010
1000
0000
,  // measure 21
0001
0000
0010
0000
,  // measure 22
0001
0001
1001
0000
,  // measure 23
0110
0000
1001
0000
,  // measure 24
0110
0000
1001
1000
,  // measure 25
0100
0010
0001
1000
,  // measure 26
0010
0100
0002
0023
,  // measure 27
0230
0000
0310
0001
0200
0000
0320
0000
,  // measure 28
2030
0000
0000
0000
3010
0000
0100
0001
0100
0000
0001
0000
0000
0000
0010
0000
,  // measure 29
0000
0001
0000
1000
0000
0010
0000
1000
,  // measure 30
0001
0010
0100
2000
0002
0000
0000
0000
,  // measure 31
0000
3003
1000
0010
,  // measure 32
0100
0001
0010
0010
,  // measure 33
0020
0030
0001
0100
,  // measure 34
0010
1000
0100
0100
,  // measure 35
0200
0300
1000
0010
,  // measure 36
0100
0001
0010
0010
,  // measure 37
0020
0030
0001
0100
,  // measure 38
0010
1000
0001
0001
,  // measure 39
0002
0003
1000
0001
,  // measure 40
0010
0001
0100
0100
,  // measure 41
0200
0300
0010
1000
,  // measure 42
0100
1000
0001
0002
,  // measure 43
0000
0103
0101
0001
,  // measure 44
1001
1000
1100
0110
,  // measure 45
0011
0001
0100
0001
,  // measure 46
1000
0100
1000
0020
,  // measure 47
0200
0330
0001
0100
,  // measure 48
0001
1000
1001
1000
,  // measure 49
0100
0010
0011
0000
,  // measure 50
0001
0100
0101
0000
,  // measure 51
0110
0000
1010
0010
,  // measure 52
1001
1001
1000
0010
,  // measure 53
1000
0001
0010
0000
,  // measure 54
0001
0001
2000
0000
,  // measure 55
3002
0000
0103
1000
,  // measure 56
0100
0001
0010
0100
,  // measure 57
0010
0001
1000
0000
,  // measure 58
0010
0010
0100
0100
,  // measure 59
0010
0010
2000
0000
,  // measure 60
0001
3001
0011
0010
,  // measure 61
0011
0001
1001
1000
,  // measure 62
1001
0001
1000
0010
,  // measure 63
0100
0001
0010
0100
,  // measure 64
1000
0010
1010
0000
,  // measure 65
1001
0000
0011
0000
,  // measure 66
0110
0000
1001
0000
,  // measure 67
1001
0000
2002
0000
,  // measure 68
0000
0000
0000
0000
,  // measure 69
0000
3003
0000
0000
;

//---------------dance-single - ----------------
#NOTES:
     dance-single:
     :
     Beginner:
     2:
     0.184,0.273,0.000,0.000,0.000,143.000,0.000,0.000,0.000,0.000,0.000,0.184,0.273,0.000,0.000,0.000,143.000,0.000,0.000,0.000,0.000,0.000: // measure 0
0000
0000
0000
0000
,  // measure 1
1000
0100
1000
0001
,  // measure 2
0100
0000
0010
0010
,  // measure 3
0000
1000
0000
0001
,  // measure 4
0000
0010
0000
0001
,  // measure 5
0000
0100
0000
0001
,  // measure 6
0000
1000
0000
0001
,  // measure 7
0000
0010
0000
0100
,  // measure 8
0000
1000
0000
0010
,  // measure 9
0000
0100
0000
0000
,  // measure 10
0000
0000
0001
0000
,  // measure 11
0010
0000
0100
0000
,  // measure 12
0100
0000
1000
0000
,  // measure 13
0010
0000
0100
0000
,  // measure 14
0100
0000
0100
0000
,  // measure 15
0100
0000
0001
0000
,  // measure 16
0001
0000
0010
0000
,  // measure 17
0010
0000
0100
0000
,  // measure 18
0100
0000
1000
0000
,  // measure 19
1000
0000
1000
0000
,  // measure 20
0010
0000
0100
0000
,  // measure 21
0100
0000
0100
0000
,  // measure 22
0001
0000
0010
0000
,  // measure 23
0001
0000
1000
0000
,  // measure 24
0010
0000
1000
0000
,  // measure 25
0000
0000
0000
0000
,  // measure 26
0001
0001
0001
0010
,  // measure 27
0001
0000
0100
0100
0100
0000
0010
0000
,  // measure 28
1000
0000
0001
0001
0001
0000
0010
0000
,  // measure 29
0001
0100
0010
1000
,  // measure 30
0001
1000
0000
0000
,  // measure 31
0000
0000
0001
0000
,  // measure 32
0010
0000
0100
0100
,  // measure 33
0100
0000
1000
0000
,  // measure 34
0010
0000
0100
0100
,  // measure 35
0100
0000
0001
0000
,  // measure 36
0010
0000
0100
0100
,  // measure 37
0100
0000
1000
0000
,  // measure 38
0010
0000
0100
0100
,  // measure 39
0100
0000
0010
0000
,  // measure 40
1000
0000
0001
0001
,  // measure 41
0001
0000
0010
0000
,  // measure 42
0001
0000
1000
0000
,  // measure 43
0000
0000
0010
0000
,  // measure 44
0100
0000
0001
0001
,  // measure 45
0001
0000
1000
0000
,  // measure 46
0100
0000
1000
0000
,  // measure 47
0010
0000
0100
0000
,  // measure 48
0000
0000
0001
0000
,  // measure 49
0000
0000
0010
0000
,  // measure 50
0100
0000
1000
0000
,  // measure 51
1000
0000
0001
0000
,  // measure 52
0000
0000
1000
0000
,  // measure 53
0100
0000
1000
0000
,  // measure 54
0010
0000
0100
0000
,  // measure 55
0001
0000
1000
0000
,  // measure 56
0000
0000
0001
0000
,  // measure 57
0010
0000
0100
0000
,  // measure 58
1000
0000
0010
0000
,  // measure 59
0100
0000
0001
0000
,  // measure 60
1000
0000
0100
0000
,  // measure 61
1000
0000
0001
0000
,  // measure 62
0100
0000
0001
0000
,  // measure 63
0000
0000
0000
0000
,  // measure 64
1000
1000
1000
0000
,  // measure 65
0001
0000
0010
0000
,  // measure 66
0100
0100
1000
0000
,  // measure 67
0010
0000
0100
0000
;
