#TITLE:Fuego;
#SUBTITLE:;
#ARTIST:The Cheetah Girls;
#TITLETRANSLIT:;
#SUBTITLETRANSLIT:;
#ARTISTTRANSLIT:;
#GENRE:;
#CREDIT:;
#BANNER:;
#BACKGROUND:;
#LYRICSPATH:;
#CDTITLE:;
#MUSIC:[Beat the Heat] - Fuego.ogg;
#OFFSET:-2.746;
#SAMPLESTART:55.125;
#SAMPLELENGTH:17.455;
#SELECTABLE:YES;
#BPMS:0.000=110.000
,128.000=55.000
,136.000=110.000
,148.000=55.000
,150.000=110.000
,190.000=55.000
,194.000=110.000
,208.000=55.000
;
#STOPS:
;
#BGCHANGES:;
#KEYSOUNDS:;
#ATTACKS:;

//---------------dance-single - ----------------
#NOTES:
     dance-single:
     :
     Hard:
     9:
     0.515,0.509,0.225,0.101,0.477,423.000,29.000,13.000,0.000,0.000,0.000,0.515,0.509,0.225,0.101,0.477,423.000,29.000,13.000,0.000,0.000,0.000: // measure 0
0000
0000
0000
0000
,  // measure 1
0000
0000
0000
0000
0000
0000
0000
0000
0000
0000
0000
0000
1000
0001
1000
0001
,  // measure 2
2000
0000
0000
0000
0000
0000
0000
0000
0000
0000
0000
3000
0010
0100
0010
0100
,  // measure 3
0020
0000
0000
0000
0000
0030
0100
0001
0100
0000
0000
0100
0001
0000
0010
0000
,  // measure 4
0100
0000
1000
0000
0010
0000
0100
0000
0001
0000
0100
0001
0000
0100
0001
0000
,  // measure 5
0100
0000
0001
0000
1000
0000
0100
0000
0010
0000
0100
0010
0000
0100
0010
0000
,  // measure 6
0001
0100
0001
0010
0001
1000
0001
1000
,  // measure 7
0010
1000
0000
0010
1000
0000
0001
0000
0010
0001
0000
0010
0001
0000
1000
0000
,  // measure 8
0001
0000
0010
0000
0100
0000
1000
0000
0010
0000
0200
0010
0000
0010
0000
0000
,  // measure 9
0310
0000
1000
0000
0010
0000
0001
0000
0010
0000
2000
0001
0000
0001
0000
0000
,  // measure 10
3001
0000
0010
0000
0100
0000
1000
0100
1000
0000
0010
0000
0100
0000
0001
0000
,  // measure 11
0100
0001
0000
0100
0001
0000
1000
0000
0001
1000
0000
0001
1000
0000
0001
0000
,  // measure 12
1000
0000
0100
0000
1000
0000
0010
0000
0100
0010
0100
0000
0010
0000
0100
0000
,  // measure 13
0001
0000
0010
0001
0000
0010
0002
0000
0010
0000
0010
0000
0010
0000
0010
0000
,  // measure 14
0013
0000
0100
0000
1000
0000
0001
0000
1000
0001
1000
0000
0100
0000
1000
0000
,  // measure 15
0010
0000
0000
1010
0000
0000
1000
0000
0001
0000
0000
0011
0000
0000
0010
0000
,  // measure 16
0100
0000
1000
0100
1000
0000
0010
1000
0010
0000
0100
0010
0100
0000
0001
0000
,  // measure 17
0101
0000
0100
0001
0000
0001
2000
0000
0010
0000
0010
0000
0010
0000
0010
0000
,  // measure 18
3010
0000
1000
0000
0100
0000
1000
0100
1000
0000
0010
0000
0100
0000
0001
0000
,  // measure 19
1001
0000
0000
1001
0000
0000
1000
0000
0001
0000
1000
0000
1001
0000
1001
0000
,  // measure 20
1100
0000
0000
0000
0101
0000
0000
0000
0001
0100
0000
0100
0010
0000
1000
0000
,  // measure 21
0100
1000
0000
1000
0100
0000
1000
0010
0100
0001
0000
0001
1000
0000
0001
0000
,  // measure 22
0011
0000
0000
0000
1010
0000
0000
0000
1000
0100
0000
0100
0010
0000
0001
0010
,  // measure 23
0001
0100
0000
0001
0100
0000
0010
0000
1000
0001
0000
1000
0001
0000
0000
0000
,  // measure 24
1000
0000
0000
0000
1001
0000
0000
0000
0001
0010
0000
0010
0100
0000
1000
0000
,  // measure 25
0010
0100
0000
0100
0010
0000
1000
0000
0100
0010
0000
0010
0100
0000
0010
0000
,  // measure 26
0001
0000
0000
0000
1001
0000
0000
0000
1000
0001
0000
0001
0100
0000
0010
0000
,  // measure 27
1000
0010
0000
1000
0010
0000
1000
0000
0001
1000
0000
0001
1000
0000
0001
0000
,  // measure 28
1000
0000
0000
1100
0000
0000
0100
0000
0010
0000
0000
0100
0010
0000
0100
0000
,  // measure 29
0010
0000
0000
0011
0000
0000
0001
0000
0100
0000
0000
0001
0100
0000
0010
0000
,  // measure 30
1000
0000
0001
0000
0100
1000
0100
0001
,  // measure 31
0010
0000
0000
0001
0000
0000
0010
0000
0100
0000
1000
0000
0001
0000
1000
0000
,  // measure 32
0001
0000
0000
0100
0010
0000
1000
0010
1000
0100
0010
0000
0100
0000
1000
0010
,  // measure 33
0100
0000
0001
0000
0010
0000
0000
0000
0001
0000
0000
0000
0100
0000
0001
0000
0010
0000
0100
0000
1000
0000
0010
0000
1000
0000
0000
1000
0001
0000
1000
0000
,  // measure 34
0001
0000
0000
0101
0000
0000
0100
0000
0001
0010
0001
0010
0001
0000
0010
0000
,  // measure 35
0100
0000
0000
0110
0000
0000
0010
0000
0100
1000
0100
1000
0100
0000
1000
0000
,  // measure 36
0010
0100
0010
0100
0001
0100
0001
0100
,  // measure 37
0002
0000
0000
2003
0000
0000
0000
0000
0002
0000
0000
0000
3003
0000
0000
0000
1000
0000
0000
0000
0100
0000
0000
0000
1000
0000
0000
0000
0010
0000
0000
0000
,  // measure 38
0100
0010
0000
0100
0010
0000
0100
0000
0010
0000
0100
0000
0001
0000
0010
0000
,  // measure 39
0001
0010
0000
0001
0010
0000
0001
0000
1000
0000
0000
0000
1001
0000
0000
0000
,  // measure 40
0001
1000
0000
0001
1000
0000
0010
0000
0100
0010
0000
0100
0010
0000
0000
0000
,  // measure 41
1000
0001
0000
1000
0001
0000
0000
0000
0011
0000
0000
0000
1010
0000
0000
0000
,  // measure 42
1000
0010
0000
1000
0100
0000
1000
0000
0010
0100
0000
0001
0010
0000
0001
0100
,  // measure 43
0001
0010
0000
0100
1000
0000
0010
0000
0100
0000
0000
0000
0110
0000
0000
0000
,  // measure 44
0010
1000
0000
0001
1000
0000
0100
1000
0100
0010
0000
0010
0100
0000
0010
0000
,  // measure 45
0001
0010
0000
0010
0001
0000
1000
0000
0001
0000
0000
0101
0000
0000
0100
0000
,  // measure 46
0110
0000
0010
0100
0010
0000
1000
0000
0001
0000
0000
0011
0000
0000
0010
0000
,  // measure 47
0110
0000
0100
0010
0100
0000
1000
0000
0002
0000
2000
0000
0000
0000
0000
0000
,  // measure 48
3003
0000
0000
0000
0000
0000
0000
0000
0001
0000
1000
0001
1000
0000
0001
0000
1000
0000
0000
0000
0000
0000
1001
0000
0000
0000
0000
0000
0001
0000
0000
0000
,  // measure 49
0100
0000
0000
0101
0000
0000
0001
0000
1000
0000
0000
1001
0000
0000
1000
0000
,  // measure 50
0100
0000
0000
1100
0000
0000
1000
0000
0001
0000
0000
0000
0100
0000
0000
0000
,  // measure 51
0010
0000
1000
0010
1000
0000
0010
0000
1000
0000
0000
0100
0000
0000
0010
0000
,  // measure 52
0001
0000
0000
2000
0000
0000
0002
0000
0000
0000
0000
0000
0000
0000
0000
0000
3003
0000
0000
0000
0000
0000
0000
0000
0000
0000
0000
0000
0000
0000
0000
0000
;

//---------------dance-single - ----------------
#NOTES:
     dance-single:
     :
     Medium:
     7:
     0.357,0.366,0.085,0.163,0.213,290.000,11.000,21.000,0.000,0.000,0.000,0.357,0.366,0.085,0.163,0.213,290.000,11.000,21.000,0.000,0.000,0.000:
0000
0000
0000
0000
,
0000
0000
0000
0000
0000
0000
1000
0001
,
2000
0000
0000
0000
0000
0000
3100
0010
,
0002
0000
0003
0100
0020
0000
2030
0000
,
3001
0000
0000
0000
1000
0000
0000
0000
0010
0000
1000
0010
0000
1000
0000
0000
,
0010
0000
0000
0000
1000
0000
0000
0000
0100
0000
1000
0100
0000
1000
0000
0000
,
0100
0000
0010
0000
0001
0010
0001
0000
,
1000
0001
0000
1000
0001
0000
0000
0000
0100
0010
0000
0100
0010
0000
0000
0000
,
2000
0000
0000
0000
3200
0000
0000
0000
0320
0000
0000
0001
0000
0001
0000
0000
,
0032
0000
0000
0000
0203
0000
0000
0000
0320
0000
0000
1000
0000
1000
0000
0000
,
2030
0000
3200
0000
1300
0100
2000
0000
,
3100
0010
0000
0100
0010
0000
0000
0000
0001
1000
0000
0001
1000
0000
0000
0000
,
0001
0000
0010
0000
0100
0010
0100
0000
,
1000
0000
0010
0000
0100
0100
0010
0010
,
0100
0000
0001
0000
1000
0001
1000
0000
,
0001
0000
0000
0010
0000
0000
0100
0000
1000
0000
0000
0010
0000
0000
0100
0000
,
0001
0010
0001
0100
0010
1000
0010
1000
,
0001
0000
0000
1000
0000
0000
0001
0000
0010
0000
0001
0000
0010
0000
0001
0000
,
0010
0000
0001
0000
1000
0001
1000
0000
,
0010
0000
0000
0010
0000
0000
1000
0000
0100
0000
0010
0000
0001
0000
1000
0000
,
0001
1001
1000
1001
,
0001
0000
0000
0000
0010
0000
0000
0000
0100
0010
0000
0100
0010
0000
0000
0000
,
0100
1100
1000
1010
,
0010
0100
0000
0010
0100
0000
0000
0000
0001
1000
0000
0001
1000
0000
0000
0000
,
0001
0100
0001
0101
,
0100
0010
0100
0110
,
0010
1010
1000
1001
,
0001
1000
0000
0001
1000
0000
0000
0000
0001
0000
0010
0000
0100
0000
1000
0000
,
0001
0000
0010
0001
0010
0000
0100
0010
,
0100
0000
1000
0100
1000
0000
0010
1000
,
0010
0000
0100
0000
0010
0000
1000
0010
,
1000
0000
0000
0001
0000
0000
0010
0000
0001
0000
0000
0010
0000
0000
0001
0000
,
1000
0000
0000
0001
0100
0000
0010
0000
0100
0000
0000
0010
0100
0000
0010
1000
,
0010
0000
1000
0000
0100
0000
0000
1000
0100
0000
0010
0000
0001
0000
0100
0001
,
2000
0000
0000
3200
0000
0000
0320
0000
0000
0000
0001
0000
0001
0000
0001
0000
,
0032
0000
0000
0203
0000
0000
0320
0000
0000
0000
1000
0000
1000
0000
1000
0000
,
1030
0000
0010
0100
0010
0000
1000
0001
,
1000
1001
0001
0010
,
0100
0000
0000
1000
0100
0000
0000
0000
1000
0000
0000
1000
0010
0000
0000
0000
,
0100
0000
0000
0100
0001
0000
0000
0000
1000
0000
0000
0000
1001
0000
0000
0000
,
0001
0000
0000
0000
1001
0000
0000
0000
1000
0001
0000
1000
0001
0000
0000
0000
,
0010
0100
0000
0010
0100
0000
0000
0000
1000
0000
0000
0000
0010
0000
0000
0000
,
0100
0010
0100
0001
,
0010
0001
1000
1000
,
0001
0000
0000
0000
0001
0000
0000
0000
1000
0001
0000
1000
0001
0000
0000
0000
,
0100
0010
0000
0100
0010
0000
0000
0000
1000
0000
0000
0000
0100
0000
1000
0000
,
0010
0000
0100
0001
0010
0000
0001
0100
,
0010
0000
1000
0100
1000
0000
0000
0000
,
0010
0000
0000
0000
0100
0000
0000
0000
0001
0000
0000
0010
0000
0000
0001
0000
,
1000
0000
0000
0001
0000
0000
1000
0000
0010
0000
0000
1000
0000
0000
0010
0000
,
0100
0000
0000
0010
0000
0000
0100
0000
0010
0000
0000
0000
1000
0000
0000
0000
,
0100
0000
0000
0000
0010
0000
0001
0000
0010
0000
0000
0001
0000
0000
0010
0000
,
0001
0000
0000
2000
0000
0000
0002
0000
0000
0000
0000
0000
0000
0000
0000
0000
3003
0000
0000
0000
0000
0000
0000
0000
0000
0000
0000
0000
0000
0000
0000
0000
;

//---------------dance-single - ----------------
#NOTES:
     dance-single:
     :
     Easy:
     4:
     0.232,0.265,0.085,0.101,0.000,185.000,11.000,13.000,0.000,0.000,0.000,0.232,0.265,0.085,0.101,0.000,185.000,11.000,13.000,0.000,0.000,0.000:
0000
0000
0000
0000
,
0000
0000
0000
0000
,
0000
0000
0000
0000
,
0000
0000
0000
0000
,
1000
0010
0100
0100
,
0001
0010
0100
0100
,
1000
0100
1000
0010
,
0100
0100
0010
0010
,
0100
0001
0010
0010
,
0001
1000
0010
0010
,
1000
0100
1000
0001
,
0100
0100
0010
0010
,
1000
0000
0100
0000
0010
0100
0010
0000
,
0001
0000
1000
0000
0001
1000
0001
0000
,
0100
0100
0001
0001
,
1000
0001
2002
3003
,
1000
0000
0001
0000
0100
0001
0100
0000
,
0010
0000
1000
0000
0100
1000
0100
0000
,
2000
0100
3002
0100
,
1003
0000
0001
0000
1000
0001
1000
0001
,
1000
0001
0010
0010
,
0001
0001
0100
0100
,
0010
1000
0100
0100
,
1000
1100
0001
0101
,
1000
0010
0100
0100
,
0001
0001
0010
0010
,
0100
1000
0010
0010
,
1000
1000
0001
0001
,
1000
0000
0001
0000
,
0010
0000
0100
0000
,
1000
0000
0000
0000
,
0001
0000
0001
0000
,
0100
0000
0010
0100
0010
0000
1000
0010
,
1000
1000
0001
0000
1000
0000
0001
0000
,
0010
0001
0100
0100
,
0001
1000
0010
0010
,
2000
0010
3002
0010
,
2000
0000
0000
3003
1000
0000
0010
0000
,
0100
0010
0100
0001
,
0010
0100
1000
1000
,
0001
0001
0110
0110
,
1001
1001
2000
0010
,
3002
0010
2003
0100
,
3002
0100
1003
1001
,
0001
1001
0001
0011
,
1000
1010
1000
0000
,
0001
0000
0010
0000
,
0100
0000
1000
0000
,
0010
0100
0001
0001
,
0010
0010
0001
0001
,
0100
0100
0010
0010
,
1000
1000
0002
0000
,
2000
0000
3003
0000
;

//---------------dance-single - ----------------
#NOTES:
     dance-single:
     :
     Beginner:
     1:
     0.096,0.117,0.000,0.000,0.000,87.000,0.000,0.000,0.000,0.000,0.000,0.096,0.117,0.000,0.000,0.000,87.000,0.000,0.000,0.000,0.000,0.000:
0000
0000
0000
0000
,
0000
0000
0000
0000
,
0000
0000
0000
0000
,
0000
0000
0000
0000
,
1000
0000
0000
0000
,
0001
0000
0000
0000
,
1000
0000
1000
0000
,
0001
0000
0001
0000
,
0010
0000
0000
0000
,
0100
0000
0000
0000
,
0010
0000
0010
0000
,
0100
0000
0100
0000
,
1000
0000
0000
0000
,
0010
0000
0010
0000
,
0100
0000
0000
0000
,
0001
0000
0001
0000
,
0010
0000
0010
0000
,
0100
0000
0100
0000
,
1000
0000
0001
0000
,
1000
0000
0001
0001
,
0001
0000
1000
0000
,
0010
0000
0010
0000
,
0100
0000
0100
0000
,
0001
0000
1000
0000
,
1000
1000
0000
0000
,
0100
0100
0010
0010
,
0001
0001
0000
0000
,
1000
0000
0001
0000
,
1000
0000
0000
0000
,
0001
0000
0000
0000
,
1000
0000
0000
0000
,
0001
0000
0000
0000
,
0100
0000
0010
0000
,
0100
0000
0010
0100
,
0010
0000
0000
0000
,
1000
0000
0000
0000
,
0001
0000
1000
0000
,
0001
0000
0010
0010
,
0100
0100
1000
0000
,
0001
0000
0100
0100
,
0010
0010
1000
0000
,
0001
0000
1000
0000
,
1000
0000
0100
0000
,
0100
0000
0010
0000
,
0010
0000
0001
0000
,
1000
0000
0001
0000
,
0000
0000
1000
0000
,
0000
0000
0010
0000
,
1000
0100
1000
0000
,
0000
0000
0001
0000
,
0000
0000
1000
0000
;
