#TITLE:Take Away the Colour;
#SUBTITLE:;
#ARTIST:Ice MC;
#TITLETRANSLIT:;
#SUBTITLETRANSLIT:;
#ARTISTTRANSLIT:;
#CREDIT:Lisek;
#BANNER:[16ths Week] - Take Away the Colour.png;
#BACKGROUND:[16ths Week] - Take Away the Colour-bg.png;
#LYRICSPATH:;
#CDTITLE:cdtitle.png;
#MUSIC:[16ths Week] - Take Away the Colour.ogg;
#OFFSET:-1.846;
#SAMPLESTART:58.690;
#SAMPLELENGTH:14.480;
#SELECTABLE:YES;
#BPMS:0.000=135.000,160.000=67.500,168.000=135.000;
#STOPS:179.500=1.778
;
#BGCHANGES:0.000=[16ths Week] - Take Away the Colour.avi=1.000=1=1=0,
244.000=[16ths Week] - Take Away the Colour-bg.png=1.000=1=0=1,
99999=-nosongbg-=1.000=0=0=0 // don't automatically add -songbackground-
;

//---------------dance-single - Lisek----------------
#NOTES:
     dance-single:
     Lisek:
     Hard:
     9:
     0.564,0.697,0.135,0.211,0.266: // measure 1
0000
0000
0000
0000
,  // measure 2
0000
0000
0000
0000
,  // measure 3
1000
0100
1000
0010
0100
0020
0000
0030
,  // measure 4
1000
0100
0010
0001
0100
0020
0000
0030
,  // measure 5
0100
0001
0100
0010
1000
0200
0000
0300
,  // measure 6
0010
0001
0100
0010
1000
0002
0000
0003
,  // measure 7
1000
0010
0100
0010
1000
0002
0000
0003
,  // measure 8
0100
0010
1000
0100
0010
0200
0000
0300
,  // measure 9
1000
0000
0010
1000
0010
0000
0000
1000
0100
0000
0000
0010
0001
0000
1000
0000
,  // measure 10
0010
0000
0100
0000
0001
0000
0010
0000
0100
0000
1000
0001
1000
0000
0000
0000
,  // measure 11
0001
0000
0100
0010
0100
0000
0001
0000
0010
0000
0001
0100
0001
0000
1000
0000
,  // measure 12
0010
0000
0100
0010
0100
0000
0010
0000
1000
0000
0001
0100
0001
0000
0000
0000
,  // measure 13
1000
0000
0100
0010
0100
0000
0000
1000
0001
0000
0000
0100
0010
0000
0000
0000
,  // measure 14
1000
0001
0100
0010
1000
0100
0010
0001
,  // measure 15
0000
0000
1000
0010
1000
0000
0010
0000
0000
0000
0100
0001
0100
0000
0001
0000
,  // measure 16
0000
1000
0001
0000
0010
0000
0100
0000
1000
0000
0010
0000
0100
0000
0001
0000
,  // measure 17
1000
0000
0010
0000
0100
0000
0010
0000
1000
0000
0010
0100
0000
0100
0010
0000
,  // measure 18
1000
0000
0001
0000
0010
0000
0001
0000
0100
0000
0001
0010
0000
0010
0001
0000
,  // measure 19
1000
0000
0001
0000
0100
0000
0010
0000
0100
0000
0001
0100
0000
0100
0001
0000
,  // measure 20
1000
0000
0100
0000
0010
0000
0100
0000
1000
0000
0010
1000
0000
1000
0010
0000
,  // measure 21
1001
0000
0001
0000
0100
0000
0010
0000
0100
0000
0001
0100
0000
0100
0001
0000
,  // measure 22
0100
0000
0010
0000
1000
0000
0100
0000
0010
0000
0100
1000
0000
1000
0100
0000
,  // measure 23
1000
0000
0010
0000
0100
0000
0001
0000
0100
0000
0010
0100
0000
0100
0010
0000
,  // measure 24
0100
0000
0001
0000
1000
0000
0010
0000
1000
0000
0001
0100
0000
0100
0001
0000
,  // measure 25
1001
0000
1000
0000
0100
0000
1000
0000
0000
0001
0100
0000
0010
0000
0100
0000
,  // measure 26
0001
0000
0010
0000
0100
0000
1000
0000
0010
0000
0100
0010
0100
0000
0010
0000
,  // measure 27
1000
0100
1000
1100
0001
0100
0001
0101
,  // measure 28
0001
0100
0010
1000
0001
0000
1000
0000
0001
0000
1000
0000
0001
0000
1001
0000
,  // measure 29
1000
0100
1000
0010
1000
0000
0010
0000
0100
0001
0100
0010
0100
0000
0010
0000
,  // measure 30
1000
0100
1000
0100
1000
0100
1000
0100
1000
0100
1000
0100
1000
0000
0010
0000
,  // measure 31
1000
0100
0001
0100
0010
0100
1000
0001
,  // measure 32
0200
0000
0000
0301
,  // measure 33
0001
0100
0010
1000
0100
0010
0000
0100
,  // measure 34
1000
0001
0010
0100
0020
0000
0030
0000
,  // measure 35
0001
0100
0010
0100
0001
1000
0000
0010
,  // measure 36
0100
0101
2002
3003
,  // measure 37
1000
0100
1000
0001
0200
0000
0320
0000
,  // measure 38
1030
0100
0010
0001
2000
0000
3000
0000
,  // measure 39
0001
0100
0010
1000
0200
0000
1300
0010
,  // measure 40
0100
0110
2002
3003
,  // measure 41
0100
0000
0000
0000
0000
0000
0000
0010
0010
0000
0000
0000
0000
0000
0000
0000
,  // measure 42
1000
0000
0000
0000
0000
0000
0000
0000
0000
0000
0000
0000
0000
0000
0001
1000
0001
0000
0000
0000
0000
0000
0000
0000
0000
0000
0000
0000
0000
0000
0000
0000
,  // measure 43
1000
0001
0100
0010
,  // measure 44
1000
0000
0100
0000
0010
0000
0001
0100
,  // measure 45
0010
0100
0001
1000
,  // measure 46
0001
0000
0010
0000
0001
0000
0100
0000
0010
0000
0100
0010
0000
0010
0100
0000
,  // measure 47
0001
0000
1000
0000
0010
0000
1000
0000
0100
0000
0010
0001
0000
0001
0010
0000
,  // measure 48
0001
0000
0100
0000
0010
0000
0100
0000
0001
0000
1000
0100
0000
0100
1000
0000
,  // measure 49
0010
0000
0100
0000
0001
0000
0010
0000
0001
0000
1000
0010
0000
0010
1000
0000
,  // measure 50
1001
0000
0001
0000
1000
0000
0100
0000
1000
0000
0010
0100
0000
0100
0010
0000
,  // measure 51
0100
0000
0001
0000
1000
0000
0100
0000
1000
0000
0010
1000
0000
1000
0010
0000
,  // measure 52
0100
0000
0001
0000
0010
0000
0100
0000
0010
0000
0001
0100
0000
0100
0001
0000
,  // measure 53
1000
0000
0010
0000
0100
0000
0010
0000
1000
0000
0001
0100
0000
0100
0001
0000
,  // measure 54
1001
0001
0100
0001
1000
0010
0000
0100
,  // measure 55
0010
1000
0100
0010
0002
0000
0003
0000
,  // measure 56
1000
0100
1000
0010
0100
0010
0000
1000
,  // measure 57
0100
1100
2002
3003
,  // measure 58
0001
0100
0010
0100
0002
0000
0023
0000
,  // measure 59
0031
0100
0010
1000
0002
0000
0003
0000
,  // measure 60
1000
0100
1000
0010
0200
0000
0310
1000
,  // measure 61
0100
0000
0110
0000
2002
0000
0000
3003
,  // measure 62
1001
0000
0000
0000
;

//---------------dance-single - Lisek----------------
#NOTES:
     dance-single:
     Lisek:
     Beginner:
     1:
     0.063,0.076,0.000,0.000,0.000:
0000
0000
0000
0000
,
0000
0000
0000
0000
,
0000
0000
0000
0000
,
0000
0000
0000
0000
,
1000
0000
0000
0000
,
0001
0000
0000
0000
,
0100
0000
0000
0000
,
0010
0000
0000
0000
,
1000
0000
0000
0000
,
0100
0000
0000
0000
,
1000
0000
0000
0000
,
0010
0000
0000
0000
,
1000
0000
0000
0000
,
0001
0000
0000
0000
,
0100
0000
0000
0000
,
0001
0000
0000
0000
,
1000
0000
0000
0000
,
0010
0000
0000
0000
,
0100
0000
0000
0000
,
0001
0000
0000
0000
,
1000
0000
0000
0000
,
0100
0000
0000
0000
,
0010
0000
0000
0000
,
0001
0000
0000
0000
,
1000
0000
0000
0000
,
0010
0000
0000
0000
,
1000
0000
0000
0000
,
0001
0000
0000
0000
,
0100
0000
0000
0000
,
0001
0000
0000
0000
,
1000
0000
0000
0000
,
0000
0000
0000
0000
,
0001
0000
0000
0000
,
0100
0000
0000
0000
,
0010
0000
0000
0000
,
0100
0000
0000
0000
,
0001
0000
0000
0000
,
1000
0000
0000
0000
,
0100
0000
0000
0000
,
1000
0000
0000
0000
,
0001
0000
0000
0000
,
0000
0000
0000
0000
,
1000
0000
0000
0000
,
0000
0000
0000
0000
,
0000
0000
0000
0000
,
0000
0000
0000
0000
,
0001
0000
0000
0000
,
1000
0000
0000
0000
,
0010
0000
0000
0000
,
1000
0000
0000
0000
,
0001
0000
0000
0000
,
0100
0000
0000
0000
,
0001
0000
0000
0000
,
1000
0000
0000
0000
,
0100
0000
0000
0000
,
0010
0000
0000
0000
,
0001
0000
0000
0000
,
1000
0000
0000
0000
,
0010
0000
0000
0000
,
0100
0000
0000
0000
,
0001
0000
0000
0000
;

//---------------dance-single - Lisek----------------
#NOTES:
     dance-single:
     Lisek:
     Medium:
     4:
     0.261,0.258,0.085,0.000,0.000:
0000
0000
0000
0000
,
0000
0000
0000
0000
,
1000
0000
0010
0000
,
0100
0000
0001
0000
,
0010
0001
0100
0000
,
0010
1000
0100
0000
,
0010
0001
1000
0000
,
0010
1000
0001
0000
,
1000
0100
1000
0100
,
1000
0010
0100
0001
,
0010
0001
0010
0001
,
0100
0010
1000
0001
,
1000
0010
1000
0010
,
0100
0001
1000
0100
,
1000
0001
1000
0001
,
0100
0010
1000
0100
,
1000
0100
1000
0010
,
0100
0001
0100
0010
,
1000
0100
1000
0010
,
0100
0001
0100
0010
,
1000
0100
0010
0001
,
1000
0010
0100
0001
,
1000
0100
0010
0001
,
1000
0010
0100
0001
,
1000
0100
1000
0100
,
0010
0001
1000
0001
,
0100
0010
0100
0010
,
1000
0001
0100
0010
,
1000
0001
1000
0001
,
0100
0010
1000
0100
,
1000
0010
1000
0010
,
0100
0001
1000
0000
,
0001
0010
0001
0000
,
0100
0010
1000
0000
,
0100
0010
0001
1000
,
0010
0110
0110
0000
,
0001
0100
0010
0000
,
1000
0100
0010
0000
,
0001
1000
0010
0100
,
0010
0110
0110
0000
,
0001
0000
1000
0000
,
0010
0000
0100
0000
,
0001
0000
1000
0000
,
0010
0000
0100
0000
,
0010
0000
1000
0000
,
0001
0010
0001
0100
,
0010
1000
0100
1000
,
0010
0100
0001
0010
,
0001
0100
0010
0100
,
0110
0100
0001
1000
,
0010
1000
0100
0010
,
0001
0100
0010
0100
,
0001
1000
0001
1000
,
1001
0001
0010
0000
,
0001
0100
0010
0000
,
1000
0100
0010
0001
,
0100
0110
0110
0000
,
0010
1000
0001
0000
,
0100
0010
1000
0000
,
0001
0010
0100
1000
,
0010
0110
0110
0000
,
0100
0000
0000
0000
;

//---------------dance-single - Lisek----------------
#NOTES:
     dance-single:
     Lisek:
     Easy:
     2:
     0.108,0.129,0.000,0.000,0.000:
0000
0000
0000
0000
,
0000
0000
0000
0000
,
0000
0000
0000
0000
,
0000
0000
0000
0000
,
1000
0000
0010
0000
,
1000
0000
0001
0000
,
0100
0000
0001
0000
,
1000
0000
0010
0000
,
1000
0000
0000
0000
,
0100
0000
0000
0000
,
0010
0000
0000
0000
,
0001
0000
0000
0000
,
0100
0000
0000
0000
,
0010
0000
0000
0000
,
1000
0000
0000
0000
,
0001
0000
0000
0000
,
1000
0000
0100
0000
,
1000
0000
0010
0000
,
0100
0000
0001
0000
,
0010
0000
0001
0000
,
1000
0000
0010
0000
,
0100
0000
0010
0000
,
1000
0000
0001
0000
,
0100
0000
0001
0000
,
1000
0000
0000
0000
,
0100
0000
0000
0000
,
0010
0000
0000
0000
,
0001
0000
0000
0000
,
1000
0000
0000
0000
,
0010
0000
0000
0000
,
0100
0000
0000
0000
,
0010
0000
0000
0000
,
1000
0000
0100
0000
,
1000
0000
0001
0000
,
0100
0000
0010
0000
,
0100
0000
0100
0000
,
0010
0000
1000
0000
,
0001
0000
0100
0000
,
0010
0000
1000
0000
,
0001
0000
0010
0000
,
0001
0000
0000
0000
,
0000
0000
0000
0000
,
1000
0000
0000
0000
,
0010
0000
0000
0000
,
0100
0000
0000
0000
,
0001
0000
0000
0000
,
1000
0000
0000
0000
,
0010
0000
0000
0000
,
0100
0000
0000
0000
,
0001
0000
0010
0000
,
0001
0000
0100
0000
,
0010
0000
1000
0000
,
0001
0000
0100
0000
,
0001
0000
1000
0000
,
0010
0000
1000
0000
,
0001
0000
0100
0000
,
0010
0000
0010
0000
,
1000
0000
0100
0000
,
1000
0000
0001
0000
,
0100
0000
0010
0000
,
0100
0000
0001
0000
,
1000
0000
0000
0000
;
