#TITLE:Breakfast with K.K;
#SUBTITLE:-7 AM-;
#ARTIST:Ben Briggs & ectogemia;
#TITLETRANSLIT:;
#SUBTITLETRANSLIT:;
#ARTISTTRANSLIT:;
#GENRE:;
#CREDIT:;
#BANNER:[16ths Week] - Breakfast with K.K.-bn.png;
#BACKGROUND:[16ths Week] - Breakfast with K.K.-bg.png;
#LYRICSPATH:;
#CDTITLE:cdtitle.png;
#MUSIC:[16ths Week] - Breakfast with K.K.ogg;
#OFFSET:-0.056;
#SAMPLESTART:56.781;
#SAMPLELENGTH:13.160;
#SELECTABLE:YES;
#BPMS:0.000=110.000
;
#STOPS:
;
#BGCHANGES:;
#KEYSOUNDS:;
#ATTACKS:;

//---------------dance-single - ----------------
#NOTES:
     dance-single:
     :
     Hard:
     8:
     0.391,0.416,0.143,0.135,0.661,309.000,18.000,17.000,143.000,0.000,0.000,0.391,0.416,0.143,0.135,0.661,309.000,18.000,17.000,143.000,0.000,0.000:
0000
0000
0000
0000
,
0000
0000
0000
0000
,
0000
0000
0000
0000
,
0000
0000
0000
0000
,
20M1
0M00
00M0
0M00
00M0
0M00
00M0
0M00
00M1
0M00
00M0
0M00
00M0
0M00
00M0
0M00
30M0
0000
0000
0000
0001
0000
0000
0000
0000
0000
0000
0000
0100
0000
0000
0000
,
0000
0000
0000
0000
0001
0000
0000
0000
M000
0M00
M000
0M00
M010
0M00
M000
0M00
M000
000M
M000
0000
M100
000M
00M0
000M
10M0
0M00
00M0
0000
0001
0000
0000
0000
,
1000
0000
1020
0000
0000
1030
0000
0110
,
000M
0M00
00M0
M000
000M
00M0
0M00
M000
00M0
0000
0000
0000
2002
0000
0000
0000
0000
0000
0000
0000
0000
0000
0000
0000
0000
0000
0000
0000
3003
0000
0000
0000
,
0001
0000
0100
0000
0010
0000
0100
0000
0000
0010
1000
0000
0000
0000
1001
0000
,
0000
0001
1000
0100
0001
0100
0010
0001
,
0010
0100
1000
0001
0000
0001
0000
2000
,
0000
0000
3010
0000
0000
0000
0020
0000
0000
0000
0130
0000
0010
1000
0100
0010
,
0100
0000
0010
0000
0001
0000
1000
0010
0000
1000
0010
0000
0100
0000
0001
0000
,
0010
0000
0100
0000
1000
0000
0001
0100
0000
0001
0100
0000
1000
0000
0100
0000
,
0002
0000
0013
0200
0000
0310
0100
1000
,
0002
0000
0103
0020
0000
0130
0001
0010
,
0100
0000
1000
0000
0001
0100
0010
0000
,
1000
0000
0000
0000
0001
0000
0000
0000
1000
0000
0100
0000
0010
0000
0001
1000
,
0001
0000
1000
0000
0010
0100
0001
0000
,
1000
0000
0100
0000
1000
0001
0100
0010
,
0100
0000
0000
0001
0000
0000
1000
0000
0100
0000
0000
0000
0010
0000
0000
0000
,
0100
0000
0000
1000
0000
0000
0001
0000
0100
0000
0010
0000
1000
0000
0001
0000
,
1000
0000
0000
0000
0001
0000
0000
1000
0001
0100
0010
0000
0100
0000
0100
0000
,
0010
0000
0000
0000
0000
1000
0100
0010
0001
0100
0001
0100
0000
0010
1000
0010
,
0200
0010
0000
0010
,
0000
0000
0000
0000
0310
0000
0000
0000
0100
0000
0001
0000
1000
0010
1000
0000
,
0100
0000
0000
1000
0100
0000
0000
1000
0100
0000
0000
1000
0010
0000
0100
0000
,
0000
0000
0001
0000
0010
0000
0001
0000
0000
0000
0100
0000
0010
1000
0100
0010
,
0001
0000
0000
0000
1000
0000
0100
0000
1000
0001
1000
0000
0001
0000
0020
0000
,
0000
0000
0000
0130
1000
0000
0001
0000
0000
0000
1000
0000
0100
0000
0010
0000
,
0000
0000
0000
0000
0000
0000
0000
0000
0000
0000
000M
00M0
0M00
M000
00M0
0M00
000M
00M0
0M00
M000
00M0
0000
0000
0000
0000
0000
0000
0000
0000
0000
0000
0000
,
0000
0000
0000
0000
0000
0000
M000
00M0
0M00
000M
00M0
0M00
M000
0M00
000M
00M0
000M
M000
00M0
0M00
000M
M000
0M00
00M0
0M00
M000
00M0
0000
0000
0000
0000
0000
,
0001
0000
0100
0000
0001
1000
0000
0001
1000
0000
0010
0000
0100
0000
0010
0000
,
0000
0000
0000
0000
1010
0000
0000
0000
1000
0000
0100
0000
1000
0010
0100
0001
,
1000
0000
0100
0000
0010
0000
0100
0000
0000
0000
0010
0001
0000
0000
1000
0000
,
0000
0000
1000
0000
0000
0000
1000
0000
0000
0001
1000
0001
0100
0010
1000
0100
,
0010
0001
0100
0001
0000
1001
0000
1020
,
0000
0000
0100
0000
0000
0000
1000
0000
0000
0000
0130
0000
0001
1000
0010
1000
,
0001
0010
0100
1000
0000
1001
0000
0101
,
0000
0110
0000
2020
0000
0000
0000
0000
,
0000
0000
0000
3030
,
0001
0000
0010
0000
0001
0100
0000
0010
1000
0000
0001
0010
0000
0100
1000
0000
,
0001
0000
1000
0000
0010
0100
0000
0000
0001
0000
1000
0010
0000
1000
0000
0001
,
1000
0100
0010
0001
0000
0100
0010
1000
,
0000
0000
1000
0000
0000
0000
1000
0000
0000
0001
0010
0000
0001
0000
0100
0000
,
0010
0000
1000
0001
0000
1000
0100
1000
0000
0000
0001
0000
0100
0000
0010
1000
,
0000
0000
0001
0000
0000
0000
0010
0000
0000
0000
0001
0000
0100
0000
0010
1000
,
0001
0000
1000
0000
0100
0010
0000
0001
0000
0100
0010
0100
0000
0001
0000
1000
,
0100
0000
0100
1000
0000
1000
0100
0000
0100
1000
0000
1000
0001
0000
1000
0000
,
0001
0100
0010
1000
0000
0001
0000
0011
,
0000
0000
0000
0000
0M00
00M0
000M
M000
0M00
00M0
000M
M000
0M00
00M0
M00M
0M00
00M0
000M
M000
0M00
00M0
000M
M000
0M00
00M0
000M
M000
0M00
00M1
0000
1000
0000
,
0001
0000
0100
0010
0100
0000
0001
0000
0000
0000
1000
0000
0000
0000
0010
0000
,
0000
0000
0000
0000
1010
0000
0000
0000
0000
0000
0000
0000
0100
0000
000M
M000
000M
M000
00M0
M000
01M1
M000
00M0
M000
00M0
M000
000M
M000
001M
0000
0000
0000
,
0M00
000M
0M00
000M
1M10
000M
0M00
0000
0000
0000
0000
0000
0100
0000
0000
0000
0000
0000
0000
0000
0101
0000
0000
0000
0000
0000
0000
0000
0001
0000
0000
0000
,
2002
0000
0000
0000
0000
0000
0000
0000
0000
0000
00M0
0M00
00M0
0M00
00M0
0M00
00M0
0M00
00M0
0M00
00M0
0M00
00M0
0M00
00M0
0M00
00M0
0M00
00M0
0000
0000
0000
,
3003
0000
0000
0000
;

//---------------dance-single - ----------------
#NOTES:
     dance-single:
     :
     Medium:
     6:
     0.308,0.350,0.111,0.104,0.155,244.000,14.000,13.000,76.000,0.000,0.000,0.308,0.350,0.111,0.104,0.155,244.000,14.000,13.000,76.000,0.000,0.000: // measure 0
0000
0000
0000
0000
,  // measure 1
0000
0000
0000
0000
,  // measure 2
0000
0000
0000
0000
,  // measure 3
0000
0000
0000
0000
,  // measure 4
20M0
0M00
00M0
0M00
00M0
0M00
00M0
0M00
30M0
0000
0001
0000
0000
0000
0100
0000
,  // measure 5
0000
0000
0001
0000
00M0
0M00
10M0
0M00
00M0
0M00
M001
0M00
M010
000M
0100
0000
,  // measure 6
1000
0001
2001
0000
0000
0001
0000
3001
,  // measure 7
00M0
0M00
00M0
0M00
00M0
0000
2002
0000
0000
0000
0000
0000
0000
0000
3003
0000
,  // measure 8
0001
0100
0001
0100
0000
0010
0000
1010
,  // measure 9
0000
1000
0001
1000
0100
0010
0001
0100
,  // measure 10
0010
1000
0010
1000
0000
0001
0000
0100
,  // measure 11
0000
0100
0000
0100
0000
0010
1000
0001
,  // measure 12
1000
0100
0010
0000
0001
0000
1001
0000
,  // measure 13
1000
0010
0100
0000
0001
0000
1001
0000
,  // measure 14
2000
0000
3100
0020
0000
0130
0010
0001
,  // measure 15
2000
0000
3010
0200
0000
0310
0100
0001
,  // measure 16
1000
0010
1000
0010
,  // measure 17
0100
0000
0001
0000
1000
0000
0001
0010
,  // measure 18
0001
0100
0001
0100
,  // measure 19
0010
0000
1000
0000
0010
1000
0010
0100
,  // measure 20
0001
0000
0000
0010
0000
0000
0001
0000
1000
0000
0000
0000
0001
0000
0000
0000
,  // measure 21
1000
0000
0000
0010
0000
0000
1000
0000
0001
0000
0010
0000
0100
0000
1000
0000
,  // measure 22
0010
0000
0010
0000
0100
0010
1000
0001
,  // measure 23
1000
0000
0001
0100
0001
0010
0100
1000
,  // measure 24
0002
0100
0000
0100
,  // measure 25
0000
0000
0103
0000
0001
1000
0001
1000
,  // measure 26
0100
0000
0100
0000
0100
0000
0100
0010
,  // measure 27
0000
0010
0001
1000
0000
1000
0001
0100
,  // measure 28
0001
0000
1000
0100
1000
0000
0010
0100
,  // measure 29
0000
0000
0010
0000
0100
0000
0001
1000
,  // measure 30
0000
0000
0000
0000
0000
000M
00M0
0M00
M000
0M00
00M0
0000
0000
0000
0000
0000
,  // measure 31
0000
0000
0000
000M
0M00
00M0
M000
0M00
00M0
000M
0M00
00M0
M000
0M00
0000
0000
,  // measure 32
1000
0010
0100
0000
0001
0000
0010
0100
,  // measure 33
0000
0000
0110
0000
0010
0001
0010
0100
,  // measure 34
1000
0010
0100
0001
0000
1000
0100
1000
,  // measure 35
0000
1000
0000
1000
0000
1000
0010
1000
,  // measure 36
0001
0100
0001
0100
0000
0010
0000
1010
,  // measure 37
0000
1000
0000
0001
0000
1000
0100
1000
,  // measure 38
0001
0010
0001
0010
0000
0100
0000
1000
,  // measure 39
0000
0001
0000
2002
0000
0000
0000
0000
,  // measure 40
0000
0000
0000
3003
,  // measure 41
0001
1000
0001
0000
1000
0010
0100
0000
,  // measure 42
0010
0100
0010
0000
1000
0000
0001
0000
,  // measure 43
1000
0100
1000
0000
0001
0100
0001
1000
,  // measure 44
0000
1000
0000
1000
0000
1000
0100
0010
,  // measure 45
0001
0001
0100
0000
0010
1000
0001
0000
,  // measure 46
1000
0000
0100
0000
1000
0000
0001
1000
,  // measure 47
0001
0000
0100
0000
0001
0000
0100
0010
,  // measure 48
1000
0100
1000
0100
0010
0001
1000
0001
,  // measure 49
1000
0010
0100
0010
0000
0100
0000
0110
,  // measure 50
0000
0000
000M
0M00
M000
00M0
000M
M000
00M0
0M00
000M
M000
0M00
00M0
0001
0000
,  // measure 51
1000
0100
1000
0100
0000
0010
0000
0001
,  // measure 52
0000
0000
0101
0000
0000
0000
0001
M000
0M00
M000
0M11
M000
0M00
M000
0M01
0000
,  // measure 53
00M0
M000
01M1
M000
00M0
0000
0001
0000
0000
0000
0011
0000
0000
0000
0001
0000
,  // measure 54
2002
0000
0000
0000
0000
00M0
0M00
00M0
0M00
00M0
0M00
00M0
0M00
00M0
0M00
0000
,  // measure 55
3003
0000
0000
0000
;

//---------------dance-single - ----------------
#NOTES:
     dance-single:
     :
     Easy:
     3:
     0.206,0.219,0.072,0.080,0.000,162.000,9.000,10.000,40.000,0.000,0.000,0.206,0.219,0.072,0.080,0.000,162.000,9.000,10.000,40.000,0.000,0.000: // measure 0
0000
0000
0000
0000
,  // measure 1
0000
0000
0000
0000
,  // measure 2
0000
0000
0000
0000
,  // measure 3
0000
0000
0000
0000
,  // measure 4
20M0
0M00
00M0
0M00
30M0
0000
0001
0000
,  // measure 5
0010
0000
0M10
M000
0M01
0000
1M00
0000
,  // measure 6
0002
1003
0000
1000
,  // measure 7
00M1
0M00
00M0
2002
0000
0000
3003
0000
,  // measure 8
0001
0100
0000
0100
,  // measure 9
0001
1000
0100
1000
,  // measure 10
0001
0010
0000
0010
,  // measure 11
0001
0100
0010
0100
,  // measure 12
0001
0001
0101
0000
,  // measure 13
1000
1000
1100
0000
,  // measure 14
0001
0100
0010
1000
,  // measure 15
0002
0000
1003
0100
,  // measure 16
1000
0000
1000
0010
,  // measure 17
0100
0000
0001
1000
,  // measure 18
0001
0000
0001
0010
,  // measure 19
0100
1000
0001
1000
,  // measure 20
0001
0100
0001
0000
,  // measure 21
1000
0100
1000
0001
,  // measure 22
1000
1000
0010
0100
,  // measure 23
0001
0000
1000
0100
,  // measure 24
0020
0001
0000
0001
,  // measure 25
0000
0031
1000
0001
,  // measure 26
1000
1000
1000
1000
,  // measure 27
0010
0000
0100
0001
,  // measure 28
1000
0100
0010
0000
,  // measure 29
0100
1000
0001
0000
,  // measure 30
1001
0000
0000
000M
0M00
00M0
0000
0000
,  // measure 31
0000
M000
0M00
M000
00M0
0M00
000M
0000
,  // measure 32
1000
1000
0100
1000
,  // measure 33
0001
0000
0001
0100
,  // measure 34
0001
0010
0000
0011
,  // measure 35
0000
1001
1000
0010
,  // measure 36
1000
0100
1000
0001
,  // measure 37
1001
0000
1000
0010
,  // measure 38
1000
0001
0010
0001
,  // measure 39
1000
0010
2020
0000
,  // measure 40
0000
0000
0000
3030
,  // measure 41
0001
0001
0100
0010
,  // measure 42
1000
1000
0001
1000
,  // measure 43
0100
0010
0100
1000
,  // measure 44
0001
0001
0001
1000
,  // measure 45
0001
0010
0100
0000
,  // measure 46
0010
0001
1000
0001
,  // measure 47
1000
0010
0100
0010
,  // measure 48
1000
1000
0001
0001
,  // measure 49
1000
0100
0010
0001
,  // measure 50
1000
000M
00M0
0M00
M000
000M
10M0
0000
,  // measure 51
0001
0100
0001
1000
,  // measure 52
0001
0000
0010
M000
0M01
M000
01M0
M000
,  // measure 53
0001
M000
0M10
0000
0001
0000
1000
0000
,  // measure 54
2002
0000
0M00
00M0
0M00
00M0
0M00
00M0
,  // measure 55
3003
0000
0000
0000
;
