#TITLE:罪と罰;
#SUBTITLE:;
#ARTIST:Xceon feat. Mayumi Morinaga;
#TITLETRANSLIT:Tsumi to batsu;
#SUBTITLETRANSLIT:;
#ARTISTTRANSLIT:;
#GENRE:;
#CREDIT:;
#MENUCOLOR:;
#METERTYPE:DDR;
#BANNER:[Round 4 Singles] - Tsumi to batsu.png;
#BACKGROUND:[Round 4 Singles] - Tsumi to batsu-bg.png;
#LYRICSPATH:;
#CDTITLE:./CDTITLES/BEATMANIA IIDX.PNG;
#MUSIC:[Round 4 Singles] - Tsumi to batsu.ogg;
#OFFSET:-1.667;
#SAMPLESTART:96.960;
#SAMPLELENGTH:15.000;
#SELECTABLE:YES;
#LISTSORT:;
#BPMS:0.000=144.000;
#STOPS:72.000=1.250
,224.500=0.833333
;
#BGCHANGES:-4.000=[Round 4 Singles] - Tsumi to batsu.avi=1.000=0=0=0,
99999=-nosongbg-=1.000=0=0=0 // don't automatically add -songbackground-
;
#ATTACKS:;

//---------------dance-single - ----------------
#NOTES:
     dance-single:
     :
     Beginner:
     1:
     0.088,0.111,0.016,0.000,0.000:
0000
0000
0000
0000
,
0000
0000
0000
0000
,
0000
0000
0000
0000
,
0000
0000
0000
0000
,
1000
0000
0000
0000
,
0001
0000
0000
0000
,
0100
0000
0000
0000
,
0010
0000
0000
0000
,
0000
1000
0000
1000
,
0000
1000
0000
0000
,
0000
0001
0000
0001
,
0000
0001
0000
0000
,
0000
0010
0000
0010
,
0000
0010
0000
0000
,
0100
0000
0000
0000
,
0010
0000
0000
0000
,
0001
0000
0000
0000
,
0000
0000
0000
0000
,
1000
0000
0000
0010
,
0000
0010
0000
0000
,
0000
0000
0100
0000
,
0100
0000
0100
0000
,
0000
0000
0001
0000
,
0000
0000
1000
0000
,
0000
0000
0010
0000
,
0100
0100
0000
0000
,
0000
0001
0000
0000
,
0000
1000
0000
0000
,
0000
0001
0000
0000
,
0000
0010
0000
0000
,
0000
0100
0000
0000
,
0000
1000
0000
0000
,
0000
0010
0000
0000
,
0000
0100
0000
0000
,
0000
0001
0000
0001
,
0000
0001
0000
0000
,
0000
1000
0000
1000
,
0000
1000
0000
0000
,
0000
0010
0000
0010
,
0000
0010
0000
0000
,
0000
0100
0000
0100
,
0000
0100
0000
0000
,
0000
0001
0000
0000
,
0000
1000
0000
0000
,
0000
0000
0000
0000
,
0000
0010
0000
0000
,
0000
0000
0000
0000
,
0000
0000
0100
0000
,
0000
0000
0000
0000
,
0000
0000
0010
0000
,
0000
0000
0000
0000
,
0000
1001
0000
0000
,
0000
0000
0000
0000
,
0000
1001
0000
0000
,
0000
1000
0000
0001
,
0000
1000
0000
0000
,
0000
0000
0001
0000
,
0001
0000
0001
0000
,
0000
0000
1000
0000
,
1000
0000
1000
0000
,
0000
0000
0010
0000
,
0010
0000
0010
0000
,
0000
0100
0000
0000
,
0000
0001
0000
0000
,
0000
1000
0000
0000
,
0000
0100
0000
0000
,
0000
0010
0000
0000
,
0000
0001
0000
1000
,
0000
0001
0000
0000
;

//---------------dance-single - ----------------
#NOTES:
     dance-single:
     :
     Easy:
     3:
     0.182,0.229,0.057,0.130,0.000:
0000
0000
0000
0000
,
0000
0000
0000
0000
,
0000
0000
0000
0000
,
0000
0000
0000
0000
,
0001
0000
0000
0000
,
1000
0000
0000
0000
,
0010
0000
0010
0000
,
0100
0100
0100
0000
,
1001
0000
0010
0000
,
0100
0000
1000
0000
,
0100
0000
0010
0000
,
0001
1000
0001
0000
,
1000
0000
0010
0000
,
0100
0000
0001
0000
,
1000
0000
0100
0000
,
0010
0000
0001
0000
,
0200
0000
0000
0000
,
0020
0000
0000
0000
,
0330
0100
0000
0100
,
0000
0100
0100
0100
,
0000
0001
0000
0001
,
0000
0001
0001
0001
,
0000
1000
0000
0001
,
0000
1000
1000
1000
,
0000
0010
0000
0100
,
0000
0010
0010
0010
,
0000
1000
0000
0100
,
0000
0010
0000
0001
,
0000
0010
0000
0100
,
0000
1000
0000
0001
,
0000
2000
0000
0000
,
3000
0002
0000
0000
,
0003
0200
0000
0000
,
0300
0020
0000
0000
,
0030
0100
0000
0100
,
0000
0110
0000
0001
,
0000
1000
0001
1000
,
0000
0001
0000
1000
,
0000
0010
0100
0010
,
0000
1000
0000
0100
,
0000
0010
0001
0010
,
0000
0002
0000
0000
,
0003
2000
0000
0000
,
3000
0020
0000
0000
,
0030
0200
0000
0000
,
0300
0002
0000
0000
,
0003
2000
0000
0000
,
0000
3000
0001
0000
,
0001
0000
0001
0000
,
0110
0000
1000
0000
,
1000
0000
1000
0000
,
0110
0001
0000
1000
,
0000
0010
0000
0100
,
0000
0001
0000
0010
,
0000
0100
0000
1000
,
0000
0001
1000
0001
,
1000
0010
0000
0010
,
0000
0100
0001
0100
,
0000
0010
0000
0010
,
0000
1000
0100
1000
,
0000
0110
0000
1001
,
0000
0010
1000
0010
,
0000
0200
0000
0000
,
0300
0002
0000
0000
,
0003
1000
1000
0100
,
0100
0010
0010
0001
,
0000
0001
0001
0010
,
0010
0100
0100
1000
,
0001
2002
0000
0000
,
0000
0000
0000
0000
,
0000
0000
0000
3003
;

//---------------dance-single - ----------------
#NOTES:
     dance-single:
     :
     Medium:
     5:
     0.298,0.401,0.073,0.259,0.008:
0000
0000
0000
0000
,
0000
0000
0000
0000
,
0000
0000
0000
0000
,
0000
0000
0000
0000
,
0001
0001
0001
0001
,
1000
1000
1000
1000
,
0010
0010
0010
0010
,
0100
0100
0020
0030
,
1000
0100
0020
0030
,
0001
0100
0010
0100
,
0001
0010
0200
0300
,
0010
0001
1000
0000
,
1001
0010
0200
0300
,
0010
1000
0002
0003
,
2000
0000
3100
0000
,
0002
0000
0103
0000
,
0020
0000
0000
0000
,
0200
0000
0000
0000
,
0330
0010
0000
0010
,
0000
0000
0100
0000
0001
0100
0001
0000
,
0100
0001
0000
0001
,
0000
0000
1000
0000
0100
1000
0100
0000
,
1000
0010
0000
1000
,
0000
0000
0001
0000
0100
0010
0100
0000
,
0001
1000
0000
0100
,
0000
0000
0010
0000
0001
0010
0100
0000
,
0000
1001
0000
0110
,
0000
0000
0010
0000
1000
0000
0001
1000
,
0001
1000
0000
0001
,
0000
0000
1000
0000
0100
0010
0100
0000
,
1000
0020
1000
0000
,
1030
0002
0010
0000
,
0013
2000
3100
0002
,
0103
2000
3010
2002
,
3003
0000
0000
0000
0100
0000
0000
0100
0000
0000
0100
0000
0200
0000
0000
0000
,
0300
0000
0010
0000
1000
0010
1000
0000
,
0001
0000
1000
0000
0100
1000
0100
0000
,
0000
0000
1000
0000
0001
0100
0001
0000
,
1000
0000
0001
0000
0010
0001
0010
0000
,
0000
0000
0001
0000
1000
0010
1000
0000
,
0001
0000
0100
0000
0010
0100
0010
0000
,
0000
2000
0000
3100
,
0000
0002
0000
0103
,
0000
2000
0000
3200
,
0000
0320
0000
0032
,
0000
2003
0000
3020
,
0000
0230
0000
0302
,
0000
1003
0001
0000
,
1000
0000
0001
0000
,
1100
0000
1000
0000
,
0001
0000
1000
0000
,
0101
0010
0010
0100
,
0100
0001
0001
1000
,
1000
0000
0001
0010
0001
0000
1000
0100
,
1000
0000
0000
0000
0010
0000
0000
0010
0000
0000
0010
0000
0200
0000
0000
0000
,
0000
0000
0301
0000
0000
0000
1000
0001
,
1000
0001
0010
0000
0000
0000
0010
0000
,
0000
0000
0001
0100
0010
0000
0100
0000
,
0000
0010
0000
0010
,
0000
0000
1000
0100
0010
0000
0100
0000
,
0000
1001
0000
0110
,
0000
0000
0010
1000
0001
0000
1000
0000
,
0001
2000
0000
3100
,
0000
0002
0000
0103
,
0000
0000
1000
0000
1000
0010
1000
0000
,
1000
0100
1000
0000
0001
0100
0001
0000
,
0100
0000
0001
0000
0001
0010
0001
0000
,
1000
0010
1000
0000
0001
0010
0100
1000
,
0001
2002
0000
0000
,
0000
0000
0000
0000
,
0000
0000
0000
3003
;

//---------------dance-single - ----------------
#NOTES:
     dance-single:
     :
     Hard:
     7:
     0.445,0.487,0.146,0.349,0.024: // measure 1
0000
0000
0000
0000
,  // measure 2
0000
0000
0000
0000
,  // measure 3
0000
0000
0000
0000
,  // measure 4
0000
0000
0000
0000
,  // measure 5
0010
0000
0100
0000
0001
1000
0001
0000
,  // measure 6
0010
0000
0100
0000
1000
0001
1000
0000
,  // measure 7
0010
1000
0010
0000
0100
0001
0100
0000
,  // measure 8
0001
0010
0001
0010
0100
1000
0001
0000
,  // measure 9
1000
0000
0100
1000
0002
0000
0103
0000
,  // measure 10
0010
0000
0100
0001
0020
0000
0130
0000
,  // measure 11
0010
0000
0001
1000
0200
0000
1300
0000
,  // measure 12
0001
1000
0001
1000
0001
0000
0110
0000
,  // measure 13
1000
0000
0010
1000
0200
0000
0310
0000
,  // measure 14
0100
0000
1000
0001
0200
0000
0310
0000
,  // measure 15
2000
3100
0002
0103
,  // measure 16
2000
0000
0000
0000
3010
0000
0000
0000
0100
0000
0000
0100
0000
0000
0100
0000
,  // measure 17
0002
0000
0000
0000
,  // measure 18
2000
0000
0000
0000
,  // measure 19
0000
3003
0000
0000
0010
0000
0100
0000
0001
0000
0100
0000
0000
0000
0001
0000
,  // measure 20
1000
0001
0000
0001
0010
0001
1000
0100
,  // measure 21
0010
0001
0000
1000
0100
1000
0000
0010
,  // measure 22
1000
0010
0000
1000
0100
0010
0100
1000
,  // measure 23
0001
0100
0010
0000
0110
0000
0100
0000
,  // measure 24
0101
0001
1001
1000
,  // measure 25
1010
0000
1000
0100
1000
0100
0010
0001
,  // measure 26
0010
0001
1000
0000
0001
0100
0010
0000
,  // measure 27
0100
0000
0110
0000
0001
1000
0010
1000
,  // measure 28
0001
0000
1000
0000
0001
1000
0100
0000
,  // measure 29
0010
0000
0100
0000
1000
0001
0100
0001
,  // measure 30
1000
0000
0010
0000
0100
0010
1000
0000
,  // measure 31
0010
0200
0001
0000
,  // measure 32
0301
0020
1000
0000
,  // measure 33
1030
0110
0001
0110
,  // measure 34
1000
0000
0000
0000
0010
0000
0000
0010
0000
0000
0010
0000
0200
0000
0000
0000
,  // measure 35
0300
0000
0000
0000
0001
0000
0000
1000
0000
0000
0001
0000
2002
0000
0000
0000
,  // measure 36
3003
0000
0001
0000
0010
0001
0200
0000
,  // measure 37
0310
0000
1000
0000
0001
1000
0020
0000
,  // measure 38
0130
0000
0001
0000
1000
0100
2000
0000
,  // measure 39
3001
0000
0100
0010
0100
0010
0100
0000
,  // measure 40
0010
0000
1001
0000
0001
0010
0200
0000
,  // measure 41
0310
0000
0001
0000
1000
0001
0020
0000
,  // measure 42
0031
2000
3100
0002
,  // measure 43
0103
0000
0000
0000
2000
0000
0000
0000
3010
0000
0000
0000
0100
0000
0000
0100
,  // measure 44
0000
0100
0020
0000
0000
0000
0230
0000
,  // measure 45
0000
0302
0000
2003
,  // measure 46
0000
3020
0000
0230
,  // measure 47
0000
0302
0000
0023
,  // measure 48
0000
0130
0110
0000
,  // measure 49
0110
0000
0000
0000
0110
0000
0000
0001
,  // measure 50
1000
0001
1000
0000
0110
0000
0000
0000
,  // measure 51
0110
0000
0000
0000
0110
0000
0000
0010
,  // measure 52
1000
0001
1000
0100
0100
0100
0001
0100
,  // measure 53
0100
0100
1000
0010
0010
0010
0001
0010
,  // measure 54
0010
0010
1000
0100
0010
0001
1000
0001
,  // measure 55
0100
0000
0010
0000
1000
0000
0000
1000
0000
0000
1000
0000
0002
0000
0000
0000
,  // measure 56
0103
0000
0010
0000
0100
0000
0001
1000
,  // measure 57
0010
0200
0310
0000
1000
0010
0200
0000
,  // measure 58
0310
0000
1000
0000
0100
0010
0002
0000
,  // measure 59
1003
0000
0001
0000
1000
0001
0200
0000
,  // measure 60
0310
0000
0100
0001
1000
0010
0100
0000
,  // measure 61
0010
0000
1001
0000
0001
1000
0200
0000
,  // measure 62
0310
0000
0100
0000
1000
0010
2000
0000
,  // measure 63
3001
2000
3100
0002
,  // measure 64
0103
0000
0000
0000
2000
0000
0000
0000
3010
0000
0000
0000
0001
0000
0000
0010
,  // measure 65
0000
1000
0001
1000
0001
0010
0001
0100
,  // measure 66
0001
0010
0100
1000
0001
0010
0100
0100
,  // measure 67
0010
0100
1000
0001
1000
0010
1000
0100
,  // measure 68
0010
0001
1000
0010
0100
0100
0010
0100
,  // measure 69
0001
1000
2002
0000
0000
0000
0000
0000
,  // measure 70
0000
0000
0000
0000
,  // measure 71
0000
0000
0000
3003
;
