#TITLE:Come & Get It!;
#SUBTITLE:;
#ARTIST:Krewella;
#TITLETRANSLIT:;
#SUBTITLETRANSLIT:;
#ARTISTTRANSLIT:;
#GENRE:;
#CREDIT:hooky;
#BANNER:[Round 2 Singles] - Come & Get It.png;
#BACKGROUND:[Round 2 Singles] - Come & Get It-bg.png;
#LYRICSPATH:;
#CDTITLE:;
#MUSIC:[Round 2 Singles] - Come & Get It.ogg;
#OFFSET:-12.438000;
#SAMPLESTART:33.813000;
#SAMPLELENGTH:12.000000;
#SELECTABLE:YES;
#DISPLAYBPM:87:174.000000;
#BPMS:0.000000=174.000000
,156.000000=87.000000
,188.000000=174.000000
,202.000000=696.000000
,205.000000=174.000000
,213.000000=348.000000
,221.000000=174.000000
;
#STOPS:62.000000=0.344826,
93.000000=0.344826,
124.000000=0.344826,
155.000000=0.344826,
202.000000=0.172409,
203.000000=0.172409,
204.000000=0.086212,
223.000000=0.344826
;
#BGCHANGES:;
#KEYSOUNDS:;
#ATTACKS:;

//---------------dance-single - ----------------
#NOTES:
     dance-single:
     :
     Challenge:
     10:
     0.647883,1.000000,0.157870,0.251157,0.322916,575.000000,22.000000,35.000000,0.000000,0.000000,0.000000,0.647883,1.000000,0.157870,0.251157,0.322916,575.000000,22.000000,35.000000,0.000000,0.000000,0.000000:
// measure 0
1000
0010
0100
0000
0001
0010
0100
0000
,  // measure 1
1000
0000
1000
0000
0010
0100
0001
0010
,  // measure 2
0001
1000
0010
0000
0100
0010
1000
0000
,  // measure 3
0100
0000
0100
0000
0010
0001
0100
0010
,  // measure 4
0100
0001
0010
0000
0001
0100
0010
0000
,  // measure 5
0010
1000
0100
0000
1000
0010
0001
0000
,  // measure 6
0001
0010
1000
0000
0100
0010
0001
0000
,  // measure 7
0100
0010
0100
0010
0100
0010
0100
0010
0100
0010
1000
0000
0100
0010
0001
0000
,  // measure 8
0110
0000
0010
1000
0100
1000
0010
0100
,  // measure 9
0001
0010
0001
0100
0010
0010
0010
0000
,  // measure 10
1000
0010
0100
0010
1000
0001
0010
0100
,  // measure 11
0010
0001
0100
0010
0100
0001
1000
0000
,  // measure 12
0010
0000
0100
0001
0010
0001
0100
0010
,  // measure 13
1000
0100
1000
0010
0100
0100
0100
0000
,  // measure 14
0001
0100
0001
0100
0001
0010
0001
1000
,  // measure 15
0010
0100
0010
0000
1000
0100
1000
0000
0110
0000
0000
0000
0200
0000
0000
0000
,  // measure 16
0310
1000
0100
0010
0001
0100
0020
0000
,  // measure 17
0130
0001
0010
0001
0100
0000
0020
0000
,  // measure 18
0130
0010
1000
0100
1000
0010
0200
0000
,  // measure 19
0310
0000
1000
0100
1000
0010
0100
0000
,  // measure 20
0001
0001
0010
0100
1000
0010
0200
0000
,  // measure 21
0310
1000
0100
1000
0010
0100
0001
0010
,  // measure 22
0001
0000
0010
0000
0100
0010
0100
0000
1000
0000
0000
0000
0010
0100
0010
0000
,  // measure 23
0100
0010
0100
0000
0110
0000
0000
0000
0200
0000
0000
0000
0310
0000
0010
0000
,  // measure 24
0010
0010
1000
0100
1000
0010
0010
0010
,  // measure 25
0010
0000
0100
0001
0010
0000
0001
0000
0100
0000
0010
0000
1000
0000
0100
0000
,  // measure 26
0010
0000
0100
0000
1000
0000
0001
0000
0100
0000
0010
1000
0010
0000
0100
0000
,  // measure 27
0000
0000
0010
0100
0010
0000
0000
0000
0020
0000
0000
0000
0130
0000
0100
0000
,  // measure 28
0100
0100
0001
0010
0001
0100
0100
0100
,  // measure 29
0100
0000
0010
1000
0100
0000
1000
0000
0010
0000
0100
0000
0001
0000
0010
0000
,  // measure 30
0100
0000
0010
0000
0001
0000
1000
0000
0010
0100
0010
0000
1000
0100
1000
0000
,  // measure 31
0011
0000
0000
0000
0100
0000
0010
0000
1000
0000
0100
0010
0100
0000
0010
0000
,  // measure 32
0001
0000
0100
0000
0010
0000
1000
0000
0100
0000
0010
0001
0010
0000
0100
0000
,  // measure 33
0010
0000
1000
0000
0100
0000
1000
0000
0010
0000
0100
0010
0100
0000
0001
0000
,  // measure 34
0010
0000
0100
0000
1000
0000
0010
1000
0010
0000
0100
0000
0010
0000
1000
0100
,  // measure 35
1000
0000
0100
0000
0010
0000
0001
0000
0100
0000
0010
0100
0010
0000
1000
0000
,  // measure 36
0001
0000
0010
0000
0100
0000
0010
0000
0001
0000
0100
0010
0100
0000
0010
0000
,  // measure 37
0100
0001
0010
0001
0010
0001
0100
0010
,  // measure 38
0100
0000
0010
0000
1000
0100
1000
0000
0001
0010
0001
0000
0110
0000
0000
0000
,  // measure 39
1010
0000
0010
1000
0010
1000
0010
0100
0001
0010
0001
0010
0001
0010
0001
0010
,  // measure 40
0001
0100
0010
0100
0010
0100
0010
1000
0200
0000
0010
0010
0300
0001
0100
0000
,  // measure 41
0101
0000
0100
0001
0100
0001
0100
0010
1000
0100
1000
0100
1000
0100
1000
0010
,  // measure 42
0100
0000
0000
0000
0000
0000
0001
0100
0001
0000
0000
0010
0000
0000
0001
0000
0100
0010
0100
0000
0010
0100
0010
0000
0010
0000
1000
0000
0100
0000
0010
0000
,  // measure 43
0200
0000
0000
0000
1300
0010
0100
0010
0100
0001
0010
0001
0100
0010
1000
0100
,  // measure 44
2000
0000
0000
0000
3010
0100
0001
0010
0200
0000
0000
0000
1300
0010
0100
0001
,  // measure 45
0020
0000
0000
0000
0031
0100
0010
0100
0010
1000
0100
1000
0010
0100
0001
0010
,  // measure 46
0002
0000
0000
0000
0103
0010
1000
0100
0020
0000
0000
0000
0031
0100
0010
1000
,  // measure 47
0100
0000
1000
0000
0010
0000
1000
0001
,  // measure 48
0001
0000
0100
0000
0001
0010
0001
0100
,  // measure 49
0010
0000
0000
0000
1000
0000
0000
0000
0100
0000
0000
0000
1000
0000
0010
0100
,  // measure 50
0010
0000
0000
0100
0000
0000
0001
0000
0010
0000
0000
0000
0010
0000
0000
0000
,  // measure 51
0010
0001
0101
0100
,  // measure 52
0010
0010
1000
0100
1000
0010
0100
0001
,  // measure 53
0010
0001
0100
0010
0100
0010
0100
0010
,  // measure 54
0100
0010
0100
0010
0100
0010
0100
0010
,  // measure 55
0100
0010
0220
0000
0000
0000
0330
0000
,  // measure 56
1010
0000
0000
0000
1000
0000
1100
0000
0000
0000
1100
0000
0000
0000
1000
0010
,  // measure 57
1000
0100
0010
0001
0100
0010
0100
0010
,  // measure 58
2000
0000
3100
1000
0000
0010
0100
0000
,  // measure 59
0001
0000
0100
0010
0100
0000
0001
0000
0000
0000
0001
0000
0010
0000
0000
0000
,  // measure 60
0101
0000
0000
0000
0001
0000
0011
0000
0000
0000
0011
0000
0000
0000
0001
0100
,  // measure 61
0001
0010
0100
1000
0010
0100
0010
0100
,  // measure 62
0001
0010
0001
0000
0100
0001
0100
0000
0010
0000
0000
0100
0000
0000
0100
0000
,  // measure 63
0010
0010
0000
1000
0100
0000
0100
0000
0010
0000
0001
0000
0100
0000
0010
0000
,  // measure 64
0020
0000
0130
0100
0100
0100
0001
0010
,  // measure 65
0001
0000
0100
0000
0100
0000
0100
0000
0100
0000
0010
1000
0100
0000
1000
0000
,  // measure 66
0010
0100
0001
0010
0100
0010
0001
1000
,  // measure 67
0010
0000
0100
0001
0100
0000
0010
0000
0000
0000
0100
0010
0100
0000
0000
0000
,  // measure 68
0200
0000
0310
0010
0010
0010
1000
0100
,  // measure 69
1000
0000
0010
0000
0010
0000
0010
0000
0010
0000
0100
0001
0010
0000
0001
0000
,  // measure 70
0200
0000
0000
0300
,  // measure 71
0020
0000
0000
0030
,  // measure 72
2200
0000
0000
0000
,  // measure 73
0000
0000
0000
3300
,  // measure 74
0022
0000
0000
0033
,  // measure 75
0202
0000
0000
0303
,  // measure 76
0220
0000
0000
0000
,  // measure 77
0000
0000
0000
0330
,  // measure 78
2020
0000
0000
3030
,  // measure 79
2200
0000
0000
3300
,  // measure 80
2002
0000
0000
0000
,  // measure 81
0000
0000
0000
0000
,  // measure 82
3003
0000
0000
0000
;

//---------------dance-single - ----------------
#NOTES:
     dance-single:
     :
     Hard:
     8:
     0.470535,0.559004,0.236805,0.330092,0.010764,380.000000,33.000000,46.000000,0.000000,0.000000,0.000000,0.470535,0.559004,0.236805,0.330092,0.010764,380.000000,33.000000,46.000000,0.000000,0.000000,0.000000:
0010
1000
0100
0000
0010
0000
0010
0000
,
0001
0100
0010
0000
0100
0000
0100
0000
,
0010
1000
0100
0000
0010
0001
0010
0000
,
0020
0000
0100
0130
,
0010
0001
0100
0000
0010
0000
0010
0000
,
1000
0010
0100
0000
0010
0000
0010
0000
,
1000
0010
1000
0000
0001
0100
0001
0000
,
0100
0010
0100
0020
0200
0000
0330
0000
,
1010
0000
0010
0100
0000
0100
0001
0010
,
0001
0100
0010
0000
0100
0000
0100
0000
,
0010
1000
0100
0010
0000
0100
0010
0000
,
0001
0100
0001
0000
0100
0010
1000
0000
,
0101
0000
0100
0010
0000
0010
1000
0100
,
1000
0010
0100
0000
0010
0000
0010
0000
,
1000
0100
1000
0100
1000
0010
1000
0020
,
0200
0000
0330
1020
,
1000
1030
0000
0100
0010
0000
0002
0000
,
0100
0103
0000
0010
0100
0000
0200
0000
,
0001
0301
0000
0001
1000
0000
0200
0000
,
1300
0000
0010
0100
0010
0000
0201
0000
,
0001
0301
0000
0010
0100
0000
2000
0000
,
0010
3010
0000
0100
0010
0000
1000
0001
,
1000
0001
1000
0010
1000
0000
0022
0000
,
0000
0033
0210
0310
,
1000
0100
1000
0010
0100
0000
0001
0000
,
0010
0001
0100
0000
0010
0000
0010
0000
,
1000
0100
0010
0001
0100
0000
0010
0100
,
0000
0100
0010
0000
0020
0000
0130
0000
,
0001
0010
0001
0100
0010
0000
1000
0000
,
0100
1000
0010
0000
0200
0000
0000
0000
,
0001
0000
0301
0000
0100
1000
0100
0001
,
1001
0000
1000
0001
0010
0100
1000
0000
,
1000
0000
0010
0100
0001
0010
0001
0000
,
0001
0000
0100
0010
1000
0010
0100
0010
,
0100
0001
0010
0001
1000
0010
0100
0010
,
1001
0000
0001
1000
0100
0010
0001
0000
,
0001
0000
0100
0010
1000
0100
1000
0000
,
1000
0000
0010
0100
0010
0100
0010
0100
,
0010
0100
2002
0000
0000
0000
3003
0000
,
1000
1000
1010
0000
0100
0100
0110
0000
,
0001
0000
0001
0000
0011
0000
0000
0000
0100
0000
0010
0100
0000
0100
0010
0000
,
0101
0001
0001
0000
0110
0010
0010
0000
,
1000
0000
1000
0000
1000
0000
0000
0000
0010
0100
0010
0000
0110
0000
0000
0000
,
2000
0000
0010
3010
0200
0000
0010
0310
,
2000
0000
0100
3100
0020
0000
0001
0031
,
0002
0000
0100
0103
0020
0000
0100
0130
,
0002
0000
0010
0013
0200
0000
1000
1300
,
0010
0100
0010
0100
,
0010
0100
0010
1000
,
0001
0010
0001
0010
,
0001
0100
0010
0010
,
0010
0010
0110
1000
,
1100
0000
0010
0001
0010
0000
0001
0100
,
0001
0100
0010
0100
,
0010
1000
0001
1000
,
0001
2002
0000
3003
,
1100
0000
0000
1100
0000
1100
0000
0000
,
0010
0100
0001
0000
0010
0100
1000
0000
,
0010
0100
0010
0110
0000
0110
0000
0000
,
0001
0010
0100
1000
0000
1000
0010
0000
,
0011
0000
0000
0011
0000
0011
0000
0000
,
0100
0010
1000
0000
0100
0010
0001
0000
,
0100
0010
0100
0010
0100
0000
0001
0000
,
0001
0010
0001
0100
0010
0000
0100
0000
,
0020
0000
0130
0000
0001
0010
0001
0100
,
0010
0000
1000
0000
0100
1000
0010
0000
,
0100
0000
0100
0000
0001
0010
0100
1000
,
0010
0000
0100
0010
0000
0010
0100
0000
,
0200
0000
0310
0000
1000
0100
1000
0010
,
0100
0000
0001
0000
0010
0001
0100
0000
,
0020
0000
0000
0030
,
2000
0000
0000
3000
,
0022
0000
0000
0000
,
0000
0000
0000
0033
,
2200
0000
0000
3300
,
2020
0000
0000
3030
,
0220
0000
0000
0000
,
0000
0000
0000
0330
,
0202
0000
0000
0303
,
0022
0000
0000
0033
,
2002
0000
0000
0000
,
0000
0000
0000
0000
,
3003
0000
0000
0000
;

//---------------dance-single - ----------------
#NOTES:
     dance-single:
     :
     Medium:
     6:
     0.345469,0.500162,0.121991,0.129167,0.000000,302.000000,17.000000,18.000000,0.000000,0.000000,0.000000,0.345469,0.500162,0.121991,0.129167,0.000000,302.000000,17.000000,18.000000,0.000000,0.000000,0.000000:
0010
1000
0100
0100
,
1000
0010
0100
0100
,
0001
0010
0001
0100
,
0010
0000
0100
0100
,
0010
1000
0100
1000
,
0010
0010
0100
0001
,
0010
0010
0001
0100
,
0010
1000
0010
0000
0100
0001
0100
0000
,
0001
0010
0001
0100
,
0010
0010
1000
0100
,
1000
1000
0001
0001
,
1000
1000
0001
0001
,
0010
0001
0100
0010
,
1000
1000
0100
0100
,
1000
0010
1000
0000
0001
0100
0001
0000
,
0010
0001
0010
0000
1001
0000
0100
0000
,
0100
0000
0010
1000
0100
0000
1000
0000
,
1000
1000
0000
0010
,
0010
0000
0100
0001
0010
0000
0001
0000
,
0001
0001
0000
0100
,
0010
0000
1000
0100
0010
0000
0001
0000
,
0100
0000
0001
0000
0000
0000
0010
0001
,
0100
0000
0010
0000
0010
0000
0010
1000
,
0100
1000
0010
0010
,
0100
0100
0010
0010
,
0100
0100
0001
1000
,
0010
0100
0001
0000
0010
0000
0000
0000
,
0010
0000
0001
0001
,
1000
1000
0010
0010
,
0100
0000
0100
0000
0001
0010
0001
0000
,
0100
0000
0100
0000
0010
1000
0100
0000
,
1000
0000
0010
0000
0010
0000
0100
0001
,
0010
0001
0001
1000
,
0010
0000
1000
0000
1000
0000
0010
0100
,
0001
0010
0001
1000
,
0010
0000
1000
0000
1000
0000
0010
0100
,
0001
0010
0010
0001
,
0000
1000
1000
0001
,
0001
0000
1000
0001
1000
0001
1000
0000
,
0010
0100
0010
1000
,
0100
0000
1000
0000
0010
0100
0001
0000
,
0010
0000
0001
0000
1000
0010
0100
0000
,
0001
0001
0001
0000
1000
1000
1000
0000
,
0010
0010
1010
0000
0010
0000
0110
0000
,
0100
0100
0101
0000
0001
0000
0011
0000
,
0001
0001
1001
0000
1000
0000
1010
0000
,
0010
0010
0110
0000
0100
0100
0110
0000
,
0010
1000
0010
0100
,
0001
0010
0001
0000
,
0001
1000
0010
0100
,
0010
0100
0010
0010
,
0010
0010
1000
0100
,
1000
0010
0100
0001
,
0010
0001
0000
0010
,
0000
0100
0000
1000
,
0000
2002
0000
3003
,
1000
1000
1000
1000
,
0010
0100
0001
0010
,
0001
0001
0001
0001
,
0100
0010
1000
0000
0100
0000
0100
0000
,
1000
0000
0010
0000
0100
0001
0010
0000
,
0001
0001
0100
0100
,
0010
0010
1000
0000
,
0100
0000
0100
0000
,
1000
0010
0100
0001
,
0010
0010
0001
0001
,
0100
0010
1000
1000
,
0100
0000
1000
0000
0010
0100
0001
0000
,
0010
0010
0001
0001
,
0100
0010
1000
1000
,
0200
0000
0000
0300
,
0020
0000
0000
0030
,
0022
0000
0000
0000
,
0000
0000
0000
0033
,
0202
0000
0000
0303
,
2020
0000
0000
3030
,
0220
0000
0000
0000
,
0000
0000
0000
0330
,
2200
0000
0000
3300
,
0202
0000
0000
0303
,
2002
0000
0000
0000
,
0000
0000
0000
0000
,
3003
0000
0000
0000
;

//---------------dance-single - ----------------
#NOTES:
     dance-single:
     :
     Easy:
     4:
     0.258333,0.411898,0.150694,0.165046,0.000000,208.000000,21.000000,23.000000,0.000000,0.000000,0.000000,0.258333,0.411898,0.150694,0.165046,0.000000,208.000000,21.000000,23.000000,0.000000,0.000000,0.000000:
0010
1000
0100
0000
,
1000
0000
1000
0000
,
0010
0100
0001
0000
,
0010
0000
0010
0000
,
0001
1000
0001
0000
,
0100
0000
0100
0000
,
0010
0010
0100
0100
,
0001
1000
0001
0000
,
0100
0100
0010
0010
,
0100
0100
0001
0000
,
1000
0000
0010
0000
,
1000
1000
0001
0000
,
0010
0001
0100
0100
,
0001
0010
0001
1000
,
0001
0000
1000
0000
,
0010
0100
0110
0010
,
0000
0010
0000
1000
,
0000
1000
0000
0001
,
0000
0001
0000
0100
,
0100
0001
0001
0010
,
0000
0010
0000
0001
,
0000
0001
0000
1000
,
0010
1000
0100
1000
,
1000
1001
0001
0010
,
0001
0100
0010
0010
,
0100
0000
0001
1000
,
0010
1000
0100
0000
,
0100
0000
1000
0010
,
0100
0001
0010
0010
,
0001
0000
0100
0000
,
0100
0000
0010
0000
,
0010
1000
0000
0100
,
0000
1000
0000
0010
,
0000
0100
0000
0001
,
0000
0010
0000
0001
,
0000
0100
0000
0010
,
0000
1000
0000
0100
,
0000
1000
1000
0001
,
0001
1000
0001
1001
,
0100
0110
0010
1010
,
1000
1100
0001
0011
,
0001
0101
0100
0110
,
0010
0010
0010
0000
1000
0000
1000
0000
,
0100
1000
0100
0000
2000
0000
3000
0000
,
0010
0100
0010
0000
0200
0000
0300
0000
,
0001
0100
0001
0000
0002
0000
0003
0000
,
0010
0001
0010
0000
0020
0000
0130
0000
,
0110
0000
0100
0000
,
1010
0000
0010
0000
,
1100
0000
1000
0000
,
0011
0000
0200
0000
,
0300
0010
0000
0100
,
0000
0010
0000
1000
,
0000
0100
0000
0000
,
0000
0010
0000
0000
,
0000
2002
0000
3003
,
0100
0000
0100
0000
,
0010
0010
0010
0000
,
1000
0000
0100
0000
,
1000
1000
1000
0000
,
0001
0000
0010
0000
,
0001
0001
0001
0000
,
0100
0010
1000
0000
,
0100
0000
0010
0000
,
0001
0100
0001
0000
,
0010
0001
0010
0000
,
0001
1000
0010
0000
,
0100
0001
0100
0100
,
0001
0010
1000
0000
,
1000
0010
0001
0000
,
0020
0000
0000
0030
,
0200
0000
0000
0300
,
2200
0000
0000
0000
,
0000
0000
0000
3300
,
2020
0000
0000
3030
,
0202
0000
0000
0303
,
0220
0000
0000
0000
,
0000
0000
0000
0330
,
0022
0000
0000
0033
,
2020
0000
0000
3030
,
2002
0000
0000
0000
,
0000
0000
0000
0000
,
3003
0000
0000
0000
;

//---------------dance-single - ----------------
#NOTES:
     dance-single:
     :
     Beginner:
     2:
     0.119940,0.200926,0.035880,0.000000,0.000000,112.000000,5.000000,0.000000,0.000000,0.000000,0.000000,0.119940,0.200926,0.035880,0.000000,0.000000,112.000000,5.000000,0.000000,0.000000,0.000000,0.000000:
1000
0000
0000
0000
,
1000
0000
0000
0000
,
0001
0000
0000
0000
,
0001
0000
0000
0000
,
1000
0000
0000
0000
,
1000
0000
0000
0000
,
0001
0000
0000
0000
,
0001
0000
0000
0000
,
0100
0000
0000
0000
,
0100
0000
0000
0000
,
0010
0000
0000
0000
,
0010
0000
0000
0000
,
1000
0000
0000
0000
,
0001
0000
0000
0000
,
1000
0000
1000
0000
,
1000
0000
0000
0010
,
0000
0000
0000
0100
,
0000
0000
0000
0001
,
0000
0000
0000
1000
,
0000
1000
0000
0010
,
0000
0000
0000
1000
,
0000
0000
0000
0001
,
0000
0001
0000
0001
,
0001
0001
1000
0000
,
0000
0000
1000
0000
,
0000
0000
0001
0000
,
0000
0000
0001
0000
,
0000
0000
0010
0000
,
0000
0000
0100
0000
,
0000
0000
1000
0000
,
0000
0000
0001
0001
,
0001
1000
0000
0000
,
0000
1000
0000
0000
,
0000
0100
0000
0000
,
0000
0010
0000
0000
,
0000
0001
0000
0000
,
0000
0100
0000
0000
,
0000
0001
0000
0001
,
0000
0001
0001
0001
,
1000
0000
0010
0000
,
0100
0000
0001
0000
,
1100
0000
0010
0000
,
1000
0000
0100
0000
,
1000
1000
1000
0000
,
0001
0001
0001
0000
,
0010
0010
0010
0000
,
0100
0100
0100
0000
,
1000
0000
0000
0000
,
0001
0000
0000
0000
,
0010
0000
0000
0000
,
0100
0000
0000
0000
,
0000
0010
0000
0000
,
0000
1000
0000
0000
,
0000
0001
0000
0000
,
0000
1000
0000
0000
,
0000
1001
0000
0000
,
0100
0000
0000
0000
,
0100
0000
0000
0000
,
0010
0000
0000
0000
,
0010
0000
0010
0000
,
1000
0000
0000
0000
,
1000
0000
1000
0000
,
0001
0000
1000
0000
,
0010
0010
0010
0000
,
1000
0000
1000
0000
,
0001
0000
0001
0000
,
1000
0000
0001
0000
,
1000
1000
1000
0000
,
0010
0000
0100
0000
,
0010
0000
0010
0000
,
0110
0000
0000
0000
,
1001
0000
0000
0000
,
1000
0000
0000
0000
,
0000
0000
0000
0000
,
0010
0000
0000
0000
,
0000
0000
0000
0000
,
0100
0000
0000
0000
,
0000
0000
0000
0000
,
0001
0000
0000
0000
,
0000
0000
0000
0000
,
1001
0000
0000
0000
;
