#TITLE:DOODAH!;
#SUBTITLE:(K.O.G. Re-edit);
#ARTIST:CARTOONS;
#TITLETRANSLIT:;
#SUBTITLETRANSLIT:;
#ARTISTTRANSLIT:;
#GENRE:;
#CREDIT:Lisek;
#BANNER:[Qualifier Singles] - DOODAH! (K.O.G. Re-edit)DOODAH! (K.O.G. Re-edit).png;
#BACKGROUND:[Qualifier Singles] - DOODAH! (K.O.G. Re-edit)DOODAH! (K.O.G. Re-edit)-bg.png;
#JACKET:[Qualifier Singles] - DOODAH! (K.O.G. Re-edit)DOODAH! (K.O.G. Re-edit)-jacket.png;
#LYRICSPATH:;
#CDTITLE:cdtitle.png;
#MUSIC:[Qualifier Singles] - DOODAH! (K.O.G. Re-edit)DOODAH! (K.O.G. Re-edit).ogg;
#OFFSET:-0.485000;
#SAMPLESTART:6.899998;
#SAMPLELENGTH:12.899999;
#SELECTABLE:YES;
#BPMS:0.000000=149.800003
;
#STOPS:
;
#BGCHANGES:;
#KEYSOUNDS:;
#ATTACKS:;

//---------------dance-single - ----------------
#NOTES:
     dance-single:
     Lisek:
     Hard:
     7:
     0.440071,0.420143,0.350804,0.252140,0.000000,226.000000,32.000000,23.000000,0.000000,0.000000,0.000000,0.440071,0.420143,0.350804,0.252140,0.000000,226.000000,32.000000,23.000000,0.000000,0.000000,0.000000:
0000
0000
0000
0000
,
0000
0000
0000
0000
,
0000
0000
0000
0000
,
0000
0000
0000
0000
,
1000
0100
0010
0001
0100
0010
0100
0000
,
0010
0010
0000
0000
0100
0100
0000
0000
,
0001
0010
0100
1000
0010
0100
0010
0000
,
1000
0001
1001
0000
,
0001
0100
0010
1000
0100
0010
0100
0000
,
0010
0010
0000
0000
0100
0100
0000
0000
,
1000
0010
0100
0001
0010
0100
0010
0000
,
0001
1000
1001
0000
,
0001
0101
2002
3003
,
1000
1100
2002
3003
,
0001
0010
0100
1000
0010
0100
0001
0000
,
0010
0011
1001
0000
,
1000
1010
2002
3003
,
0001
0011
2002
3003
,
1000
0010
0100
0001
1000
0100
0010
0000
,
0001
1000
1001
0000
,
1000
0000
0010
0000
1000
0100
0010
0000
,
0001
0000
0100
0000
0001
0010
0100
0000
,
1000
0000
0010
0000
1000
0100
0010
0000
,
0001
0010
0100
1000
0001
0010
0100
0000
,
0000
1000
0000
1000
0000
1000
1001
0000
,
0000
0100
0000
0100
0000
0100
0110
0000
,
0000
0001
0000
0001
0000
0001
1001
0000
,
1000
0001
1000
0000
,
0001
0010
0001
0100
0001
0000
0100
0000
,
0010
1000
0010
0100
0010
0000
1000
0000
,
0010
0100
0020
0030
,
1000
0100
0010
0001
,
1000
0100
1000
0010
,
0100
0001
0100
0010
,
1000
0100
0010
0001
1000
0001
1000
0000
,
2002
0000
0000
3003
,
0220
0000
0000
0330
,
1001
0000
0000
0010
0010
0000
0000
0000
,
2002
0000
0000
3003
,
1000
0100
0010
0001
0100
0010
0100
0000
,
0001
0001
0000
0000
1000
1000
0000
0000
,
0001
0100
0010
1000
0001
0010
0100
0000
,
1000
0001
1001
0000
,
0001
0010
0100
1000
0001
0010
0100
0000
,
1000
1000
0000
0000
0001
0001
0000
0000
,
1000
0010
0100
0001
1000
0100
0010
0000
,
0001
1000
1001
0000
,
0001
0011
0202
0303
,
1000
1100
2020
3030
,
1000
0010
0100
0010
1000
0001
1000
0000
,
0001
0101
1001
0000
,
1000
1010
2002
3003
,
0001
0101
2002
3003
,
0001
0100
0010
1000
0100
1000
0010
0000
,
1000
0000
0010
0000
0000
0100
0100
0000
;

//---------------dance-single - ----------------
#NOTES:
     dance-single:
     Lisek:
     Medium:
     5:
     0.302255,0.298732,0.164439,0.120589,0.000000,167.000000,15.000000,11.000000,0.000000,0.000000,0.000000,0.302255,0.298732,0.164439,0.120589,0.000000,167.000000,15.000000,11.000000,0.000000,0.000000,0.000000:
0000
0000
0000
0000
,
0000
0000
0000
0000
,
0000
0000
0000
0000
,
0000
0000
0000
0000
,
1000
0010
0100
0010
,
0110
0000
1010
0000
,
1000
0001
0100
0010
,
0100
0001
0100
0000
,
0001
0100
0010
0100
,
0101
0000
1001
0000
,
1000
0010
0100
0010
,
1000
0100
0010
0000
,
0001
0010
0200
0300
,
1000
0100
0020
0030
,
0001
1000
0001
0100
,
0010
0100
0110
0000
,
1000
0100
0020
0030
,
0001
0010
0200
0300
,
1000
0010
0100
0010
,
1000
0001
1000
0000
,
0001
0010
0001
0010
,
0100
1000
0100
1000
,
0001
0100
0001
0100
,
0010
1000
0020
0000
,
1030
0100
1000
0100
,
0010
0001
0010
0001
,
1000
0010
1000
0010
,
0100
0001
0100
0000
,
0001
0100
0010
0100
,
0001
1000
0010
1000
,
0001
0100
0010
0100
,
0001
1000
0010
1000
,
0002
0100
0010
1000
,
2003
0010
0100
0001
,
3001
0100
0010
1000
,
1001
0000
0000
0000
,
0110
0000
0000
0000
,
1001
0000
1001
0000
,
0110
0000
0000
0000
,
0001
0100
0010
0100
,
0101
0000
1001
0000
,
1000
0010
0100
0001
,
0010
0100
1000
0000
,
0001
1000
0010
0100
,
0110
0000
1010
0000
,
1000
0100
0010
0001
,
0100
0010
0100
0000
,
0001
0010
0200
0300
,
1000
0100
0020
0030
,
0001
1000
0010
0100
,
0001
1000
1001
0000
,
1000
0100
0020
0030
,
0001
0010
0200
0300
,
1000
0001
0100
0010
,
1000
0001
0010
0000
;

//---------------dance-single - ----------------
#NOTES:
     dance-single:
     Lisek:
     Easy:
     3:
     0.266235,0.238985,0.000000,0.263103,0.000000,146.000000,0.000000,24.000000,0.000000,0.000000,0.000000,0.266235,0.238985,0.000000,0.263103,0.000000,146.000000,0.000000,24.000000,0.000000,0.000000,0.000000:
0000
0000
0000
0000
,
0000
0000
0000
0000
,
0000
0000
0000
0000
,
0000
0000
0000
0000
,
1000
0100
0010
0001
,
2000
3000
0002
0003
,
1000
0001
0010
0100
,
1000
0001
1000
0000
,
0001
0100
0010
1000
,
0002
0003
2000
3000
,
0001
1000
0010
0100
,
0001
1000
0001
0000
,
1000
0100
2000
3000
,
0001
0100
0002
0003
,
1000
0001
0100
0010
,
1000
0001
1000
0000
,
0001
0010
0002
0003
,
1000
0010
2000
3000
,
0001
0010
0100
1000
,
0001
1000
0001
0000
,
1000
0100
0020
0000
,
0031
1000
0200
0000
,
0310
0001
2000
0000
,
3100
0010
0002
0000
,
1003
0001
0100
0010
,
1000
0001
0100
0010
,
1000
0001
0100
0010
,
2000
0000
0000
3000
,
0001
0100
0010
0000
,
0100
0001
1000
0000
,
0010
1000
0001
0000
,
0100
0001
1000
0000
,
0000
0000
0000
0000
,
0000
0000
0000
0000
,
0000
0000
0000
0000
,
0002
0000
0003
0000
,
2000
0000
3000
0000
,
0010
0000
0100
0000
,
0002
0000
0003
0000
,
1000
0100
0010
0001
,
2000
3000
0002
0003
,
1000
0001
0010
0100
,
1000
0001
1000
0000
,
0001
0100
0010
1000
,
0002
0003
2000
3000
,
0001
1000
0010
0100
,
0001
1000
0001
0000
,
1000
0100
2000
3000
,
0001
0010
0002
0003
,
1000
0010
0100
0001
,
1000
0001
1000
0000
,
0001
0100
0002
0003
,
1000
0010
2000
3000
,
0001
0010
0100
1000
,
0001
0100
0010
0000
;

//---------------dance-single - ----------------
#NOTES:
     dance-single:
     Lisek:
     Beginner:
     1:
     0.075172,0.088797,0.000000,0.021925,0.000000,46.000000,0.000000,2.000000,0.000000,0.000000,0.000000,0.075172,0.088797,0.000000,0.021925,0.000000,46.000000,0.000000,2.000000,0.000000,0.000000,0.000000:
// measure 0
0000
0000
0000
0000
,  // measure 1
0000
0000
0000
0000
,  // measure 2
0000
0000
0000
0000
,  // measure 3
0000
0000
0000
0000
,  // measure 4
1000
0000
0000
0000
,  // measure 5
0001
0000
0000
0000
,  // measure 6
1000
0000
0000
0000
,  // measure 7
0010
0000
0000
0000
,  // measure 8
1000
0000
0000
0000
,  // measure 9
0001
0000
0000
0000
,  // measure 10
1000
0000
0000
0000
,  // measure 11
0010
0000
0000
0000
,  // measure 12
0100
0000
0000
0000
,  // measure 13
0010
0000
0000
0000
,  // measure 14
1000
0000
0000
0000
,  // measure 15
0010
0000
0000
0000
,  // measure 16
0100
0000
0000
0000
,  // measure 17
0010
0000
0000
0000
,  // measure 18
1000
0000
0000
0000
,  // measure 19
0001
0000
0000
0000
,  // measure 20
2000
0000
0000
0000
,  // measure 21
0000
0000
0000
0000
,  // measure 22
0000
0000
0000
0000
,  // measure 23
0000
0000
0000
3000
,  // measure 24
0002
0000
0000
0000
,  // measure 25
0000
0000
0000
0000
,  // measure 26
0000
0000
0000
0000
,  // measure 27
0003
0000
0000
0000
,  // measure 28
1000
0000
0000
0000
,  // measure 29
0010
0000
0000
0000
,  // measure 30
0100
0000
0000
0000
,  // measure 31
0001
0000
0000
0000
,  // measure 32
1000
0000
0000
0000
,  // measure 33
0001
0000
0000
0000
,  // measure 34
1000
0000
0000
0000
,  // measure 35
0001
0000
0000
0000
,  // measure 36
1000
0000
0000
0000
,  // measure 37
0001
0000
1000
0000
,  // measure 38
0001
0000
0000
0000
,  // measure 39
1000
0000
0000
0000
,  // measure 40
0010
0000
0000
0000
,  // measure 41
1000
0000
0000
0000
,  // measure 42
0100
0000
0000
0000
,  // measure 43
1000
0000
0000
0000
,  // measure 44
0001
0000
0000
0000
,  // measure 45
1000
0000
0000
0000
,  // measure 46
0010
0000
0000
0000
,  // measure 47
0100
0000
0000
0000
,  // measure 48
0010
0000
0000
0000
,  // measure 49
1000
0000
0000
0000
,  // measure 50
0010
0000
0000
0000
,  // measure 51
0100
0000
0000
0000
,  // measure 52
0010
0000
0000
0000
,  // measure 53
1000
0000
0000
0000
,  // measure 54
0001
0000
0000
0000
;
